  0
SECTION
  2
HEADER
  9
$ACADVER
  1
AC1018
  9
$ACADMAINTVER
 70
     0
  9
$DWGCODEPAGE
  3
ANSI_1252
  9
$INSBASE
 10
0.0
 20
0.0
 30
0.0
  9
$EXTMIN
 10
90.107578653474
 20
82.1965646936222
 30
0.0
  9
$EXTMAX
 10
208.946803304589
 20
165.876257280423
 30
0.0
  9
$LIMMIN
 10
0.0
 20
0.0
  9
$LIMMAX
 10
12.0
 20
9.0
  9
$ORTHOMODE
 70
     0
  9
$REGENMODE
 70
     1
  9
$FILLMODE
 70
     1
  9
$QTEXTMODE
 70
     0
  9
$MIRRTEXT
 70
     1
  9
$LTSCALE
 40
1.0
  9
$ATTMODE
 70
     1
  9
$TEXTSIZE
 40
0.2
  9
$TRACEWID
 40
0.05
  9
$TEXTSTYLE
  7
Standard
  9
$CLAYER
  8
0
  9
$CELTYPE
  6
ByLayer
  9
$CECOLOR
 62
   256
  9
$CELTSCALE
 40
1.0
  9
$DISPSILH
 70
     0
  9
$DIMSCALE
 40
1.0
  9
$DIMASZ
 40
0.18
  9
$DIMEXO
 40
0.0625
  9
$DIMDLI
 40
0.38
  9
$DIMRND
 40
0.0
  9
$DIMDLE
 40
0.0
  9
$DIMEXE
 40
0.18
  9
$DIMTP
 40
0.0
  9
$DIMTM
 40
0.0
  9
$DIMTXT
 40
0.18
  9
$DIMCEN
 40
0.09
  9
$DIMTSZ
 40
0.0
  9
$DIMTOL
 70
     0
  9
$DIMLIM
 70
     0
  9
$DIMTIH
 70
     1
  9
$DIMTOH
 70
     1
  9
$DIMSE1
 70
     0
  9
$DIMSE2
 70
     0
  9
$DIMTAD
 70
     0
  9
$DIMZIN
 70
     0
  9
$DIMBLK
  1

  9
$DIMASO
 70
     1
  9
$DIMSHO
 70
     1
  9
$DIMPOST
  1

  9
$DIMAPOST
  1

  9
$DIMALT
 70
     0
  9
$DIMALTD
 70
     2
  9
$DIMALTF
 40
25.4
  9
$DIMLFAC
 40
1.0
  9
$DIMTOFL
 70
     0
  9
$DIMTVP
 40
0.0
  9
$DIMTIX
 70
     0
  9
$DIMSOXD
 70
     0
  9
$DIMSAH
 70
     0
  9
$DIMBLK1
  1

  9
$DIMBLK2
  1

  9
$DIMSTYLE
  2
Standard
  9
$DIMCLRD
 70
     0
  9
$DIMCLRE
 70
     0
  9
$DIMCLRT
 70
     0
  9
$DIMTFAC
 40
1.0
  9
$DIMGAP
 40
0.09
  9
$DIMJUST
 70
     0
  9
$DIMSD1
 70
     0
  9
$DIMSD2
 70
     0
  9
$DIMTOLJ
 70
     1
  9
$DIMTZIN
 70
     0
  9
$DIMALTZ
 70
     0
  9
$DIMALTTZ
 70
     0
  9
$DIMUPT
 70
     0
  9
$DIMDEC
 70
     4
  9
$DIMTDEC
 70
     4
  9
$DIMALTU
 70
     2
  9
$DIMALTTD
 70
     2
  9
$DIMTXSTY
  7
Standard
  9
$DIMAUNIT
 70
     0
  9
$DIMADEC
 70
     0
  9
$DIMALTRND
 40
0.0
  9
$DIMAZIN
 70
     0
  9
$DIMDSEP
 70
    46
  9
$DIMATFIT
 70
     3
  9
$DIMFRAC
 70
     0
  9
$DIMLDRBLK
  1

  9
$DIMLUNIT
 70
     2
  9
$DIMLWD
 70
    -2
  9
$DIMLWE
 70
    -2
  9
$DIMTMOVE
 70
     0
  9
$LUNITS
 70
     2
  9
$LUPREC
 70
     4
  9
$SKETCHINC
 40
0.1
  9
$FILLETRAD
 40
0.5
  9
$AUNITS
 70
     0
  9
$AUPREC
 70
     0
  9
$MENU
  1
.
  9
$ELEVATION
 40
0.0
  9
$PELEVATION
 40
0.0
  9
$THICKNESS
 40
0.0
  9
$LIMCHECK
 70
     0
  9
$CHAMFERA
 40
0.5
  9
$CHAMFERB
 40
0.5
  9
$CHAMFERC
 40
1.0
  9
$CHAMFERD
 40
0.0
  9
$SKPOLY
 70
     0
  9
$TDCREATE
 40
2454809.402251956
  9
$TDUCREATE
 40
2454809.36058529
  9
$TDUPDATE
 40
2454809.402251968
  9
$TDUUPDATE
 40
2454809.360585301
  9
$TDINDWG
 40
0.0000000116
  9
$TDUSRTIMER
 40
0.0000000116
  9
$USRTIMER
 70
     1
  9
$ANGBASE
 50
0.0
  9
$ANGDIR
 70
     0
  9
$PDMODE
 70
     0
  9
$PDSIZE
 40
0.0
  9
$PLINEWID
 40
0.0
  9
$SPLFRAME
 70
     0
  9
$SPLINETYPE
 70
     6
  9
$SPLINESEGS
 70
     8
  9
$HANDSEED
  5
168
  9
$SURFTAB1
 70
     6
  9
$SURFTAB2
 70
     6
  9
$SURFTYPE
 70
     6
  9
$SURFU
 70
     6
  9
$SURFV
 70
     6
  9
$UCSBASE
  2

  9
$UCSNAME
  2

  9
$UCSORG
 10
0.0
 20
0.0
 30
0.0
  9
$UCSXDIR
 10
1.0
 20
0.0
 30
0.0
  9
$UCSYDIR
 10
0.0
 20
1.0
 30
0.0
  9
$UCSORTHOREF
  2

  9
$UCSORTHOVIEW
 70
     0
  9
$UCSORGTOP
 10
0.0
 20
0.0
 30
0.0
  9
$UCSORGBOTTOM
 10
0.0
 20
0.0
 30
0.0
  9
$UCSORGLEFT
 10
0.0
 20
0.0
 30
0.0
  9
$UCSORGRIGHT
 10
0.0
 20
0.0
 30
0.0
  9
$UCSORGFRONT
 10
0.0
 20
0.0
 30
0.0
  9
$UCSORGBACK
 10
0.0
 20
0.0
 30
0.0
  9
$PUCSBASE
  2

  9
$PUCSNAME
  2

  9
$PUCSORG
 10
0.0
 20
0.0
 30
0.0
  9
$PUCSXDIR
 10
1.0
 20
0.0
 30
0.0
  9
$PUCSYDIR
 10
0.0
 20
1.0
 30
0.0
  9
$PUCSORTHOREF
  2

  9
$PUCSORTHOVIEW
 70
     0
  9
$PUCSORGTOP
 10
0.0
 20
0.0
 30
0.0
  9
$PUCSORGBOTTOM
 10
0.0
 20
0.0
 30
0.0
  9
$PUCSORGLEFT
 10
0.0
 20
0.0
 30
0.0
  9
$PUCSORGRIGHT
 10
0.0
 20
0.0
 30
0.0
  9
$PUCSORGFRONT
 10
0.0
 20
0.0
 30
0.0
  9
$PUCSORGBACK
 10
0.0
 20
0.0
 30
0.0
  9
$USERI1
 70
     0
  9
$USERI2
 70
     0
  9
$USERI3
 70
     0
  9
$USERI4
 70
     0
  9
$USERI5
 70
     0
  9
$USERR1
 40
14.5
  9
$USERR2
 40
0.0
  9
$USERR3
 40
0.0
  9
$USERR4
 40
0.0
  9
$USERR5
 40
0.0
  9
$WORLDVIEW
 70
     1
  9
$SHADEDGE
 70
     3
  9
$SHADEDIF
 70
    70
  9
$TILEMODE
 70
     1
  9
$MAXACTVP
 70
    64
  9
$PINSBASE
 10
0.0
 20
0.0
 30
0.0
  9
$PLIMCHECK
 70
     0
  9
$PEXTMIN
 10
1.00000000000000E+20
 20
1.00000000000000E+20
 30
1.00000000000000E+20
  9
$PEXTMAX
 10
-1.00000000000000E+20
 20
-1.00000000000000E+20
 30
-1.00000000000000E+20
  9
$PLIMMIN
 10
0.0
 20
0.0
  9
$PLIMMAX
 10
12.0
 20
9.0
  9
$UNITMODE
 70
     0
  9
$VISRETAIN
 70
     1
  9
$PLINEGEN
 70
     0
  9
$PSLTSCALE
 70
     1
  9
$TREEDEPTH
 70
  3020
  9
$CMLSTYLE
  2
Standard
  9
$CMLJUST
 70
     0
  9
$CMLSCALE
 40
1.0
  9
$PROXYGRAPHICS
 70
     1
  9
$MEASUREMENT
 70
     1
  9
$CELWEIGHT
370
    -1
  9
$ENDCAPS
280
     0
  9
$JOINSTYLE
280
     0
  9
$LWDISPLAY
290
     0
  9
$INSUNITS
 70
     1
  9
$HYPERLINKBASE
  1

  9
$STYLESHEET
  1

  9
$XEDIT
290
     1
  9
$CEPSNTYPE
380
     0
  9
$PSTYLEMODE
290
     1
  9
$FINGERPRINTGUID
  2
{416B8AEB-D2AD-4E5E-A6DA-040AD3E6524B}
  9
$VERSIONGUID
  2
{FAEB1C32-E019-11D5-929B-00C0DF256EC4}
  9
$EXTNAMES
290
     1
  9
$PSVPSCALE
 40
0.0
  9
$OLESTARTUP
290
     0
  9
$SORTENTS
280
   127
  9
$INDEXCTL
280
     0
  9
$HIDETEXT
280
     1
  9
$XCLIPFRAME
290
     0
  9
$HALOGAP
280
     0
  9
$OBSCOLOR
 70
   257
  9
$OBSLTYPE
280
     0
  9
$INTERSECTIONDISPLAY
280
     0
  9
$INTERSECTIONCOLOR
 70
   257
  9
$DIMASSOC
280
     2
  9
$PROJECTNAME
  1

  0
ENDSEC
  0
SECTION
  2
CLASSES
  0
CLASS
  1
ACDBDICTIONARYWDFLT
  2
AcDbDictionaryWithDefault
  3
ObjectDBX Classes
 90
        0
 91
        3
280
     0
281
     0
  0
CLASS
  1

  2
exOdDbCircle
  3

 90
        0
 91
        3
280
     0
281
     1
  0
ENDSEC
  0
SECTION
  2
TABLES
  0
TABLE
  2
VPORT
  5
8
330
0
100
AcDbSymbolTable
 70
     1
  0
VPORT
  5
29
330
8
100
AcDbSymbolTableRecord
100
AcDbViewportTableRecord
  2
*Active
 70
     0
 10
0.0
 20
0.0
 11
1.0
 21
1.0
 12
149.5271909790315
 22
124.0364109870226
 13
0.0
 23
0.0
 14
0.5
 24
0.5
 15
0.5
 25
0.5
 16
0.0
 26
0.0
 36
1.0
 17
0.0
 27
0.0
 37
0.0
 40
92.0476618454809
 41
1.60267857142857
 42
50.0
 43
0.0
 44
0.0
 50
0.0
 51
0.0
 71
     0
 72
   100
 73
     1
 74
     3
 75
     0
 76
     0
 77
     0
 78
     0
281
     0
 65
     1
110
0.0
120
0.0
130
0.0
111
1.0
121
0.0
131
0.0
112
0.0
122
1.0
132
0.0
 79
     0
146
0.0
  0
ENDTAB
  0
TABLE
  2
LTYPE
  5
5
330
0
100
AcDbSymbolTable
 70
     8
  0
LTYPE
  5
14
330
5
100
AcDbSymbolTableRecord
100
AcDbLinetypeTableRecord
  2
ByBlock
 70
     0
  3

 72
    65
 73
     0
 40
0.0
  0
LTYPE
  5
15
330
5
100
AcDbSymbolTableRecord
100
AcDbLinetypeTableRecord
  2
ByLayer
 70
     0
  3

 72
    65
 73
     0
 40
0.0
  0
LTYPE
  5
16
330
5
100
AcDbSymbolTableRecord
100
AcDbLinetypeTableRecord
  2
Continuous
 70
     0
  3
Solid line
 72
    65
 73
     0
 40
0.0
  0
LTYPE
  5
2A
330
5
100
AcDbSymbolTableRecord
100
AcDbLinetypeTableRecord
  2
DASHED
 70
     0
  3
Dashed
 72
    65
 73
     2
 40
15.0
 49
7.0
 74
     0
 49
-8.0
 74
     0
  0
LTYPE
  5
2B
330
5
100
AcDbSymbolTableRecord
100
AcDbLinetypeTableRecord
  2
DOTTED
 70
     0
  3
Dotted
 72
    65
 73
     2
 40
1.0
 49
0.0
 74
     0
 49
-1.0
 74
     0
  0
LTYPE
  5
2C
330
5
100
AcDbSymbolTableRecord
100
AcDbLinetypeTableRecord
  2
DOT_CENTER
 70
     0
  3
Dot_Center
 72
    65
 73
     4
 40
14.0
 49
12.0
 74
     0
 49
-1.0
 74
     0
 49
0.0
 74
     0
 49
-1.0
 74
     0
  0
LTYPE
  5
2D
330
5
100
AcDbSymbolTableRecord
100
AcDbLinetypeTableRecord
  2
LONG_DASHED
 70
     0
  3
Long_Dashed
 72
    65
 73
     2
 40
15.0
 49
10.0
 74
     0
 49
-5.0
 74
     0
  0
LTYPE
  5
2E
330
5
100
AcDbSymbolTableRecord
100
AcDbLinetypeTableRecord
  2
DASH_CENTER
 70
     0
  3
Dash_Center
 72
    65
 73
     4
 40
14.0
 49
11.0
 74
     0
 49
-1.0
 74
     0
 49
1.0
 74
     0
 49
-1.0
 74
     0
  0
LTYPE
  5
2F
330
5
100
AcDbSymbolTableRecord
100
AcDbLinetypeTableRecord
  2
PHANTOM
 70
     0
  3
Phantom
 72
    65
 73
     6
 40
13.0
 49
10.0
 74
     0
 49
-1.0
 74
     0
 49
0.0
 74
     0
 49
-1.0
 74
     0
 49
0.0
 74
     0
 49
-1.0
 74
     0
  0
LTYPE
  5
30
330
5
100
AcDbSymbolTableRecord
100
AcDbLinetypeTableRecord
  2
CENTER_DASH_DASH
 70
     0
  3
Center_Dash_Dash
 72
    65
 73
     6
 40
14.0
 49
9.0
 74
     0
 49
-1.0
 74
     0
 49
1.0
 74
     0
 49
-1.0
 74
     0
 49
1.0
 74
     0
 49
-1.0
 74
     0
  0
ENDTAB
  0
TABLE
  2
LAYER
  5
2
330
0
100
AcDbSymbolTable
 70
     3
  0
LAYER
  5
10
330
2
100
AcDbSymbolTableRecord
100
AcDbLayerTableRecord
  2
0
 70
     0
 62
     7
  6
Continuous
370
    -3
390
F
  0
LAYER
  5
31
330
2
100
AcDbSymbolTableRecord
100
AcDbLayerTableRecord
  2
1
 70
     0
 62
     7
  6
Continuous
370
    -3
390
F
  0
LAYER
  5
32
330
2
100
AcDbSymbolTableRecord
100
AcDbLayerTableRecord
  2
DEFAULT_1
 70
     0
 62
     7
  6
Continuous
370
    -3
390
F
  0
ENDTAB
  0
TABLE
  2
STYLE
  5
3
330
0
100
AcDbSymbolTable
 70
     2
  0
STYLE
  5
11
330
3
100
AcDbSymbolTableRecord
100
AcDbTextStyleTableRecord
  2
Standard
 70
     0
 40
0.0
 41
1.0
 50
0.0
 71
     0
 42
0.2
  3
txt
  4

  0
STYLE
  5
127
330
3
100
AcDbSymbolTableRecord
100
AcDbTextStyleTableRecord
  2
CONVERTER_11
 70
     0
 40
0.0
 41
0.9
 50
0.0
 71
     0
 42
0.2
  3
txt.shx
  4

  0
ENDTAB
  0
TABLE
  2
VIEW
  5
6
330
0
100
AcDbSymbolTable
 70
     0
  0
ENDTAB
  0
TABLE
  2
UCS
  5
7
330
0
100
AcDbSymbolTable
 70
     0
  0
ENDTAB
  0
TABLE
  2
APPID
  5
9
330
0
100
AcDbSymbolTable
 70
     1
  0
APPID
  5
12
330
9
100
AcDbSymbolTableRecord
100
AcDbRegAppTableRecord
  2
ACAD
 70
     0
  0
ENDTAB
  0
TABLE
  2
DIMSTYLE
  5
A
330
0
100
AcDbSymbolTable
 70
     7
100
AcDbDimStyleTable
  0
DIMSTYLE
105
27
330
A
100
AcDbSymbolTableRecord
100
AcDbDimStyleTableRecord
  2
Standard
 70
     0
340
11
  0
DIMSTYLE
105
12B
102
{ACAD_REACTORS
330
12C
102
}
330
A
100
AcDbSymbolTableRecord
100
AcDbDimStyleTableRecord
  2
ME10_DIM_10
 70
     0
 41
3.5
 42
0.0
 44
2.0
 73
     0
 74
     0
 77
     1
 78
     8
140
3.5
147
2.0
172
     1
173
     1
176
     2
177
     2
178
     2
271
     3
340
127
  0
DIMSTYLE
105
136
102
{ACAD_REACTORS
330
137
102
}
330
A
100
AcDbSymbolTableRecord
100
AcDbDimStyleTableRecord
  2
ME10_DIM_11
 70
     0
 41
3.5
 42
0.0
 44
2.0
 73
     0
 74
     0
 77
     1
 78
     8
140
3.5
147
2.0
172
     1
173
     1
176
     2
177
     2
178
     2
271
     3
340
127
  0
DIMSTYLE
105
141
102
{ACAD_REACTORS
330
142
102
}
330
A
100
AcDbSymbolTableRecord
100
AcDbDimStyleTableRecord
  2
ME10_DIM_12
 70
     0
 41
3.5
 42
0.0
 44
2.0
 73
     0
 74
     0
 77
     1
 78
     8
140
3.5
147
2.0
172
     1
173
     1
176
     2
177
     2
178
     2
271
     3
340
127
  0
DIMSTYLE
105
14E
102
{ACAD_REACTORS
330
14F
102
}
330
A
100
AcDbSymbolTableRecord
100
AcDbDimStyleTableRecord
  2
ME10_DIM_13
 70
     0
 41
3.5
 42
0.0
 44
2.0
 73
     0
 74
     0
 77
     1
 78
     8
140
3.5
147
2.0
172
     1
173
     1
176
     2
177
     2
178
     2
271
     3
340
127
  0
DIMSTYLE
105
159
102
{ACAD_REACTORS
330
15A
102
}
330
A
100
AcDbSymbolTableRecord
100
AcDbDimStyleTableRecord
  2
ME10_DIM_14
 70
     0
 41
3.5
 42
0.0
 44
2.0
 73
     0
 74
     0
 77
     1
 78
     8
140
3.5
147
2.0
172
     1
173
     1
176
     2
177
     2
178
     2
271
     3
340
127
  0
DIMSTYLE
105
166
102
{ACAD_REACTORS
330
167
102
}
330
A
100
AcDbSymbolTableRecord
100
AcDbDimStyleTableRecord
  2
ME10_DIM_15
 70
     0
 41
3.5
 42
0.0
 44
2.0
 73
     0
 74
     0
 77
     1
 78
     8
140
3.5
147
2.0
172
     1
173
     1
176
     2
177
     2
178
     2
271
     3
340
127
  0
ENDTAB
  0
TABLE
  2
BLOCK_RECORD
  5
1
330
0
100
AcDbSymbolTable
 70
     7
  0
BLOCK_RECORD
  5
1F
330
1
100
AcDbSymbolTableRecord
100
AcDbBlockTableRecord
  2
*Model_Space
340
22
  0
BLOCK_RECORD
  5
1B
330
1
100
AcDbSymbolTableRecord
100
AcDbBlockTableRecord
  2
*Paper_Space
340
1E
  0
BLOCK_RECORD
  5
23
330
1
100
AcDbSymbolTableRecord
100
AcDbBlockTableRecord
  2
*Paper_Space0
340
26
  0
BLOCK_RECORD
  5
121
330
1
100
AcDbSymbolTableRecord
100
AcDbBlockTableRecord
  2
*D1
340
0
  0
BLOCK_RECORD
  5
12D
330
1
100
AcDbSymbolTableRecord
100
AcDbBlockTableRecord
  2
*D2
340
0
  0
BLOCK_RECORD
  5
138
330
1
100
AcDbSymbolTableRecord
100
AcDbBlockTableRecord
  2
*D3
340
0
  0
BLOCK_RECORD
  5
143
330
1
100
AcDbSymbolTableRecord
100
AcDbBlockTableRecord
  2
*D4
340
0
  0
BLOCK_RECORD
  5
150
330
1
100
AcDbSymbolTableRecord
100
AcDbBlockTableRecord
  2
*D5
340
0
  0
BLOCK_RECORD
  5
15B
330
1
100
AcDbSymbolTableRecord
100
AcDbBlockTableRecord
  2
*D6
340
0
  0
ENDTAB
  0
ENDSEC
  0
SECTION
  2
BLOCKS
  0
BLOCK
  5
20
330
1F
100
AcDbEntity
  8
0
100
AcDbBlockBegin
  2
*Model_Space
 70
     0
 71
     0
 10
0.0
 20
0.0
 30
0.0
  3
*Model_Space
  1

  0
ENDBLK
  5
21
330
1F
100
AcDbEntity
  8
0
100
AcDbBlockEnd
  0
BLOCK
  5
1C
330
1B
100
AcDbEntity
 67
     1
  8
0
100
AcDbBlockBegin
  2
*Paper_Space
 70
     0
 71
     0
 10
0.0
 20
0.0
 30
0.0
  3
*Paper_Space
  1

  0
ENDBLK
  5
1D
330
1B
100
AcDbEntity
 67
     1
  8
0
100
AcDbBlockEnd
  0
BLOCK
  5
24
330
23
100
AcDbEntity
  8
0
100
AcDbBlockBegin
  2
*Paper_Space0
 70
     0
 71
     0
 10
0.0
 20
0.0
 30
0.0
  3
*Paper_Space0
  1

  0
ENDBLK
  5
25
330
23
100
AcDbEntity
  8
0
100
AcDbBlockEnd
  0
BLOCK
  5
129
330
121
100
AcDbEntity
  8
0
100
AcDbBlockBegin
  2
*D1
 70
     1
 71
     0
 10
0.0
 20
0.0
 30
0.0
  3
*D1
  1

  0
LINE
  5
122
330
121
100
AcDbEntity
  8
1
  6
Continuous
 62
     2
100
AcDbLine
 10
95.607578653474
 20
128.3107405161
 30
0.0
 11
95.607578653474
 21
107.3107405161
 31
0.0
  0
LINE
  5
123
330
121
100
AcDbEntity
  8
1
  6
Continuous
 62
     2
100
AcDbLine
 10
131.4770213682
 20
128.3107405161
 30
0.0
 11
93.607578653474
 21
128.3107405161
 31
0.0
  0
LINE
  5
124
330
121
100
AcDbEntity
  8
1
  6
Continuous
 62
     2
100
AcDbLine
 10
139.0119847742
 20
107.3107405161
 30
0.0
 11
93.607578653474
 21
107.3107405161
 31
0.0
  0
SOLID
  5
125
330
121
100
AcDbEntity
  8
1
 62
     2
100
AcDbTrace
 10
96.06836239502988
 20
124.8107405161
 30
0.0
 11
95.14679491191811
 21
124.8107405161
 31
0.0
 12
95.607578653474
 22
128.3107405161
 32
0.0
 13
95.607578653474
 23
128.3107405161
 33
0.0
  0
SOLID
  5
126
330
121
100
AcDbEntity
  8
1
 62
     2
100
AcDbTrace
 10
95.14679491191811
 20
110.8107405161
 30
0.0
 11
96.06836239502988
 21
110.8107405161
 31
0.0
 12
95.607578653474
 22
107.3107405161
 32
0.0
 13
95.607578653474
 23
107.3107405161
 33
0.0
  0
MTEXT
  5
128
330
121
100
AcDbEntity
  8
1
 62
     2
100
AcDbMText
 10
93.607578653474
 20
115.024465138216
 30
0.0
 40
3.5
 41
0.0
 71
     7
 72
     1
  1
21
  7
CONVERTER_11
 11
0.0
 21
1.0
 31
0.0
 73
     1
 44
0.60024009603842
  0
ENDBLK
  5
12A
330
121
100
AcDbEntity
  8
0
100
AcDbBlockEnd
  0
BLOCK
  5
134
330
12D
100
AcDbEntity
  8
0
100
AcDbBlockBegin
  2
*D2
 70
     1
 71
     0
 10
0.0
 20
0.0
 30
0.0
  3
*D2
  1

  0
LINE
  5
12E
330
12D
100
AcDbEntity
  8
1
  6
Continuous
 62
     2
100
AcDbLine
 10
152.0119847742
 20
84.1965646936222
 30
0.0
 11
178.7119847742
 21
84.1965646936222
 31
0.0
  0
LINE
  5
12F
330
12D
100
AcDbEntity
  8
1
  6
Continuous
 62
     2
100
AcDbLine
 10
178.7119847742
 20
116.3107405161
 30
0.0
 11
178.7119847742
 21
82.1965646936222
 31
0.0
  0
LINE
  5
130
330
12D
100
AcDbEntity
  8
1
  6
Continuous
 62
     2
100
AcDbLine
 10
152.0119847742
 20
104.3107405161
 30
0.0
 11
152.0119847742
 21
82.1965646936222
 31
0.0
  0
SOLID
  5
131
330
12D
100
AcDbEntity
  8
1
 62
     2
100
AcDbTrace
 10
155.5119847742
 20
84.65734843517808
 30
0.0
 11
155.5119847742
 21
83.7357809520663
 31
0.0
 12
152.0119847742
 22
84.1965646936222
 32
0.0
 13
152.0119847742
 23
84.1965646936222
 33
0.0
  0
SOLID
  5
132
330
12D
100
AcDbEntity
  8
1
 62
     2
100
AcDbTrace
 10
175.2119847742
 20
83.7357809520663
 30
0.0
 11
175.2119847742
 21
84.65734843517808
 31
0.0
 12
178.7119847742
 22
84.1965646936222
 32
0.0
 13
178.7119847742
 23
84.1965646936222
 33
0.0
  0
MTEXT
  5
133
330
12D
100
AcDbEntity
  8
1
 62
     2
100
AcDbMText
 10
163.00901344841
 20
86.1965646936222
 30
0.0
 40
3.5
 41
0.0
 71
     7
 72
     1
  1
27
  7
CONVERTER_11
 11
0.9999999999970621
 21
2.424068405545307E-6
 31
0.0
 73
     1
 44
0.60024009603842
  0
ENDBLK
  5
135
330
12D
100
AcDbEntity
  8
0
100
AcDbBlockEnd
  0
BLOCK
  5
13F
330
138
100
AcDbEntity
  8
0
100
AcDbBlockBegin
  2
*D3
 70
     1
 71
     0
 10
0.0
 20
0.0
 30
0.0
  3
*D3
  1

  0
LINE
  5
139
330
138
100
AcDbEntity
  8
1
  6
Continuous
 62
     2
100
AcDbLine
 10
125.0119847742
 20
84.2881513319905
 30
0.0
 11
149.0119847742
 21
84.2881513319905
 31
0.0
  0
LINE
  5
13A
330
138
100
AcDbEntity
  8
1
  6
Continuous
 62
     2
100
AcDbLine
 10
125.0119847742
 20
112.9579156311
 30
0.0
 11
125.0119847742
 21
82.2881513319905
 31
0.0
  0
LINE
  5
13B
330
138
100
AcDbEntity
  8
1
  6
Continuous
 62
     2
100
AcDbLine
 10
149.0119847742
 20
104.3107405161
 30
0.0
 11
149.0119847742
 21
82.2881513319905
 31
0.0
  0
SOLID
  5
13C
330
138
100
AcDbEntity
  8
1
 62
     2
100
AcDbTrace
 10
128.5119847742
 20
84.74893507354639
 30
0.0
 11
128.5119847742
 21
83.82736759043462
 31
0.0
 12
125.0119847742
 22
84.2881513319905
 32
0.0
 13
125.0119847742
 23
84.2881513319905
 33
0.0
  0
SOLID
  5
13D
330
138
100
AcDbEntity
  8
1
 62
     2
100
AcDbTrace
 10
145.5119847742
 20
83.82736759043462
 30
0.0
 11
145.5119847742
 21
84.74893507354639
 31
0.0
 12
149.0119847742
 22
84.2881513319905
 32
0.0
 13
149.0119847742
 23
84.2881513319905
 33
0.0
  0
MTEXT
  5
13E
330
138
100
AcDbEntity
  8
1
 62
     2
100
AcDbMText
 10
133.976049085649
 20
86.2881513319905
 30
0.0
 40
3.5
 41
0.0
 71
     7
 72
     1
  1
24
  7
CONVERTER_11
 11
0.9999999999970621
 21
2.424068405545307E-6
 31
0.0
 73
     1
 44
0.60024009603842
  0
ENDBLK
  5
140
330
138
100
AcDbEntity
  8
0
100
AcDbBlockEnd
  0
BLOCK
  5
14C
330
143
100
AcDbEntity
  8
0
100
AcDbBlockBegin
  2
*D4
 70
     1
 71
     0
 10
0.0
 20
0.0
 30
0.0
  3
*D4
  1

  0
LINE
  5
144
330
143
100
AcDbEntity
  8
1
  6
Continuous
 62
     2
100
AcDbLine
 10
141.10802973064
 20
94.2710949141387
 30
0.0
 11
149.0119847742
 21
94.2710949141387
 31
0.0
  0
LINE
  5
145
330
143
100
AcDbEntity
  8
1
  6
Continuous
 62
     2
100
AcDbLine
 10
149.0119847742
 20
94.2710949141387
 30
0.0
 11
152.0119847742
 21
94.2710949141387
 31
0.0
  0
LINE
  5
146
330
143
100
AcDbEntity
  8
1
  6
Continuous
 62
     2
100
AcDbLine
 10
152.0119847742
 20
94.2710949141387
 30
0.0
 11
159.0119847742
 21
94.2710949141387
 31
0.0
  0
LINE
  5
147
330
143
100
AcDbEntity
  8
1
  6
Continuous
 62
     2
100
AcDbLine
 10
152.0119847742
 20
104.3107405161
 30
0.0
 11
152.0119847742
 21
92.2710949141387
 31
0.0
  0
LINE
  5
148
330
143
100
AcDbEntity
  8
1
  6
Continuous
 62
     2
100
AcDbLine
 10
149.0119847742
 20
104.3107405161
 30
0.0
 11
149.0119847742
 21
92.2710949141387
 31
0.0
  0
SOLID
  5
149
330
143
100
AcDbEntity
  8
1
 62
     2
100
AcDbTrace
 10
145.5119847742
 20
93.81031117258281
 30
0.0
 11
145.5119847742
 21
94.73187865569459
 31
0.0
 12
149.0119847742
 22
94.2710949141387
 32
0.0
 13
149.0119847742
 23
94.2710949141387
 33
0.0
  0
SOLID
  5
14A
330
143
100
AcDbEntity
  8
1
 62
     2
100
AcDbTrace
 10
155.5119847742
 20
94.73187865569459
 30
0.0
 11
155.5119847742
 21
93.81031117258281
 31
0.0
 12
152.0119847742
 22
94.2710949141387
 32
0.0
 13
152.0119847742
 23
94.2710949141387
 33
0.0
  0
MTEXT
  5
14B
330
143
100
AcDbEntity
  8
1
 62
     2
100
AcDbMText
 10
141.10802973064
 20
96.2710949141387
 30
0.0
 40
3.5
 41
0.0
 71
     7
 72
     1
  1
3.5
  7
CONVERTER_11
 11
0.9999999999970621
 21
2.424068405545307E-6
 31
0.0
 73
     1
 44
0.60024009603842
  0
ENDBLK
  5
14D
330
143
100
AcDbEntity
  8
0
100
AcDbBlockEnd
  0
BLOCK
  5
157
330
150
100
AcDbEntity
  8
0
100
AcDbBlockBegin
  2
*D5
 70
     1
 71
     0
 10
0.0
 20
0.0
 30
0.0
  3
*D5
  1

  0
LINE
  5
151
330
150
100
AcDbEntity
  8
1
  6
Continuous
 62
     2
100
AcDbLine
 10
206.946803304589
 20
126.3107405161
 30
0.0
 11
206.946803304589
 21
108.3107405161
 31
0.0
  0
LINE
  5
152
330
150
100
AcDbEntity
  8
1
  6
Continuous
 62
     2
100
AcDbLine
 10
171.7119847742
 20
126.3107405161
 30
0.0
 11
208.946803304589
 21
126.3107405161
 31
0.0
  0
LINE
  5
153
330
150
100
AcDbEntity
  8
1
  6
Continuous
 62
     2
100
AcDbLine
 10
162.0119847742
 20
108.3107405161
 30
0.0
 11
208.946803304589
 21
108.3107405161
 31
0.0
  0
SOLID
  5
154
330
150
100
AcDbEntity
  8
1
 62
     2
100
AcDbTrace
 10
207.4075870461449
 20
122.8107405161
 30
0.0
 11
206.4860195630331
 21
122.8107405161
 31
0.0
 12
206.946803304589
 22
126.3107405161
 32
0.0
 13
206.946803304589
 23
126.3107405161
 33
0.0
  0
SOLID
  5
155
330
150
100
AcDbEntity
  8
1
 62
     2
100
AcDbTrace
 10
206.4860195630331
 20
111.8107405161
 30
0.0
 11
207.4075870461449
 21
111.8107405161
 31
0.0
 12
206.946803304589
 22
108.3107405161
 32
0.0
 13
206.946803304589
 23
108.3107405161
 33
0.0
  0
MTEXT
  5
156
330
150
100
AcDbEntity
  8
1
 62
     2
100
AcDbMText
 10
204.946803304589
 20
115.024465138216
 30
0.0
 40
3.5
 41
0.0
 71
     7
 72
     1
  1
18
  7
CONVERTER_11
 11
0.0
 21
1.0
 31
0.0
 73
     1
 44
0.60024009603842
  0
ENDBLK
  5
158
330
150
100
AcDbEntity
  8
0
100
AcDbBlockEnd
  0
BLOCK
  5
164
330
15B
100
AcDbEntity
  8
0
100
AcDbBlockBegin
  2
*D6
 70
     1
 71
     0
 10
0.0
 20
0.0
 30
0.0
  3
*D6
  1

  0
LINE
  5
15C
330
15B
100
AcDbEntity
  8
1
  6
Continuous
 62
     2
100
AcDbLine
 10
206.946803304589
 20
104.3107405161
 30
0.0
 11
206.946803304589
 21
97.2079139443512
 31
0.0
  0
LINE
  5
15D
330
15B
100
AcDbEntity
  8
1
  6
Continuous
 62
     2
100
AcDbLine
 10
206.946803304589
 20
108.3107405161
 30
0.0
 11
206.946803304589
 21
104.3107405161
 31
0.0
  0
LINE
  5
15E
330
15B
100
AcDbEntity
  8
1
  6
Continuous
 62
     2
100
AcDbLine
 10
206.946803304589
 20
115.3107405161
 30
0.0
 11
206.946803304589
 21
108.3107405161
 31
0.0
  0
LINE
  5
15F
330
15B
100
AcDbEntity
  8
1
  6
Continuous
 62
     2
100
AcDbLine
 10
162.0119847742
 20
108.3107405161
 30
0.0
 11
208.946803304589
 21
108.3107405161
 31
0.0
  0
LINE
  5
160
330
15B
100
AcDbEntity
  8
1
  6
Continuous
 62
     2
100
AcDbLine
 10
197.0119847742002
 20
104.3107405161
 30
0.0
 11
208.946803304589
 21
104.3107405161
 31
0.0
  0
SOLID
  5
161
330
15B
100
AcDbEntity
  8
1
 62
     2
100
AcDbTrace
 10
206.4860195630331
 20
111.8107405161
 30
0.0
 11
207.4075870461449
 21
111.8107405161
 31
0.0
 12
206.946803304589
 22
108.3107405161
 32
0.0
 13
206.946803304589
 23
108.3107405161
 33
0.0
  0
SOLID
  5
162
330
15B
100
AcDbEntity
  8
1
 62
     2
100
AcDbTrace
 10
207.4075870461449
 20
100.8107405161
 30
0.0
 11
206.4860195630331
 21
100.8107405161
 31
0.0
 12
206.946803304589
 22
104.3107405161
 32
0.0
 13
206.946803304589
 23
104.3107405161
 33
0.0
  0
MTEXT
  5
163
330
15B
100
AcDbEntity
  8
1
 62
     2
100
AcDbMText
 10
204.946803304589
 20
97.2079139443512
 30
0.0
 40
3.5
 41
0.0
 71
     7
 72
     1
  1
4
  7
CONVERTER_11
 11
0.0
 21
1.0
 31
0.0
 73
     1
 44
0.60024009603842
  0
ENDBLK
  5
165
330
15B
100
AcDbEntity
  8
0
100
AcDbBlockEnd
  0
ENDSEC
  0
SECTION
  2
ENTITIES
  0
POINT
  5
33
330
1F
100
AcDbEntity
  8
1
 62
     3
 60
     1
100
AcDbPoint
 10
171.087278110745
 20
122.210577241296
 30
0.0
  0
POINT
  5
34
330
1F
100
AcDbEntity
  8
1
 62
     3
 60
     1
100
AcDbPoint
 10
167.316995734593
 20
120.826301862543
 30
0.0
  0
POINT
  5
35
330
1F
100
AcDbEntity
  8
1
 62
     3
 60
     1
100
AcDbPoint
 10
170.6866492509969
 20
122.1040074683738
 30
0.0
  0
POINT
  5
36
330
1F
100
AcDbEntity
  8
1
 62
     3
 60
     1
100
AcDbPoint
 10
150.5119847742
 20
122.7682405161
 30
0.0
  0
POINT
  5
37
330
1F
100
AcDbEntity
  8
1
 62
     3
 60
     1
100
AcDbPoint
 10
152.0119847742002
 20
128.3107405161
 30
0.0
  0
POINT
  5
38
330
1F
100
AcDbEntity
  8
1
 62
     3
 60
     1
100
AcDbPoint
 10
161.5119847742003
 20
128.3107405161
 30
0.0
  0
POINT
  5
39
330
1F
100
AcDbEntity
  8
1
 62
     3
 60
     1
100
AcDbPoint
 10
165.0119847742003
 20
128.3107405161
 30
0.0
  0
POINT
  5
3A
330
1F
100
AcDbEntity
  8
1
 62
     3
 60
     1
100
AcDbPoint
 10
165.0119847742003
 20
144.3107405161
 30
0.0
  0
POINT
  5
3B
330
1F
100
AcDbEntity
  8
1
 62
     3
 60
     1
100
AcDbPoint
 10
157.342827960679
 20
120.914468513532
 30
0.0
  0
POINT
  5
3C
330
1F
100
AcDbEntity
  8
1
 62
     3
 60
     1
100
AcDbPoint
 10
158.508004726603
 20
114.668638726565
 30
0.0
  0
POINT
  5
3D
330
1F
100
AcDbEntity
  8
1
 62
     3
 60
     1
100
AcDbPoint
 10
156.8676979248179
 20
120.3949485195363
 30
0.0
  0
POINT
  5
3E
330
1F
100
AcDbEntity
  8
1
 62
     3
 60
     1
100
AcDbPoint
 10
155.5656591499629
 20
122.6946834540406
 30
0.0
  0
POINT
  5
3F
330
1F
100
AcDbEntity
  8
1
 62
     3
 60
     1
100
AcDbPoint
 10
148.711984830062
 20
125.910740441621
 30
0.0
  0
POINT
  5
40
330
1F
100
AcDbEntity
  8
1
 62
     3
 60
     1
100
AcDbPoint
 10
145.4583103984371
 20
122.6946834540406
 30
0.0
  0
POINT
  5
41
330
1F
100
AcDbEntity
  8
1
 62
     3
 60
     1
100
AcDbPoint
 10
148.3430194453298
 20
125.5843356555021
 30
0.0
  0
POINT
  5
42
330
1F
100
AcDbEntity
  8
1
 62
     3
 60
     1
100
AcDbPoint
 10
142.515964821797
 20
114.668638726565
 30
0.0
  0
POINT
  5
43
330
1F
100
AcDbEntity
  8
1
 62
     3
 60
     1
100
AcDbPoint
 10
143.681141587721
 20
120.914468513532
 30
0.0
  0
POINT
  5
44
330
1F
100
AcDbEntity
  8
1
 62
     3
 60
     1
100
AcDbPoint
 10
144.1562716235821
 20
120.3949485195363
 30
0.0
  0
POINT
  5
45
330
1F
100
AcDbEntity
  8
1
 62
     3
 60
     1
100
AcDbPoint
 10
138.0065927071
 20
137.2477482779
 30
0.0
  0
POINT
  5
46
330
1F
100
AcDbEntity
  8
1
 62
     3
 60
     1
100
AcDbPoint
 10
133.706973813807
 20
120.826301862543
 30
0.0
  0
POINT
  5
47
330
1F
100
AcDbEntity
  8
1
 62
     3
 60
     1
100
AcDbPoint
 10
130.3373202974031
 20
122.1040074683738
 30
0.0
  0
POINT
  5
48
330
1F
100
AcDbEntity
  8
1
 62
     3
 60
     1
100
AcDbPoint
 10
129.936691437655
 20
122.210577241296
 30
0.0
  0
LINE
  5
49
330
1F
100
AcDbEntity
  8
0
  6
Continuous
 62
     7
100
AcDbLine
 10
161.6119847742
 20
125.5107405161
 30
0.0
 11
164.4119847741999
 21
122.7107405161
 31
0.0
  0
LINE
  5
4A
330
1F
100
AcDbEntity
  8
1
  6
Continuous
 62
     7
100
AcDbLine
 10
152.0119847742002
 20
128.3107405161
 30
0.0
 11
159.7799339666314
 21
128.3107405161
 31
0.0
  0
LINE
  5
4B
330
1F
100
AcDbEntity
  8
1
  6
Continuous
 62
     7
100
AcDbLine
 10
152.0119847742
 20
126.2607405161
 30
0.0
 11
152.0119847742002
 21
128.3107405161
 31
0.0
  0
LINE
  5
4C
330
1F
100
AcDbEntity
  8
1
  6
Continuous
 62
     7
100
AcDbLine
 10
149.0119847742
 20
133.3107405161001
 30
0.0
 11
149.0119847742
 21
128.2607405161
 31
0.0
  0
LINE
  5
4D
330
1F
100
AcDbEntity
  8
1
  6
Continuous
 62
     7
100
AcDbLine
 10
149.0119847742
 20
104.3107405161
 30
0.0
 11
105.5119847742003
 21
104.3107405161
 31
0.0
  0
LINE
  5
4E
330
1F
100
AcDbEntity
  8
1
  6
DOT_CENTER
 62
     2
100
AcDbLine
 10
161.5119847742003
 20
165.876257280423
 30
0.0
 11
105.5119847742003
 21
165.876257280423
 31
0.0
  0
LINE
  5
4F
330
1F
100
AcDbEntity
  8
1
  6
Continuous
 62
     7
100
AcDbLine
 10
161.5119847742003
 20
133.3107405161001
 30
0.0
 11
161.5119847742003
 21
165.876257280423
 31
0.0
  0
LINE
  5
50
330
1F
100
AcDbEntity
  8
1
  6
Continuous
 62
     7
100
AcDbLine
 10
149.0119847742
 20
133.3107405161001
 30
0.0
 11
161.5119847742003
 21
133.3107405161001
 31
0.0
  0
LINE
  5
51
330
1F
100
AcDbEntity
  8
1
  6
Continuous
 62
     7
100
AcDbLine
 10
149.0119847742
 20
104.3107405161
 30
0.0
 11
149.0119847742
 21
107.3607405161
 31
0.0
  0
LINE
  5
52
330
1F
100
AcDbEntity
  8
1
  6
Continuous
 62
     7
100
AcDbLine
 10
105.5119847742003
 20
165.876257280423
 30
0.0
 11
105.5119847742003
 21
104.3107405161
 31
0.0
  0
LINE
  5
53
330
1F
100
AcDbEntity
  8
1
  6
Continuous
 62
     7
100
AcDbLine
 10
150.0119847742
 20
131.5786897085311
 30
0.0
 11
150.0119847742
 21
132.3107405161
 31
0.0
  0
LINE
  5
54
330
1F
100
AcDbEntity
  8
1
  6
Continuous
 62
     7
100
AcDbLine
 10
151.3213858509584
 20
129.3107405161
 30
0.0
 11
150.0119847742
 21
131.5786897085311
 31
0.0
  0
LINE
  5
55
330
1F
100
AcDbEntity
  8
1
  6
Continuous
 62
     7
100
AcDbLine
 10
159.2025836974418
 20
129.3107405161
 30
0.0
 11
151.3213858509584
 21
129.3107405161
 31
0.0
  0
LINE
  5
56
330
1F
100
AcDbEntity
  8
1
  6
Continuous
 62
     7
100
AcDbLine
 10
160.5119847742003
 20
131.5786897085311
 30
0.0
 11
159.2025836974418
 21
129.3107405161
 31
0.0
  0
LINE
  5
57
330
1F
100
AcDbEntity
  8
1
  6
Continuous
 62
     7
100
AcDbLine
 10
160.5119847742003
 20
132.3107405161
 30
0.0
 11
160.5119847742003
 21
131.5786897085311
 31
0.0
  0
LINE
  5
58
330
1F
100
AcDbEntity
  8
1
  6
Continuous
 62
     7
100
AcDbLine
 10
150.0119847742
 20
132.3107405161
 30
0.0
 11
160.5119847742003
 21
132.3107405161
 31
0.0
  0
LINE
  5
59
330
1F
100
AcDbEntity
  8
1
  6
Continuous
 62
     7
100
AcDbLine
 10
161.5119847742003
 20
131.3107405161
 30
0.0
 11
161.5119847742003
 21
133.3107405161001
 31
0.0
  0
LINE
  5
5A
330
1F
100
AcDbEntity
  8
1
  6
Continuous
 62
     7
100
AcDbLine
 10
159.7799339666314
 20
128.3107405161
 30
0.0
 11
161.5119847742003
 21
131.3107405161
 31
0.0
  0
LINE
  5
5B
330
1F
100
AcDbEntity
  8
1
  6
Continuous
 62
     7
100
AcDbLine
 10
150.7440355817687
 20
128.3107405161
 30
0.0
 11
152.0119847742002
 21
128.3107405161
 31
0.0
  0
LINE
  5
5C
330
1F
100
AcDbEntity
  8
1
  6
Continuous
 62
     7
100
AcDbLine
 10
149.0119847742
 20
131.3107405161
 30
0.0
 11
150.7440355817687
 21
128.3107405161
 31
0.0
  0
LINE
  5
5D
330
1F
100
AcDbEntity
  8
1
  6
DOT_CENTER
 62
     2
100
AcDbLine
 10
105.5119847742003
 20
165.876257280423
 30
0.0
 11
101.0437162379752
 21
165.876257280423
 31
0.0
  0
LINE
  5
5E
330
1F
100
AcDbEntity
  8
1
  6
DOT_CENTER
 62
     2
100
AcDbLine
 10
161.5119847742003
 20
165.876257280423
 30
0.0
 11
168.5264579913312
 21
165.876257280423
 31
0.0
  0
LINE
  5
5F
330
1F
100
AcDbEntity
  8
1
  6
PHANTOM
 62
     2
100
AcDbLine
 10
197.0119847742002
 20
144.3107405161
 30
0.0
 11
197.0119847742002
 21
147.3535288202014
 31
0.0
  0
LINE
  5
60
330
1F
100
AcDbEntity
  8
1
  6
Continuous
 62
     7
100
AcDbLine
 10
165.0119847742003
 20
144.3107405161
 30
0.0
 11
197.0119847742002
 21
144.3107405161
 31
0.0
  0
LINE
  5
61
330
1F
100
AcDbEntity
  8
1
  6
Continuous
 62
     7
100
AcDbLine
 10
165.0119847742003
 20
128.3107405161
 30
0.0
 11
165.0119847742003
 21
144.3107405161
 31
0.0
  0
LINE
  5
62
330
1F
100
AcDbEntity
  8
1
  6
Continuous
 62
     7
100
AcDbLine
 10
161.5119847742003
 20
128.3107405161
 30
0.0
 11
165.0119847742003
 21
128.3107405161
 31
0.0
  0
LINE
  5
63
330
1F
100
AcDbEntity
  8
1
  6
Continuous
 62
     7
100
AcDbLine
 10
152.0119847742002
 20
128.3107405161
 30
0.0
 11
161.5119847742003
 21
128.3107405161
 31
0.0
  0
LINE
  5
64
330
1F
100
AcDbEntity
  8
1
  6
PHANTOM
 62
     2
100
AcDbLine
 10
197.0119847742002
 20
102.5350099089965
 30
0.0
 11
197.0119847742002
 21
104.3107405161
 31
0.0
  0
LINE
  5
65
330
1F
100
AcDbEntity
  8
1
  6
PHANTOM
 62
     2
100
AcDbLine
 10
197.0119847742002
 20
104.3107405161
 30
0.0
 11
197.0119847742002
 21
144.3107405161
 31
0.0
  0
LINE
  5
66
330
1F
100
AcDbEntity
  8
1
  6
Continuous
 62
     7
100
AcDbLine
 10
152.0119847742
 20
104.3107405161
 30
0.0
 11
152.0119847742
 21
108.4107405161
 31
0.0
  0
LINE
  5
67
330
1F
100
AcDbEntity
  8
1
  6
Continuous
 62
     7
100
AcDbLine
 10
197.0119847742002
 20
104.3107405161
 30
0.0
 11
152.0119847742
 21
104.3107405161
 31
0.0
  0
LINE
  5
68
330
1F
100
AcDbEntity
  8
0
  6
Continuous
 62
     7
100
AcDbLine
 10
178.2119847742
 20
122.3107405161
 30
0.0
 11
178.2119847742
 21
124.0932949838
 31
0.0
  0
LINE
  5
69
330
1F
100
AcDbEntity
  8
0
  6
Continuous
 62
     7
100
AcDbLine
 10
165.3119847742
 20
125.6107405161
 30
0.0
 11
169.0119847742
 21
125.6107405161
 31
0.0
  0
LINE
  5
6A
330
1F
100
AcDbEntity
  8
1
  6
DASHED
 62
     2
100
AcDbLine
 10
155.4489894155347
 20
116.594542177029
 30
0.0
 11
156.8676979248179
 21
120.3949485195363
 31
0.0
  0
LINE
  5
6B
330
1F
100
AcDbEntity
  8
1
  6
DASHED
 62
     2
100
AcDbLine
 10
148.3430194453298
 20
125.5843356555021
 30
0.0
 11
145.4583103984371
 21
122.6946834540406
 31
0.0
  0
LINE
  5
6C
330
1F
100
AcDbEntity
  8
1
  6
DASHED
 62
     2
100
AcDbLine
 10
144.1562716235821
 20
120.3949485195363
 30
0.0
 11
145.5749801328653
 21
116.594542177029
 31
0.0
  0
LINE
  5
6D
330
1F
100
AcDbEntity
  8
0
  6
Continuous
 62
     7
100
AcDbLine
 10
152.0119847742
 20
108.4107405161
 30
0.0
 11
152.0119847742
 21
119.3616297115
 31
0.0
  0
LINE
  5
6E
330
1F
100
AcDbEntity
  8
0
  6
Continuous
 62
     7
100
AcDbLine
 10
178.7119847742
 20
122.3107405161
 30
0.0
 11
178.7119847742
 21
116.3107405161
 31
0.0
  0
LINE
  5
6F
330
1F
100
AcDbEntity
  8
0
  6
Continuous
 62
     7
100
AcDbLine
 10
178.2119847742
 20
112.5281860484
 30
0.0
 11
178.2119847742
 21
116.3107405161
 31
0.0
  0
LINE
  5
70
330
1F
100
AcDbEntity
  8
0
  6
Continuous
 62
     7
100
AcDbLine
 10
175.0119847742
 20
123.6107405161
 30
0.0
 11
175.0119847742
 21
113.5107405161
 31
0.0
  0
LINE
  5
71
330
1F
100
AcDbEntity
  8
0
  6
Continuous
 62
     7
100
AcDbLine
 10
173.4989166701
 20
117.7480573107
 30
0.0
 11
172.0752977191
 21
121.5616176406
 31
0.0
  0
LINE
  5
72
330
1F
100
AcDbEntity
  8
0
  6
Continuous
 62
     7
100
AcDbLine
 10
170.2657809173
 20
123.3786223118
 30
0.0
 11
172.4694407661
 21
120.2314695277
 31
0.0
  0
LINE
  5
73
330
1F
100
AcDbEntity
  8
DEFAULT_1
  6
DOT_CENTER
 62
     2
100
AcDbLine
 10
170.0119847742
 20
122.2232405161
 30
0.0
 11
170.0119847742
 21
123.5357405161
 31
0.0
  0
LINE
  5
74
330
1F
100
AcDbEntity
  8
DEFAULT_1
  6
DOT_CENTER
 62
     2
100
AcDbLine
 10
170.0119847742
 20
117.7682405161
 30
0.0
 11
170.0119847742
 21
113.4857405161
 31
0.0
  0
LINE
  5
75
330
1F
100
AcDbEntity
  8
0
  6
DOT_CENTER
 62
     2
100
AcDbLine
 10
170.0119847742
 20
122.2232405161
 30
0.0
 11
170.0119847742
 21
117.7682405161
 31
0.0
  0
LINE
  5
76
330
1F
100
AcDbEntity
  8
0
  6
Continuous
 62
     7
100
AcDbLine
 10
167.05756167
 20
119.0316849253
 30
0.0
 11
167.2923867095
 21
120.3634441494
 31
0.0
  0
LINE
  5
77
330
1F
100
AcDbEntity
  8
0
  6
Continuous
 62
     7
100
AcDbLine
 10
165.3119847742
 20
125.6107405161
 30
0.0
 11
165.3119847742
 21
126.3107405161
 31
0.0
  0
LINE
  5
78
330
1F
100
AcDbEntity
  8
0
  6
Continuous
 62
     7
100
AcDbLine
 10
165.3119847742
 20
110.9107405161
 30
0.0
 11
165.3119847742
 21
110.3107405161
 31
0.0
  0
LINE
  5
79
330
1F
100
AcDbEntity
  8
0
  6
DASHED
 62
     2
100
AcDbLine
 10
136.6119847742
 20
122.7107405161
 30
0.0
 11
139.4119847742
 21
125.5107405161
 31
0.0
  0
LINE
  5
7A
330
1F
100
AcDbEntity
  8
0
  6
Continuous
 62
     7
100
AcDbLine
 10
162.0119847742
 20
108.3107405161
 30
0.0
 11
162.0119847742
 21
110.9107405161
 31
0.0
  0
LINE
  5
7B
330
1F
100
AcDbEntity
  8
0
  6
Continuous
 62
     3
100
AcDbLine
 10
166.6634983225
 20
126.3107405161
 30
0.0
 11
168.3119847742
 21
125.7107405161
 31
0.0
  0
LINE
  5
7C
330
1F
100
AcDbEntity
  8
0
  6
Continuous
 62
     7
100
AcDbLine
 10
169.0119847742
 20
125.6107405161
 30
0.0
 11
175.0119847742
 21
123.6107405161
 31
0.0
  0
LINE
  5
7D
330
1F
100
AcDbEntity
  8
0
  6
Continuous
 62
     7
100
AcDbLine
 10
159.0119847742
 20
110.8107405161
 30
0.0
 11
159.0119847742
 21
108.4107405161
 31
0.0
  0
LINE
  5
7E
330
1F
100
AcDbEntity
  8
0
  6
Continuous
 62
     7
100
AcDbLine
 10
158.5119847742
 20
111.5107405161
 30
0.0
 11
158.5119847742
 21
118.0884595161
 31
0.0
  0
LINE
  5
7F
330
1F
100
AcDbEntity
  8
0
  6
Continuous
 62
     7
100
AcDbLine
 10
175.0119847742
 20
113.5107405161
 30
0.0
 11
168.0119847742
 21
111.0107405161
 31
0.0
  0
LINE
  5
80
330
1F
100
AcDbEntity
  8
0
  6
Continuous
 62
     3
100
AcDbLine
 10
168.3119847742
 20
110.9107405161
 30
0.0
 11
166.6634983225
 21
110.3107405161
 31
0.0
  0
LINE
  5
81
330
1F
100
AcDbEntity
  8
0
  6
Continuous
 62
     7
100
AcDbLine
 10
157.342832555
 20
120.9144647356
 30
0.0
 11
152.6351202348
 21
125.6302440564
 31
0.0
  0
LINE
  5
82
330
1F
100
AcDbEntity
  8
0
  6
Continuous
 62
     7
100
AcDbLine
 10
171.7119847742
 20
126.3107405161
 30
0.0
 11
176.9207444256
 21
125.578697087
 31
0.0
  0
LINE
  5
83
330
1F
100
AcDbEntity
  8
0
  6
Continuous
 62
     3
100
AcDbLine
 10
171.7119847742
 20
125.7107405161
 30
0.0
 11
176.9207444256
 21
124.978697087
 31
0.0
  0
LINE
  5
84
330
1F
100
AcDbEntity
  8
0
  6
Continuous
 62
     7
100
AcDbLine
 10
131.4770213682
 20
128.3107405161
 30
0.0
 11
147.5119847742
 21
128.3107405161
 31
0.0
  0
LINE
  5
85
330
1F
100
AcDbEntity
  8
0
  6
Continuous
 62
     7
100
AcDbLine
 10
147.5119847742
 20
128.2607405161
 30
0.0
 11
149.0119847742
 21
128.2607405161
 31
0.0
  0
LINE
  5
86
330
1F
100
AcDbEntity
  8
0
  6
Continuous
 62
     7
100
AcDbLine
 10
126.7336385723
 20
127.6441015387
 30
0.0
 11
131.4770213682
 21
128.3107405161
 31
0.0
  0
LINE
  5
87
330
1F
100
AcDbEntity
  8
0
  6
Continuous
 62
     3
100
AcDbLine
 10
131.5119847742
 20
127.8107405161
 30
0.0
 11
126.8032251228
 21
127.1489675043
 31
0.0
  0
LINE
  5
88
330
1F
100
AcDbEntity
  8
0
  6
Continuous
 62
     7
100
AcDbLine
 10
154.4363508225
 20
116.3026396197
 30
0.0
 11
152.7930617146
 21
112.7785953884
 31
0.0
  0
LINE
  5
89
330
1F
100
AcDbEntity
  8
DEFAULT_1
  6
DOT_CENTER
 62
     2
100
AcDbLine
 10
155.5119847742
 20
115.2232405161
 30
0.0
 11
155.5119847742
 21
115.3607405161
 31
0.0
  0
LINE
  5
8A
330
1F
100
AcDbEntity
  8
DEFAULT_1
  6
DOT_CENTER
 62
     2
100
AcDbLine
 10
155.5119847742
 20
107.7982405161
 30
0.0
 11
155.5119847742
 21
107.6607405161
 31
0.0
  0
LINE
  5
8B
330
1F
100
AcDbEntity
  8
0
  6
DOT_CENTER
 62
     2
100
AcDbLine
 10
155.5119847742
 20
115.2232405161
 30
0.0
 11
155.5119847742
 21
107.7982405161
 31
0.0
  0
LINE
  5
8C
330
1F
100
AcDbEntity
  8
0
  6
Continuous
 62
     7
100
AcDbLine
 10
153.5119847742
 20
125.6107405161
 30
0.0
 11
153.5119847742
 21
126.3107405161
 31
0.0
  0
LINE
  5
8D
330
1F
100
AcDbEntity
  8
0
  6
Continuous
 62
     7
100
AcDbLine
 10
153.5119847742
 20
108.3107405161
 30
0.0
 11
153.5119847742
 21
108.4107405161
 31
0.0
  0
LINE
  5
8E
330
1F
100
AcDbEntity
  8
0
  6
Continuous
 62
     3
100
AcDbLine
 10
146.5119847742
 20
127.8107405161
 30
0.0
 11
131.5119847742
 21
127.8107405161
 31
0.0
  0
LINE
  5
8F
330
1F
100
AcDbEntity
  8
0
  6
Continuous
 62
     7
100
AcDbLine
 10
153.5119847742
 20
126.3107405161
 30
0.0
 11
171.7119847742
 21
126.3107405161
 31
0.0
  0
LINE
  5
90
330
1F
100
AcDbEntity
  8
0
  6
Continuous
 62
     7
100
AcDbLine
 10
153.5119847742
 20
126.2607405161
 30
0.0
 11
152.0119847742
 21
126.2607405161
 31
0.0
  0
LINE
  5
91
330
1F
100
AcDbEntity
  8
0
  6
Continuous
 62
     7
100
AcDbLine
 10
131.0119847742
 20
126.2107405161
 30
0.0
 11
147.5119847742
 21
126.2107405161
 31
0.0
  0
LINE
  5
92
330
1F
100
AcDbEntity
  8
0
  6
Continuous
 62
     3
100
AcDbLine
 10
168.3119847742
 20
125.7107405161
 30
0.0
 11
171.7119847742
 21
125.7107405161
 31
0.0
  0
LINE
  5
93
330
1F
100
AcDbEntity
  8
0
  6
Continuous
 62
     7
100
AcDbLine
 10
152.9237690223
 20
125.6107405161
 30
0.0
 11
165.3119847742
 21
125.6107405161
 31
0.0
  0
LINE
  5
94
330
1F
100
AcDbEntity
  8
0
  6
Continuous
 62
     7
100
AcDbLine
 10
152.0119847742
 20
126.1010758104
 30
0.0
 11
152.0119847742
 21
126.2607405161
 31
0.0
  0
LINE
  5
95
330
1F
100
AcDbEntity
  8
0
  6
Continuous
 62
     7
100
AcDbLine
 10
153.5119847742
 20
125.5107405161
 30
0.0
 11
166.1700207742
 21
125.5107405161
 31
0.0
  0
LINE
  5
96
330
1F
100
AcDbEntity
  8
0
  6
Continuous
 62
     7
100
AcDbLine
 10
147.5119847742
 20
125.5107405161
 30
0.0
 11
134.8539487742
 21
125.5107405161
 31
0.0
  0
LINE
  5
97
330
1F
100
AcDbEntity
  8
0
  6
Continuous
 62
     9
420
 12434109
100
AcDbLine
 10
131.5105240773
 20
124.2107405161
 30
0.0
 11
131.0119847742
 21
124.2107405161
 31
0.0
  0
LINE
  5
98
330
1F
100
AcDbEntity
  8
0
  6
Continuous
 62
     7
100
AcDbLine
 10
131.3407722066
 20
124.0607405161
 30
0.0
 11
129.0119847742
 21
124.0607405161
 31
0.0
  0
LINE
  5
99
330
1F
100
AcDbEntity
  8
DEFAULT_1
  6
DOT_CENTER
 62
     2
100
AcDbLine
 10
154.2244847742
 20
123.5107405161
 30
0.0
 11
155.2619847742
 21
123.5107405161
 31
0.0
  0
LINE
  5
9A
330
1F
100
AcDbEntity
  8
DEFAULT_1
  6
DOT_CENTER
 62
     2
100
AcDbLine
 10
146.7994847742
 20
123.5107405161
 30
0.0
 11
145.7619847742
 21
123.5107405161
 31
0.0
  0
LINE
  5
9B
330
1F
100
AcDbEntity
  8
0
  6
DOT_CENTER
 62
     2
100
AcDbLine
 10
154.2244847742
 20
123.5107405161
 30
0.0
 11
146.7994847742
 21
123.5107405161
 31
0.0
  0
LINE
  5
9C
330
1F
100
AcDbEntity
  8
0
  6
Continuous
 62
     2
100
AcDbLine
 10
152.0543593785
 20
122.8037956758
 30
0.0
 11
152.0297945362
 21
122.7511162014
 31
0.0
  0
LINE
  5
9D
330
1F
100
AcDbEntity
  8
DEFAULT_1
  6
DOT_CENTER
 62
     2
100
AcDbLine
 10
150.5119847742
 20
127.2232405161
 30
0.0
 11
150.5119847742
 21
128.2607405161
 31
0.0
  0
LINE
  5
9E
330
1F
100
AcDbEntity
  8
DEFAULT_1
  6
DOT_CENTER
 62
     2
100
AcDbLine
 10
150.5119847742
 20
122.7682405161
 30
0.0
 11
150.5119847742
 21
118.7607405161
 31
0.0
  0
LINE
  5
9F
330
1F
100
AcDbEntity
  8
0
  6
DOT_CENTER
 62
     2
100
AcDbLine
 10
150.5119847742
 20
127.2232405161
 30
0.0
 11
150.5119847742
 21
122.7682405161
 31
0.0
  0
LINE
  5
A0
330
1F
100
AcDbEntity
  8
0
  6
Continuous
 62
     7
100
AcDbLine
 10
149.0119847742
 20
107.3607405161
 30
0.0
 11
149.0119847742
 21
119.3616297115
 31
0.0
  0
LINE
  5
A1
330
1F
100
AcDbEntity
  8
0
  6
Continuous
 62
     7
100
AcDbLine
 10
149.0119847742
 20
128.2607405161
 30
0.0
 11
149.0119847742
 21
126.1010758104
 31
0.0
  0
LINE
  5
A2
330
1F
100
AcDbEntity
  8
0
  6
Continuous
 62
     7
100
AcDbLine
 10
151.5495219815
 20
119.476934607
 30
0.0
 11
153.107578357
 21
119.0884676202
 31
0.0
  0
LINE
  5
A3
330
1F
100
AcDbEntity
  8
0
  6
Continuous
 62
     7
100
AcDbLine
 10
135.7011987742
 20
122.7107405161
 30
0.0
 11
145.2053847742
 21
122.7107405161
 31
0.0
  0
LINE
  5
A4
330
1F
100
AcDbEntity
  8
0
  6
Continuous
 62
     7
100
AcDbLine
 10
165.3227707742
 20
122.7107405161
 30
0.0
 11
155.8185847742
 21
122.7107405161
 31
0.0
  0
LINE
  5
A5
330
1F
100
AcDbEntity
  8
0
  6
Continuous
 62
     7
100
AcDbLine
 10
178.2119847742
 20
122.3107405161
 30
0.0
 11
178.7119847742
 21
122.3107405161
 31
0.0
  0
LINE
  5
A6
330
1F
100
AcDbEntity
  8
0
  6
Continuous
 62
     7
100
AcDbLine
 10
147.5119847742
 20
125.5107405161
 30
0.0
 11
147.5119847742
 21
128.3107405161
 31
0.0
  0
LINE
  5
A7
330
1F
100
AcDbEntity
  8
0
  6
Continuous
 62
     7
100
AcDbLine
 10
147.5119847742
 20
107.3107405161
 30
0.0
 11
147.5119847742
 21
108.3107405161
 31
0.0
  0
LINE
  5
A8
330
1F
100
AcDbEntity
  8
0
  6
Continuous
 62
     3
100
AcDbLine
 10
146.5119847742
 20
128.3107405161
 30
0.0
 11
146.5119847742
 21
127.8107405161
 31
0.0
  0
LINE
  5
A9
330
1F
100
AcDbEntity
  8
0
  6
Continuous
 62
     7
100
AcDbLine
 10
146.5876187259
 20
116.3026396197
 30
0.0
 11
148.2309078337
 21
112.7785953884
 31
0.0
  0
LINE
  5
AA
330
1F
100
AcDbEntity
  8
DEFAULT_1
  6
DOT_CENTER
 62
     2
100
AcDbLine
 10
173.7244847742
 20
118.5107405161
 30
0.0
 11
175.0369847742
 21
118.5107405161
 31
0.0
  0
LINE
  5
AB
330
1F
100
AcDbEntity
  8
DEFAULT_1
  6
DOT_CENTER
 62
     2
100
AcDbLine
 10
131.7544847742
 20
118.5107405161
 30
0.0
 11
136.0369847742
 21
118.5107405161
 31
0.0
  0
LINE
  5
AC
330
1F
100
AcDbEntity
  8
DEFAULT_1
  6
DOT_CENTER
 62
     2
100
AcDbLine
 10
127.2994847742
 20
118.5107405161
 30
0.0
 11
125.9869847742
 21
118.5107405161
 31
0.0
  0
LINE
  5
AD
330
1F
100
AcDbEntity
  8
0
  6
DOT_CENTER
 62
     2
100
AcDbLine
 10
131.7544847742
 20
118.5107405161
 30
0.0
 11
127.2994847742
 21
118.5107405161
 31
0.0
  0
LINE
  5
AE
330
1F
100
AcDbEntity
  8
DEFAULT_1
  6
DOT_CENTER
 62
     2
100
AcDbLine
 10
166.2994847742
 20
118.5107405161
 30
0.0
 11
164.9869847742
 21
118.5107405161
 31
0.0
  0
LINE
  5
AF
330
1F
100
AcDbEntity
  8
0
  6
DOT_CENTER
 62
     2
100
AcDbLine
 10
173.7244847742
 20
118.5107405161
 30
0.0
 11
166.2994847742
 21
118.5107405161
 31
0.0
  0
LINE
  5
B0
330
1F
100
AcDbEntity
  8
DEFAULT_1
  6
DOT_CENTER
 62
     2
100
AcDbLine
 10
145.5119847742
 20
112.2532405161
 30
0.0
 11
145.5119847742
 21
116.3607405161
 31
0.0
  0
LINE
  5
B1
330
1F
100
AcDbEntity
  8
DEFAULT_1
  6
DOT_CENTER
 62
     2
100
AcDbLine
 10
145.5119847742
 20
107.7982405161
 30
0.0
 11
145.5119847742
 21
106.6607405161
 31
0.0
  0
LINE
  5
B2
330
1F
100
AcDbEntity
  8
0
  6
DOT_CENTER
 62
     2
100
AcDbLine
 10
145.5119847742
 20
112.2532405161
 30
0.0
 11
145.5119847742
 21
107.7982405161
 31
0.0
  0
LINE
  5
B3
330
1F
100
AcDbEntity
  8
0
  6
Continuous
 62
     7
100
AcDbLine
 10
178.2119847742
 20
116.3107405161
 30
0.0
 11
178.7119847742
 21
116.3107405161
 31
0.0
  0
LINE
  5
B4
330
1F
100
AcDbEntity
  8
0
  6
Continuous
 62
     7
100
AcDbLine
 10
149.4744475669
 20
119.476934607
 30
0.0
 11
147.9163911914
 21
119.0884676202
 31
0.0
  0
LINE
  5
B5
330
1F
100
AcDbEntity
  8
0
  6
Continuous
 62
     7
100
AcDbLine
 10
143.6811369933
 20
120.9144647356
 30
0.0
 11
145.4479558811
 21
122.6843111935
 31
0.0
  0
LINE
  5
B6
330
1F
100
AcDbEntity
  8
0
  6
Continuous
 62
     7
100
AcDbLine
 10
142.5119847742
 20
118.0884595161
 30
0.0
 11
142.5119847742
 21
111.5107405161
 31
0.0
  0
LINE
  5
B7
330
1F
100
AcDbEntity
  8
0
  6
Continuous
 62
     7
100
AcDbLine
 10
141.0119847742
 20
112.3107405161
 30
0.0
 11
141.0119847742
 21
108.3107405161
 31
0.0
  0
LINE
  5
B8
330
1F
100
AcDbEntity
  8
0
  6
Continuous
 62
     7
100
AcDbLine
 10
139.0119847742
 20
107.3107405161
 30
0.0
 11
139.0119847742
 21
112.8107405161
 31
0.0
  0
LINE
  5
B9
330
1F
100
AcDbEntity
  8
0
  6
Continuous
 62
     3
100
AcDbLine
 10
138.8119847742
 20
110.8107405161
 30
0.0
 11
138.8119847742
 21
110.3107405161
 31
0.0
  0
LINE
  5
BA
330
1F
100
AcDbEntity
  8
0
  6
Continuous
 62
     7
100
AcDbLine
 10
131.5119847742
 20
112.8107405161
 30
0.0
 11
140.5119847742
 21
112.8107405161
 31
0.0
  0
LINE
  5
BB
330
1F
100
AcDbEntity
  8
0
  6
Continuous
 62
     7
100
AcDbLine
 10
140.9988195244
 20
112.4107405161
 30
0.0
 11
131.0119847742
 21
112.4107405161
 31
0.0
  0
LINE
  5
BC
330
1F
100
AcDbEntity
  8
DEFAULT_1
  6
DOT_CENTER
 62
     2
100
AcDbLine
 10
156.2544847742
 20
111.5107405161
 30
0.0
 11
160.3619847742
 21
111.5107405161
 31
0.0
  0
LINE
  5
BD
330
1F
100
AcDbEntity
  8
DEFAULT_1
  6
DOT_CENTER
 62
     2
100
AcDbLine
 10
149.2244847742
 20
111.5107405161
 30
0.0
 11
150.3619847742
 21
111.5107405161
 31
0.0
  0
LINE
  5
BE
330
1F
100
AcDbEntity
  8
DEFAULT_1
  6
DOT_CENTER
 62
     2
100
AcDbLine
 10
141.7994847742
 20
111.5107405161
 30
0.0
 11
140.6619847742
 21
111.5107405161
 31
0.0
  0
LINE
  5
BF
330
1F
100
AcDbEntity
  8
0
  6
DOT_CENTER
 62
     2
100
AcDbLine
 10
149.2244847742
 20
111.5107405161
 30
0.0
 11
141.7994847742
 21
111.5107405161
 31
0.0
  0
LINE
  5
C0
330
1F
100
AcDbEntity
  8
DEFAULT_1
  6
DOT_CENTER
 62
     2
100
AcDbLine
 10
151.7994847742
 20
111.5107405161
 30
0.0
 11
150.6619847742
 21
111.5107405161
 31
0.0
  0
LINE
  5
C1
330
1F
100
AcDbEntity
  8
0
  6
DOT_CENTER
 62
     2
100
AcDbLine
 10
156.2544847742
 20
111.5107405161
 30
0.0
 11
151.7994847742
 21
111.5107405161
 31
0.0
  0
LINE
  5
C2
330
1F
100
AcDbEntity
  8
0
  6
Continuous
 62
     7
100
AcDbLine
 10
168.0119847742
 20
111.0107405161
 30
0.0
 11
159.2119847742
 21
111.0107405161
 31
0.0
  0
LINE
  5
C3
330
1F
100
AcDbEntity
  8
0
  6
Continuous
 62
     7
100
AcDbLine
 10
165.3119847742
 20
110.9107405161
 30
0.0
 11
162.0119847742
 21
110.9107405161
 31
0.0
  0
LINE
  5
C4
330
1F
100
AcDbEntity
  8
0
  6
Continuous
 62
     3
100
AcDbLine
 10
171.7119847742
 20
110.9107405161
 30
0.0
 11
168.3119847742
 21
110.9107405161
 31
0.0
  0
LINE
  5
C5
330
1F
100
AcDbEntity
  8
0
  6
Continuous
 62
     3
100
AcDbLine
 10
131.5119847742
 20
110.8107405161
 30
0.0
 11
138.8119847742
 21
110.8107405161
 31
0.0
  0
LINE
  5
C6
330
1F
100
AcDbEntity
  8
0
  6
Continuous
 62
     2
100
AcDbLine
 10
155.2932111127
 20
113.1949290973
 30
0.0
 11
155.3322619418
 21
113.1983456021
 31
0.0
  0
LINE
  5
C7
330
1F
100
AcDbEntity
  8
0
  6
Continuous
 62
     7
100
AcDbLine
 10
133.9664078784
 20
119.0316849253
 30
0.0
 11
133.7315828389
 21
120.3634441494
 31
0.0
  0
LINE
  5
C8
330
1F
100
AcDbEntity
  8
0
  6
Continuous
 62
     7
100
AcDbLine
 10
126.0119847742
 20
114.3107405161
 30
0.0
 11
131.5119847742
 21
112.8107405161
 31
0.0
  0
LINE
  5
C9
330
1F
100
AcDbEntity
  8
0
  6
Continuous
 62
     3
100
AcDbLine
 10
126.8032251228
 20
111.472513528
 30
0.0
 11
131.5119847742
 21
110.8107405161
 31
0.0
  0
LINE
  5
CA
330
1F
100
AcDbEntity
  8
0
  6
Continuous
 62
     7
100
AcDbLine
 10
131.4770213682
 20
110.3107405161
 30
0.0
 11
126.7336385723
 21
110.9773794936
 31
0.0
  0
LINE
  5
CB
330
1F
100
AcDbEntity
  8
0
  6
Continuous
 62
     7
100
AcDbLine
 10
131.4770213682
 20
110.3107405161
 30
0.0
 11
139.0119847742
 21
110.3107405161
 31
0.0
  0
LINE
  5
CC
330
1F
100
AcDbEntity
  8
0
  6
Continuous
 62
     7
100
AcDbLine
 10
171.7119847742
 20
110.3107405161
 30
0.0
 11
162.0119847742
 21
110.3107405161
 31
0.0
  0
LINE
  5
CD
330
1F
100
AcDbEntity
  8
0
  6
Continuous
 62
     7
100
AcDbLine
 10
159.0119847742
 20
108.4107405161
 30
0.0
 11
152.0119847742
 21
108.4107405161
 31
0.0
  0
LINE
  5
CE
330
1F
100
AcDbEntity
  8
0
  6
Continuous
 62
     7
100
AcDbLine
 10
153.5119847742
 20
108.3107405161
 30
0.0
 11
162.0119847742
 21
108.3107405161
 31
0.0
  0
LINE
  5
CF
330
1F
100
AcDbEntity
  8
0
  6
Continuous
 62
     7
100
AcDbLine
 10
141.0119847742
 20
108.3107405161
 30
0.0
 11
149.0119847742
 21
108.3107405161
 31
0.0
  0
LINE
  5
D0
330
1F
100
AcDbEntity
  8
0
  6
Continuous
 62
     7
100
AcDbLine
 10
147.5119847742
 20
107.3607405161
 30
0.0
 11
149.0119847742
 21
107.3607405161
 31
0.0
  0
LINE
  5
D1
330
1F
100
AcDbEntity
  8
0
  6
Continuous
 62
     7
100
AcDbLine
 10
139.0119847742
 20
107.3107405161
 30
0.0
 11
147.5119847742
 21
107.3107405161
 31
0.0
  0
LINE
  5
D2
330
1F
100
AcDbEntity
  8
0
  6
Continuous
 62
     3
100
AcDbLine
 10
176.9207444256
 20
111.6427839453
 30
0.0
 11
171.7119847742
 21
110.9107405161
 31
0.0
  0
LINE
  5
D3
330
1F
100
AcDbEntity
  8
0
  6
Continuous
 62
     7
100
AcDbLine
 10
176.9207444256
 20
111.0427839453
 30
0.0
 11
171.7119847742
 21
110.3107405161
 31
0.0
  0
LINE
  5
D4
330
1F
100
AcDbEntity
  8
0
  6
Continuous
 62
     7
100
AcDbLine
 10
129.0119847742
 20
124.0607405161
 30
0.0
 11
126.0119847742
 21
123.0607405161
 31
0.0
  0
LINE
  5
D5
330
1F
100
AcDbEntity
  8
0
  6
Continuous
 62
     7
100
AcDbLine
 10
130.7581886311
 20
123.3786223118
 30
0.0
 11
128.5545287823
 21
120.2314695277
 31
0.0
  0
LINE
  5
D6
330
1F
100
AcDbEntity
  8
DEFAULT_1
  6
DOT_CENTER
 62
     2
100
AcDbLine
 10
131.0119847742
 20
122.2232405161
 30
0.0
 11
131.0119847742
 21
123.5357405161
 31
0.0
  0
LINE
  5
D7
330
1F
100
AcDbEntity
  8
0
  6
Continuous
 62
     7
100
AcDbLine
 10
131.0119847742
 20
112.9471041525
 30
0.0
 11
131.0119847742
 21
112.4107405161
 31
0.0
  0
LINE
  5
D8
330
1F
100
AcDbEntity
  8
DEFAULT_1
  6
DOT_CENTER
 62
     2
100
AcDbLine
 10
131.0119847742
 20
114.7982405161
 30
0.0
 11
131.0119847742
 21
113.4857405161
 31
0.0
  0
LINE
  5
D9
330
1F
100
AcDbEntity
  8
0
  6
DOT_CENTER
 62
     2
100
AcDbLine
 10
131.0119847742
 20
122.2232405161
 30
0.0
 11
131.0119847742
 21
114.7982405161
 31
0.0
  0
LINE
  5
DA
330
1F
100
AcDbEntity
  8
0
  6
Continuous
 62
     7
100
AcDbLine
 10
131.0119847742
 20
126.2107405161
 30
0.0
 11
131.0119847742
 21
124.0607405161
 31
0.0
  0
LINE
  5
DB
330
1F
100
AcDbEntity
  8
0
  6
Continuous
 62
     7
100
AcDbLine
 10
128.9486718293
 20
121.5616176406
 30
0.0
 11
127.5250528783
 21
117.7480573107
 31
0.0
  0
LINE
  5
DC
330
1F
100
AcDbEntity
  8
0
  6
Continuous
 62
     7
100
AcDbLine
 10
126.0119847742
 20
123.0607405161
 30
0.0
 11
126.0119847742
 21
114.3107405161
 31
0.0
  0
LINE
  5
DD
330
1F
100
AcDbEntity
  8
0
  6
Continuous
 62
     3
100
AcDbLine
 10
125.5119847742
 20
125.6635654012
 30
0.0
 11
125.5119847742
 21
112.9579156311
 31
0.0
  0
LINE
  5
DE
330
1F
100
AcDbEntity
  8
0
  6
Continuous
 62
     7
100
AcDbLine
 10
125.0119847742
 20
112.9579156311
 30
0.0
 11
125.0119847742
 21
125.6635654012
 31
0.0
  0
ARC
  5
DF
330
1F
100
AcDbEntity
  8
1
  6
DASHED
 62
     2
100
AcDbCircle
 10
171.1384473312517
 20
121.2118872429094
 30
0.0
 40
1.000000001002342
100
AcDbArc
 50
92.93306125759864
 51
116.8591055334343
  0
ARC
  5
E0
330
1F
100
AcDbEntity
  8
1
  6
DASHED
 62
     2
100
AcDbCircle
 10
163.0173768415585
 20
137.2477482773135
 30
0.0
 40
16.97499999936724
100
AcDbArc
 50
-75.32764301184213
 51
-63.14089444732387
  0
ARC
  5
E1
330
1F
100
AcDbEntity
  8
0
  6
DASHED
 62
     2
100
AcDbCircle
 10
155.5119847742
 20
111.5107405161
 30
0.0
 40
3.0
100
AcDbArc
 50
0.0
 51
167.9068575937951
  0
ARC
  5
E2
330
1F
100
AcDbEntity
  8
0
  6
Continuous
 62
     7
100
AcDbCircle
 10
155.5119847742
 20
111.5107405161
 30
0.0
 40
2.999999999999988
100
AcDbArc
 50
167.9068575937951
 51
180.0
  0
ARC
  5
E3
330
1F
100
AcDbEntity
  8
0
  6
Continuous
 62
     7
100
AcDbCircle
 10
155.5119847742
 20
111.5107405161
 30
0.0
 40
3.0
100
AcDbArc
 50
180.0
 51
0.0
  0
ARC
  5
E4
330
1F
100
AcDbEntity
  8
1
  6
DASHED
 62
     2
100
AcDbCircle
 10
157.6772048400264
 20
120.1316357237546
 30
0.0
 40
0.8512549995111843
100
AcDbArc
 50
113.1291227319074
 51
161.9815607014138
  0
ARC
  5
E5
330
1F
100
AcDbEntity
  8
1
  6
DASHED
 62
     2
100
AcDbCircle
 10
163.0173768412901
 20
137.2477482778708
 30
0.0
 40
23.02499999996928
100
AcDbArc
 50
-107.5231640688547
 51
-101.2941943747895
  0
ARC
  5
E6
330
1F
100
AcDbEntity
  8
0
  6
DASHED
 62
     2
100
AcDbCircle
 10
155.8185847742
 20
120.7107405161
 30
0.0
 40
2.000000238100009
100
AcDbArc
 50
97.26523831374378
 51
152.1818622102274
  0
ARC
  5
E7
330
1F
100
AcDbEntity
  8
0
  6
DASHED
 62
     2
100
AcDbCircle
 10
150.5119847742
 20
123.5107405161
 30
0.0
 40
4.000000058487769
100
AcDbArc
 50
-95.29491716816896
 51
-27.81813778990117
  0
ARC
  5
E8
330
1F
100
AcDbEntity
  8
1
  6
DASHED
 62
     2
100
AcDbCircle
 10
150.5789832470717
 20
123.4285600525833
 30
0.0
 40
3.10594632484854
100
AcDbArc
 50
126.949045063436
 51
136.0460399543412
  0
ARC
  5
E9
330
1F
100
AcDbEntity
  8
0
  6
Continuous
 62
     7
100
AcDbCircle
 10
145.2053847742
 20
120.7107405161
 30
0.0
 40
2.000000238166696
100
AcDbArc
 50
27.8181377897726
 51
82.73476168625622
  0
ARC
  5
EA
330
1F
100
AcDbEntity
  8
1
  6
DASHED
 62
     2
100
AcDbCircle
 10
138.0065927071098
 20
137.2477482778708
 30
0.0
 40
23.02499999996933
100
AcDbArc
 50
-78.70580562521025
 51
-72.4768359311452
  0
ARC
  5
EB
330
1F
100
AcDbEntity
  8
1
  6
DASHED
 62
     2
100
AcDbCircle
 10
143.3467647083736
 20
120.1316357237546
 30
0.0
 40
0.8512549995111555
100
AcDbArc
 50
18.01843929858681
 51
66.87087726809433
  0
ARC
  5
EC
330
1F
100
AcDbEntity
  8
1
  6
DASHED
 62
     2
100
AcDbCircle
 10
138.0065927068415
 20
137.2477482773135
 30
0.0
 40
16.97499999936727
100
AcDbArc
 50
-116.8591055526761
 51
-104.6723569881579
  0
ARC
  5
ED
330
1F
100
AcDbEntity
  8
1
  6
DASHED
 62
     2
100
AcDbCircle
 10
129.8855222171482
 20
121.2118872429094
 30
0.0
 40
1.000000001002324
100
AcDbArc
 50
63.14089446656137
 51
87.06693874239649
  0
ARC
  5
EE
330
1F
100
AcDbEntity
  8
0
  6
Continuous
 62
     7
100
AcDbCircle
 10
131.0119847742
 20
118.5107405161
 30
0.0
 40
2.9999997139145
100
AcDbArc
 50
145.0000031093278
 51
9.99999818489204
  0
ARC
  5
EF
330
1F
100
AcDbEntity
  8
0
  6
Continuous
 62
     7
100
AcDbCircle
 10
135.7011987742
 20
120.7107405161
 30
0.0
 40
2.0
100
AcDbArc
 50
90.0
 51
-170.0000018151156
  0
ARC
  5
F0
330
1F
100
AcDbEntity
  8
0
  6
Continuous
 62
     7
100
AcDbCircle
 10
134.8539487742
 20
120.5107405161
 30
0.0
 40
5.0
100
AcDbArc
 50
90.0
 51
145.0000031090006
  0
ARC
  5
F1
330
1F
100
AcDbEntity
  8
0
  6
Continuous
 62
     7
100
AcDbCircle
 10
145.2053847742
 20
120.7107405161
 30
0.0
 40
2.000000238100009
100
AcDbArc
 50
82.73476168625622
 51
90.0
  0
ARC
  5
F2
330
1F
100
AcDbEntity
  8
0
  6
Continuous
 62
     7
100
AcDbCircle
 10
150.5119847742
 20
123.5107405161
 30
0.0
 40
4.00000005849994
100
AcDbArc
 50
-152.1818622100986
 51
-84.70508283183062
  0
ARC
  5
F3
330
1F
100
AcDbEntity
  8
0
  6
Continuous
 62
     7
100
AcDbCircle
 10
152.6237347742
 20
117.1478765161
 30
0.0
 40
2.000000587397579
100
AcDbArc
 50
-25.00000394086439
 51
76.0000033786014
  0
ARC
  5
F4
330
1F
100
AcDbEntity
  8
0
  6
Continuous
 62
     7
100
AcDbCircle
 10
147.5119847742
 20
127.5107405161
 30
0.0
 40
2.0
100
AcDbArc
 50
-90.0
 51
-53.13010235419564
  0
ARC
  5
F5
330
1F
100
AcDbEntity
  8
0
  6
Continuous
 62
     7
100
AcDbCircle
 10
150.5119847742
 20
123.5107405161
 30
0.0
 40
2.999999906900253
100
AcDbArc
 50
44.95095183591086
 51
126.8698976458019
  0
ARC
  5
F6
330
1F
100
AcDbEntity
  8
0
  6
Continuous
 62
     7
100
AcDbCircle
 10
154.5119847742
 20
118.0884595161
 30
0.0
 40
4.0
100
AcDbArc
 50
0.0
 51
44.95095183510362
  0
ARC
  5
F7
330
1F
100
AcDbEntity
  8
0
  6
Continuous
 62
     7
100
AcDbCircle
 10
151.0656783048
 20
117.5363431259
 30
0.0
 40
2.000000000000114
100
AcDbArc
 50
76.00000338058315
 51
95.29491716761318
  0
ARC
  5
F8
330
1F
100
AcDbEntity
  8
0
  6
Continuous
 62
     7
100
AcDbCircle
 10
170.0119847742
 20
118.5107405161
 30
0.0
 40
2.999999713899534
100
AcDbArc
 50
170.0000018151079
 51
34.99999689067191
  0
ARC
  5
F9
330
1F
100
AcDbEntity
  8
0
  6
Continuous
 62
     7
100
AcDbCircle
 10
165.3227707742
 20
120.7107405161
 30
0.0
 40
2.000000000000325
100
AcDbArc
 50
-9.9999981848844
 51
90.0
  0
ARC
  5
FA
330
1F
100
AcDbEntity
  8
0
  6
Continuous
 62
     7
100
AcDbCircle
 10
166.1700207742
 20
120.5107405161
 30
0.0
 40
5.00000000000023
100
AcDbArc
 50
34.9999968909994
 51
90.0
  0
ARC
  5
FB
330
1F
100
AcDbEntity
  8
0
  6
Continuous
 62
     7
100
AcDbCircle
 10
149.9582912436
 20
117.5363431259
 30
0.0
 40
2.000000000000298
100
AcDbArc
 50
84.70508283238682
 51
103.9999966194169
  0
ARC
  5
FC
330
1F
100
AcDbEntity
  8
0
  6
Continuous
 62
     7
100
AcDbCircle
 10
146.5119847742
 20
118.0884595161
 30
0.0
 40
4.000000000000149
100
AcDbArc
 50
135.0489633727966
 51
180.0
  0
ARC
  5
FD
330
1F
100
AcDbEntity
  8
0
  6
Continuous
 62
     7
100
AcDbCircle
 10
153.5119847742
 20
127.5107405161
 30
0.0
 40
2.000000000000068
100
AcDbArc
 50
-126.8704122987143
 51
-90.0
  0
ARC
  5
FE
330
1F
100
AcDbEntity
  8
0
  6
Continuous
 62
     7
100
AcDbCircle
 10
155.8185847742
 20
120.7107405161
 30
0.0
 40
2.000000238100186
100
AcDbArc
 50
90.00006261559882
 51
97.03835364540097
  0
ARC
  5
FF
330
1F
100
AcDbEntity
  8
0
  6
Continuous
 62
     7
100
AcDbCircle
 10
148.4002347742
 20
117.1478765161
 30
0.0
 40
2.000000587400079
100
AcDbArc
 50
104.0002493777103
 51
-154.9999960591353
  0
ARC
  5
100
330
1F
100
AcDbEntity
  8
0
  6
Continuous
 62
     7
100
AcDbCircle
 10
127.0119847742
 20
112.9579156311
 30
0.0
 40
2.0
100
AcDbArc
 50
180.0
 51
-97.9999999993619
  0
ARC
  5
101
330
1F
100
AcDbEntity
  8
0
  6
Continuous
 62
     7
100
AcDbCircle
 10
127.0119847742
 20
125.6635654012
 30
0.0
 40
2.000000000013891
100
AcDbArc
 50
97.9999999993619
 51
180.0
  0
ARC
  5
102
330
1F
100
AcDbEntity
  8
0
  6
Continuous
 62
     3
100
AcDbCircle
 10
127.0119847742
 20
125.6635654012
 30
0.0
 40
1.499999999982184
100
AcDbArc
 50
97.999999998549
 51
180.0
  0
ARC
  5
103
330
1F
100
AcDbEntity
  8
0
  6
Continuous
 62
     3
100
AcDbCircle
 10
127.0119847742
 20
112.9579156311
 30
0.0
 40
1.5
100
AcDbArc
 50
180.0
 51
-97.999999998549
  0
ARC
  5
104
330
1F
100
AcDbEntity
  8
0
  6
Continuous
 62
     7
100
AcDbCircle
 10
176.7119847742
 20
112.5281860484
 30
0.0
 40
1.499999999982182
100
AcDbArc
 50
-82.00000000145154
 51
0.0
  0
ARC
  5
105
330
1F
100
AcDbEntity
  8
0
  6
Continuous
 62
     7
100
AcDbCircle
 10
176.7119847742
 20
124.0932949838
 30
0.0
 40
1.5
100
AcDbArc
 50
0.0
 51
82.00000000198308
  0
ARC
  5
106
330
1F
100
AcDbEntity
  8
0
  6
Continuous
 62
     3
100
AcDbCircle
 10
176.7119847742
 20
113.1281860484
 30
0.0
 40
1.499999999982182
100
AcDbArc
 50
-82.00000000145154
 51
0.0
  0
ARC
  5
107
330
1F
100
AcDbEntity
  8
0
  6
Continuous
 62
     3
100
AcDbCircle
 10
176.7119847742
 20
123.4932949838
 30
0.0
 40
1.5
100
AcDbArc
 50
0.0
 51
82.00000000198315
  0
ARC
  5
108
330
1F
100
AcDbEntity
  8
0
  6
Continuous
 62
     7
100
AcDbCircle
 10
157.8045483129
 20
120.0452181229
 30
0.0
 40
1.000000000004727
100
AcDbArc
 50
73.14178242945366
 51
118.010340804482
  0
ARC
  5
109
330
1F
100
AcDbEntity
  8
0
  6
Continuous
 62
     7
100
AcDbCircle
 10
163.0173768413
 20
137.2477482779
 30
0.0
 40
16.97500000000043
100
AcDbArc
 50
-106.8582175739005
 51
-75.3276430114995
  0
ARC
  5
10A
330
1F
100
AcDbEntity
  8
0
  6
Continuous
 62
     7
100
AcDbCircle
 10
171.138447331
 20
121.2118872439
 30
0.0
 40
1.000000000029532
100
AcDbArc
 50
20.47082586302199
 51
92.93306124610024
  0
ARC
  5
10B
330
1F
100
AcDbEntity
  8
0
  6
Continuous
 62
     7
100
AcDbCircle
 10
172.562066282
 20
117.3983269141
 30
0.0
 40
1.000000000066214
100
AcDbArc
 50
-64.31920239197761
 51
20.47082585765414
  0
ARC
  5
10C
330
1F
100
AcDbEntity
  8
0
  6
Continuous
 62
     7
100
AcDbCircle
 10
163.0173768413
 20
137.2477482779
 30
0.0
 40
23.02499999999987
100
AcDbArc
 50
-101.2941943747995
 51
-64.31920239159888
  0
ARC
  5
10D
330
1F
100
AcDbEntity
  8
0
  6
Continuous
 62
     7
100
AcDbCircle
 10
159.2119847742
 20
110.8107405161
 30
0.0
 40
0.2000000000000028
100
AcDbArc
 50
90.0
 51
180.0
  0
ARC
  5
10E
330
1F
100
AcDbEntity
  8
0
  6
Continuous
 62
     7
100
AcDbCircle
 10
128.4619032663
 20
117.3983269141
 30
0.0
 40
0.9999999999008716
100
AcDbArc
 50
159.529174140342
 51
-115.680797602858
  0
ARC
  5
10F
330
1F
100
AcDbEntity
  8
0
  6
Continuous
 62
     7
100
AcDbCircle
 10
129.8855222174
 20
121.2118872439
 30
0.0
 40
1.000000000000164
100
AcDbArc
 50
87.06693875389976
 51
159.529174136978
  0
ARC
  5
110
330
1F
100
AcDbEntity
  8
0
  6
Continuous
 62
     7
100
AcDbCircle
 10
138.0065927071
 20
137.2477482779
 30
0.0
 40
16.9750000000001
100
AcDbArc
 50
-104.6723569885005
 51
-73.14178242629767
  0
ARC
  5
111
330
1F
100
AcDbEntity
  8
0
  6
Continuous
 62
     7
100
AcDbCircle
 10
143.2194212355
 20
120.0452181229
 30
0.0
 40
0.999999999999529
100
AcDbArc
 50
61.98969175201364
 51
106.858217573911
  0
ARC
  5
112
330
1F
100
AcDbEntity
  8
0
  6
Continuous
 62
     7
100
AcDbCircle
 10
138.0065927071
 20
137.2477482779
 30
0.0
 40
23.02500000000015
100
AcDbArc
 50
-115.6807976084011
 51
-78.70580562520054
  0
ARC
  5
113
330
1F
100
AcDbEntity
  8
0
  6
Continuous
 62
     7
100
AcDbCircle
 10
140.5119847742
 20
112.3107405161
 30
0.0
 40
0.5
100
AcDbArc
 50
0.0
 51
90.0
  0
CIRCLE
  5
114
330
1F
100
AcDbEntity
  8
0
  6
Continuous
 62
     7
100
AcDbCircle
 10
145.5119847742
 20
111.5107405161
 30
0.0
 40
1.700000000000017
  0
CIRCLE
  5
115
330
1F
100
AcDbEntity
  8
0
  6
Continuous
 62
     7
100
AcDbCircle
 10
145.5119847742
 20
111.5107405161
 30
0.0
 40
3.0
  0
CIRCLE
  5
116
330
1F
100
AcDbEntity
  8
0
  6
Continuous
 62
     7
100
AcDbCircle
 10
131.0119847742
 20
118.5107405161
 30
0.0
 40
1.950000000000017
  0
CIRCLE
  5
117
330
1F
100
AcDbEntity
  8
0
  6
Continuous
 62
     7
100
AcDbCircle
 10
170.0119847742
 20
118.5107405161
 30
0.0
 40
1.950000000000017
  0
CIRCLE
  5
118
330
1F
100
AcDbEntity
  8
0
  6
Continuous
 62
     7
100
AcDbCircle
 10
150.5119847742
 20
123.5107405161
 30
0.0
 40
1.700000000000017
  0
CIRCLE
  5
119
330
1F
100
AcDbEntity
  8
0
  6
Continuous
 62
     7
100
AcDbCircle
 10
155.5119847742
 20
111.5107405161
 30
0.0
 40
1.700000000000017
  0
XLINE
  5
11A
330
1F
100
AcDbEntity
  8
1
  6
DOT_CENTER
 62
     3
 60
     1
100
AcDbXline
 10
150.5119847742
 20
122.7682405161
 30
0.0
 11
0.0
 21
1.0
 31
0.0
  0
XLINE
  5
11B
330
1F
100
AcDbEntity
  8
1
  6
DOT_CENTER
 62
     3
 60
     1
100
AcDbXline
 10
150.5119847742
 20
122.7682405161
 30
0.0
 11
0.0
 21
1.0
 31
0.0
  0
XLINE
  5
11C
330
1F
100
AcDbEntity
  8
1
  6
DOT_CENTER
 62
     3
 60
     1
100
AcDbXline
 10
150.5119847742
 20
122.7682405161
 30
0.0
 11
0.0
 21
1.0
 31
0.0
  0
XLINE
  5
11D
330
1F
100
AcDbEntity
  8
1
  6
DOT_CENTER
 62
     3
 60
     1
100
AcDbXline
 10
150.5119847742
 20
122.7682405161
 30
0.0
 11
0.0
 21
1.0
 31
0.0
  0
XLINE
  5
11E
330
1F
100
AcDbEntity
  8
1
  6
DOT_CENTER
 62
     3
 60
     1
100
AcDbXline
 10
138.0065927071
 20
137.2477482779
 30
0.0
 11
0.0
 21
1.0
 31
0.0
  0
ARC
  5
11F
330
1F
100
AcDbEntity
  8
1
  6
DASHED
 62
     2
100
AcDbCircle
 10
156.3858398036298
 20
116.2448117804002
 30
0.0
 40
1.000000000000048
100
AcDbArc
 50
159.5291741407025
 51
-107.5231640688585
  0
ARC
  5
120
330
1F
100
AcDbEntity
  8
1
  6
DASHED
 62
     2
100
AcDbCircle
 10
144.6381297447702
 20
116.2448117804002
 30
0.0
 40
1.000000000000056
100
AcDbArc
 50
-72.47683593114621
 51
20.47082585929754
  0
DIMENSION
  5
12C
330
1F
100
AcDbEntity
  8
1
100
AcDbDimension
  2
*D1
 10
95.607578653474
 20
128.3107405161
 30
0.0
 11
91.857578653474
 21
117.124465138216
 31
0.0
 70
    32
  1
<>
 71
     5
 42
-1.0
 53
90.0
  3
ME10_DIM_10
100
AcDbAlignedDimension
 13
139.0119847742
 23
107.3107405161
 33
0.0
 14
131.4770213682
 24
128.3107405161
 34
0.0
 50
90.0
100
AcDbRotatedDimension
  0
DIMENSION
  5
137
330
1F
100
AcDbEntity
  8
1
100
AcDbDimension
  2
*D2
 10
152.0119847742
 20
84.1965646936222
 30
0.0
 11
165.63401344841
 21
87.9465646936222
 31
0.0
 70
    32
  1
27
 71
     5
 42
-1.0
 53
0.00013888888889
  3
ME10_DIM_11
100
AcDbAlignedDimension
 13
178.7119847742
 23
116.3107405161
 33
0.0
 14
152.0119847742
 24
104.3107405161
 34
0.0
100
AcDbRotatedDimension
  0
DIMENSION
  5
142
330
1F
100
AcDbEntity
  8
1
100
AcDbDimension
  2
*D3
 10
125.0119847742
 20
84.2881513319905
 30
0.0
 11
136.601049085649
 21
88.0381513319905
 31
0.0
 70
    32
  1
<>
 71
     5
 42
-1.0
 53
0.00013888888889
  3
ME10_DIM_12
100
AcDbAlignedDimension
 13
149.0119847742
 23
104.3107405161
 33
0.0
 14
125.0119847742
 24
112.9579156311
 34
0.0
100
AcDbRotatedDimension
  0
DIMENSION
  5
14F
330
1F
100
AcDbEntity
  8
1
100
AcDbDimension
  2
*D4
 10
149.0119847742
 20
94.2710949141387
 30
0.0
 11
144.30177973064
 21
98.0210949141387
 31
0.0
 70
    32
  1
3.5
 71
     5
 42
-1.0
 53
0.00013888888889
  3
ME10_DIM_13
100
AcDbAlignedDimension
 13
152.0119847742
 23
104.3107405161
 33
0.0
 14
149.0119847742
 24
104.3107405161
 34
0.0
100
AcDbRotatedDimension
  0
DIMENSION
  5
15A
330
1F
100
AcDbEntity
  8
1
100
AcDbDimension
  2
*D5
 10
206.946803304589
 20
126.3107405161
 30
0.0
 11
203.196803304589
 21
117.124465138216
 31
0.0
 70
    32
  1
<>
 71
     5
 42
-1.0
 53
90.0
  3
ME10_DIM_14
100
AcDbAlignedDimension
 13
162.0119847742
 23
108.3107405161
 33
0.0
 14
171.7119847742
 24
126.3107405161
 34
0.0
 50
90.0
100
AcDbRotatedDimension
  0
DIMENSION
  5
167
330
1F
100
AcDbEntity
  8
1
100
AcDbDimension
  2
*D6
 10
206.946803304589
 20
108.3107405161
 30
0.0
 11
203.196803304589
 21
98.2579139443512
 31
0.0
 70
    32
  1
<>
 71
     5
 42
-1.0
 53
90.0
  3
ME10_DIM_15
100
AcDbAlignedDimension
 13
197.0119847742002
 23
104.3107405161
 33
0.0
 14
162.0119847742
 24
108.3107405161
 34
0.0
 50
90.0
100
AcDbRotatedDimension
  0
ENDSEC
  0
SECTION
  2
OBJECTS
  0
DICTIONARY
  5
C
330
0
100
AcDbDictionary
281
     1
  3
ACAD_GROUP
350
D
  3
ACAD_LAYOUT
350
1A
  3
ACAD_MLINESTYLE
350
17
  3
ACAD_PLOTSETTINGS
350
19
  3
ACAD_PLOTSTYLENAME
350
E
  0
DICTIONARY
  5
D
102
{ACAD_REACTORS
330
C
102
}
330
C
100
AcDbDictionary
281
     1
  0
DICTIONARY
  5
1A
102
{ACAD_REACTORS
330
C
102
}
330
C
100
AcDbDictionary
281
     1
  3
Layout1
350
1E
  3
Layout2
350
26
  3
Model
350
22
  0
DICTIONARY
  5
17
102
{ACAD_REACTORS
330
C
102
}
330
C
100
AcDbDictionary
281
     1
  3
Standard
350
18
  0
DICTIONARY
  5
19
102
{ACAD_REACTORS
330
C
102
}
330
C
100
AcDbDictionary
281
     1
  0
ACDBDICTIONARYWDFLT
  5
E
102
{ACAD_REACTORS
330
C
102
}
330
C
100
AcDbDictionary
281
     1
  3
Normal
350
F
100
AcDbDictionaryWithDefault
340
F
  0
LAYOUT
  5
1E
102
{ACAD_REACTORS
330
1A
102
}
330
1A
100
AcDbPlotSettings
  1

  2

  4

  6

 40
0.0
 41
0.0
 42
0.0
 43
0.0
 44
0.0
 45
0.0
 46
0.0
 47
0.0
 48
0.0
 49
0.0
140
0.0
141
0.0
142
1.0
143
1.0
 70
   688
 72
     0
 73
     0
 74
     5
  7

 75
    16
 76
     0
 77
     2
 78
   300
147
1.0
148
0.0
149
0.0
100
AcDbLayout
  1
Layout1
 70
     1
 71
     1
 10
0.0
 20
0.0
 11
0.0
 21
0.0
 12
0.0
 22
0.0
 32
0.0
 14
0.0
 24
0.0
 34
0.0
 15
0.0
 25
0.0
 35
0.0
146
0.0
 13
0.0
 23
0.0
 33
0.0
 16
1.0
 26
0.0
 36
0.0
 17
0.0
 27
1.0
 37
0.0
 76
     0
330
1B
  0
LAYOUT
  5
26
102
{ACAD_REACTORS
330
1A
102
}
330
1A
100
AcDbPlotSettings
  1

  2

  4

  6

 40
0.0
 41
0.0
 42
0.0
 43
0.0
 44
0.0
 45
0.0
 46
0.0
 47
0.0
 48
0.0
 49
0.0
140
0.0
141
0.0
142
1.0
143
1.0
 70
   688
 72
     0
 73
     0
 74
     5
  7

 75
    16
 76
     0
 77
     2
 78
   300
147
1.0
148
0.0
149
0.0
100
AcDbLayout
  1
Layout2
 70
     1
 71
     2
 10
0.0
 20
0.0
 11
0.0
 21
0.0
 12
0.0
 22
0.0
 32
0.0
 14
0.0
 24
0.0
 34
0.0
 15
0.0
 25
0.0
 35
0.0
146
0.0
 13
0.0
 23
0.0
 33
0.0
 16
1.0
 26
0.0
 36
0.0
 17
0.0
 27
1.0
 37
0.0
 76
     0
330
23
  0
LAYOUT
  5
22
102
{ACAD_REACTORS
330
1A
102
}
330
1A
100
AcDbPlotSettings
  1

  2

  4

  6

 40
0.0
 41
0.0
 42
0.0
 43
0.0
 44
0.0
 45
0.0
 46
0.0
 47
0.0
 48
0.0
 49
0.0
140
0.0
141
0.0
142
1.0
143
1.0
 70
  1712
 72
     0
 73
     0
 74
     0
  7

 75
     0
 76
     0
 77
     2
 78
   300
147
1.0
148
0.0
149
0.0
100
AcDbLayout
  1
Model
 70
     1
 71
     0
 10
0.0
 20
0.0
 11
0.0
 21
0.0
 12
0.0
 22
0.0
 32
0.0
 14
90.107578653474
 24
82.1965646936222
 34
0.0
 15
208.946803304589
 25
165.876257280423
 35
0.0
146
0.0
 13
0.0
 23
0.0
 33
0.0
 16
1.0
 26
0.0
 36
0.0
 17
0.0
 27
1.0
 37
0.0
 76
     0
330
1F
  0
MLINESTYLE
  5
18
102
{ACAD_REACTORS
330
17
102
}
330
17
100
AcDbMlineStyle
  2
Standard
 70
     0
  3

 62
   256
 51
90.0
 52
90.0
 71
     2
 49
0.5
 62
   256
  6
BYLAYER
 49
-0.5
 62
   256
  6
BYLAYER
  0
ACDBPLACEHOLDER
  5
F
102
{ACAD_REACTORS
330
E
102
}
330
E
  0
ENDSEC
  0
EOF
