  0
SECTION
  2
HEADER
  9
$ACADVER
  1
AC1018
  9
$ACADMAINTVER
 70
     0
  9
$DWGCODEPAGE
  3
ANSI_1252
  9
$INSBASE
 10
0.0
 20
0.0
 30
0.0
  9
$EXTMIN
 10
569.079713236376
 20
158.926499169594
 30
0.0
  9
$EXTMAX
 10
727.315366366601
 20
269.5374132848522
 30
0.0
  9
$LIMMIN
 10
0.0
 20
0.0
  9
$LIMMAX
 10
12.0
 20
9.0
  9
$ORTHOMODE
 70
     0
  9
$REGENMODE
 70
     1
  9
$FILLMODE
 70
     1
  9
$QTEXTMODE
 70
     0
  9
$MIRRTEXT
 70
     1
  9
$LTSCALE
 40
1.0
  9
$ATTMODE
 70
     1
  9
$TEXTSIZE
 40
0.2
  9
$TRACEWID
 40
0.05
  9
$TEXTSTYLE
  7
Standard
  9
$CLAYER
  8
0
  9
$CELTYPE
  6
ByLayer
  9
$CECOLOR
 62
   256
  9
$CELTSCALE
 40
1.0
  9
$DISPSILH
 70
     0
  9
$DIMSCALE
 40
1.0
  9
$DIMASZ
 40
0.18
  9
$DIMEXO
 40
0.0625
  9
$DIMDLI
 40
0.38
  9
$DIMRND
 40
0.0
  9
$DIMDLE
 40
0.0
  9
$DIMEXE
 40
0.18
  9
$DIMTP
 40
0.0
  9
$DIMTM
 40
0.0
  9
$DIMTXT
 40
0.18
  9
$DIMCEN
 40
0.09
  9
$DIMTSZ
 40
0.0
  9
$DIMTOL
 70
     0
  9
$DIMLIM
 70
     0
  9
$DIMTIH
 70
     1
  9
$DIMTOH
 70
     1
  9
$DIMSE1
 70
     0
  9
$DIMSE2
 70
     0
  9
$DIMTAD
 70
     0
  9
$DIMZIN
 70
     0
  9
$DIMBLK
  1

  9
$DIMASO
 70
     1
  9
$DIMSHO
 70
     1
  9
$DIMPOST
  1

  9
$DIMAPOST
  1

  9
$DIMALT
 70
     0
  9
$DIMALTD
 70
     2
  9
$DIMALTF
 40
25.4
  9
$DIMLFAC
 40
1.0
  9
$DIMTOFL
 70
     0
  9
$DIMTVP
 40
0.0
  9
$DIMTIX
 70
     0
  9
$DIMSOXD
 70
     0
  9
$DIMSAH
 70
     0
  9
$DIMBLK1
  1

  9
$DIMBLK2
  1

  9
$DIMSTYLE
  2
Standard
  9
$DIMCLRD
 70
     0
  9
$DIMCLRE
 70
     0
  9
$DIMCLRT
 70
     0
  9
$DIMTFAC
 40
1.0
  9
$DIMGAP
 40
0.09
  9
$DIMJUST
 70
     0
  9
$DIMSD1
 70
     0
  9
$DIMSD2
 70
     0
  9
$DIMTOLJ
 70
     1
  9
$DIMTZIN
 70
     0
  9
$DIMALTZ
 70
     0
  9
$DIMALTTZ
 70
     0
  9
$DIMUPT
 70
     0
  9
$DIMDEC
 70
     4
  9
$DIMTDEC
 70
     4
  9
$DIMALTU
 70
     2
  9
$DIMALTTD
 70
     2
  9
$DIMTXSTY
  7
Standard
  9
$DIMAUNIT
 70
     0
  9
$DIMADEC
 70
     0
  9
$DIMALTRND
 40
0.0
  9
$DIMAZIN
 70
     0
  9
$DIMDSEP
 70
    46
  9
$DIMATFIT
 70
     3
  9
$DIMFRAC
 70
     0
  9
$DIMLDRBLK
  1

  9
$DIMLUNIT
 70
     2
  9
$DIMLWD
 70
    -2
  9
$DIMLWE
 70
    -2
  9
$DIMTMOVE
 70
     0
  9
$LUNITS
 70
     2
  9
$LUPREC
 70
     4
  9
$SKETCHINC
 40
0.1
  9
$FILLETRAD
 40
0.5
  9
$AUNITS
 70
     0
  9
$AUPREC
 70
     0
  9
$MENU
  1
.
  9
$ELEVATION
 40
0.0
  9
$PELEVATION
 40
0.0
  9
$THICKNESS
 40
0.0
  9
$LIMCHECK
 70
     0
  9
$CHAMFERA
 40
0.5
  9
$CHAMFERB
 40
0.5
  9
$CHAMFERC
 40
1.0
  9
$CHAMFERD
 40
0.0
  9
$SKPOLY
 70
     0
  9
$TDCREATE
 40
2455043.468921018
  9
$TDUCREATE
 40
2455043.385587685
  9
$TDUPDATE
 40
2455043.46892103
  9
$TDUUPDATE
 40
2455043.385587697
  9
$TDINDWG
 40
0.0000000116
  9
$TDUSRTIMER
 40
0.0000000116
  9
$USRTIMER
 70
     1
  9
$ANGBASE
 50
0.0
  9
$ANGDIR
 70
     0
  9
$PDMODE
 70
     0
  9
$PDSIZE
 40
0.0
  9
$PLINEWID
 40
0.0
  9
$SPLFRAME
 70
     0
  9
$SPLINETYPE
 70
     6
  9
$SPLINESEGS
 70
     8
  9
$HANDSEED
  5
231
  9
$SURFTAB1
 70
     6
  9
$SURFTAB2
 70
     6
  9
$SURFTYPE
 70
     6
  9
$SURFU
 70
     6
  9
$SURFV
 70
     6
  9
$UCSBASE
  2

  9
$UCSNAME
  2

  9
$UCSORG
 10
0.0
 20
0.0
 30
0.0
  9
$UCSXDIR
 10
1.0
 20
0.0
 30
0.0
  9
$UCSYDIR
 10
0.0
 20
1.0
 30
0.0
  9
$UCSORTHOREF
  2

  9
$UCSORTHOVIEW
 70
     0
  9
$UCSORGTOP
 10
0.0
 20
0.0
 30
0.0
  9
$UCSORGBOTTOM
 10
0.0
 20
0.0
 30
0.0
  9
$UCSORGLEFT
 10
0.0
 20
0.0
 30
0.0
  9
$UCSORGRIGHT
 10
0.0
 20
0.0
 30
0.0
  9
$UCSORGFRONT
 10
0.0
 20
0.0
 30
0.0
  9
$UCSORGBACK
 10
0.0
 20
0.0
 30
0.0
  9
$PUCSBASE
  2

  9
$PUCSNAME
  2

  9
$PUCSORG
 10
0.0
 20
0.0
 30
0.0
  9
$PUCSXDIR
 10
1.0
 20
0.0
 30
0.0
  9
$PUCSYDIR
 10
0.0
 20
1.0
 30
0.0
  9
$PUCSORTHOREF
  2

  9
$PUCSORTHOVIEW
 70
     0
  9
$PUCSORGTOP
 10
0.0
 20
0.0
 30
0.0
  9
$PUCSORGBOTTOM
 10
0.0
 20
0.0
 30
0.0
  9
$PUCSORGLEFT
 10
0.0
 20
0.0
 30
0.0
  9
$PUCSORGRIGHT
 10
0.0
 20
0.0
 30
0.0
  9
$PUCSORGFRONT
 10
0.0
 20
0.0
 30
0.0
  9
$PUCSORGBACK
 10
0.0
 20
0.0
 30
0.0
  9
$USERI1
 70
     0
  9
$USERI2
 70
     0
  9
$USERI3
 70
     0
  9
$USERI4
 70
     0
  9
$USERI5
 70
     0
  9
$USERR1
 40
14.5
  9
$USERR2
 40
0.0
  9
$USERR3
 40
0.0
  9
$USERR4
 40
0.0
  9
$USERR5
 40
0.0
  9
$WORLDVIEW
 70
     1
  9
$SHADEDGE
 70
     3
  9
$SHADEDIF
 70
    70
  9
$TILEMODE
 70
     1
  9
$MAXACTVP
 70
    64
  9
$PINSBASE
 10
0.0
 20
0.0
 30
0.0
  9
$PLIMCHECK
 70
     0
  9
$PEXTMIN
 10
1.00000000000000E+20
 20
1.00000000000000E+20
 30
1.00000000000000E+20
  9
$PEXTMAX
 10
-1.00000000000000E+20
 20
-1.00000000000000E+20
 30
-1.00000000000000E+20
  9
$PLIMMIN
 10
0.0
 20
0.0
  9
$PLIMMAX
 10
12.0
 20
9.0
  9
$UNITMODE
 70
     0
  9
$VISRETAIN
 70
     1
  9
$PLINEGEN
 70
     0
  9
$PSLTSCALE
 70
     1
  9
$TREEDEPTH
 70
  3020
  9
$CMLSTYLE
  2
Standard
  9
$CMLJUST
 70
     0
  9
$CMLSCALE
 40
1.0
  9
$PROXYGRAPHICS
 70
     1
  9
$MEASUREMENT
 70
     1
  9
$CELWEIGHT
370
    -1
  9
$ENDCAPS
280
     0
  9
$JOINSTYLE
280
     0
  9
$LWDISPLAY
290
     0
  9
$INSUNITS
 70
     1
  9
$HYPERLINKBASE
  1

  9
$STYLESHEET
  1

  9
$XEDIT
290
     1
  9
$CEPSNTYPE
380
     0
  9
$PSTYLEMODE
290
     1
  9
$FINGERPRINTGUID
  2
{06D5951B-605F-479A-B3B7-CB244DFDFEAA}
  9
$VERSIONGUID
  2
{FAEB1C32-E019-11D5-929B-00C0DF256EC4}
  9
$EXTNAMES
290
     1
  9
$PSVPSCALE
 40
0.0
  9
$OLESTARTUP
290
     0
  9
$SORTENTS
280
   127
  9
$INDEXCTL
280
     0
  9
$HIDETEXT
280
     1
  9
$XCLIPFRAME
290
     0
  9
$HALOGAP
280
     0
  9
$OBSCOLOR
 70
   257
  9
$OBSLTYPE
280
     0
  9
$INTERSECTIONDISPLAY
280
     0
  9
$INTERSECTIONCOLOR
 70
   257
  9
$DIMASSOC
280
     2
  9
$PROJECTNAME
  1

  0
ENDSEC
  0
SECTION
  2
CLASSES
  0
CLASS
  1
ACDBDICTIONARYWDFLT
  2
AcDbDictionaryWithDefault
  3
ObjectDBX Classes
 90
        0
 91
        3
280
     0
281
     0
  0
CLASS
  1

  2
exOdDbCircle
  3

 90
        0
 91
        3
280
     0
281
     1
  0
CLASS
  1

  2
exOdDbSpline
  3

 90
        0
 91
        3
280
     0
281
     1
  0
ENDSEC
  0
SECTION
  2
TABLES
  0
TABLE
  2
VPORT
  5
8
330
0
100
AcDbSymbolTable
 70
     1
  0
VPORT
  5
29
330
8
100
AcDbSymbolTableRecord
100
AcDbViewportTableRecord
  2
*Active
 70
     0
 10
0.0
 20
0.0
 11
1.0
 21
1.0
 12
648.1975398014886
 22
214.2319562272231
 13
0.0
 23
0.0
 14
0.5
 24
0.5
 15
0.5
 25
0.5
 16
0.0
 26
0.0
 36
1.0
 17
0.0
 27
0.0
 37
0.0
 40
121.6720055267841
 41
1.60267857142857
 42
50.0
 43
0.0
 44
0.0
 50
0.0
 51
0.0
 71
     0
 72
   100
 73
     1
 74
     3
 75
     0
 76
     0
 77
     0
 78
     0
281
     0
 65
     1
110
0.0
120
0.0
130
0.0
111
1.0
121
0.0
131
0.0
112
0.0
122
1.0
132
0.0
 79
     0
146
0.0
  0
ENDTAB
  0
TABLE
  2
LTYPE
  5
5
330
0
100
AcDbSymbolTable
 70
     8
  0
LTYPE
  5
14
330
5
100
AcDbSymbolTableRecord
100
AcDbLinetypeTableRecord
  2
ByBlock
 70
     0
  3

 72
    65
 73
     0
 40
0.0
  0
LTYPE
  5
15
330
5
100
AcDbSymbolTableRecord
100
AcDbLinetypeTableRecord
  2
ByLayer
 70
     0
  3

 72
    65
 73
     0
 40
0.0
  0
LTYPE
  5
16
330
5
100
AcDbSymbolTableRecord
100
AcDbLinetypeTableRecord
  2
Continuous
 70
     0
  3
Solid line
 72
    65
 73
     0
 40
0.0
  0
LTYPE
  5
2A
330
5
100
AcDbSymbolTableRecord
100
AcDbLinetypeTableRecord
  2
DASHED
 70
     0
  3
Dashed
 72
    65
 73
     2
 40
15.0
 49
7.0
 74
     0
 49
-8.0
 74
     0
  0
LTYPE
  5
2B
330
5
100
AcDbSymbolTableRecord
100
AcDbLinetypeTableRecord
  2
DOTTED
 70
     0
  3
Dotted
 72
    65
 73
     2
 40
1.0
 49
0.0
 74
     0
 49
-1.0
 74
     0
  0
LTYPE
  5
2C
330
5
100
AcDbSymbolTableRecord
100
AcDbLinetypeTableRecord
  2
DOT_CENTER
 70
     0
  3
Dot_Center
 72
    65
 73
     4
 40
14.0
 49
12.0
 74
     0
 49
-1.0
 74
     0
 49
0.0
 74
     0
 49
-1.0
 74
     0
  0
LTYPE
  5
2D
330
5
100
AcDbSymbolTableRecord
100
AcDbLinetypeTableRecord
  2
LONG_DASHED
 70
     0
  3
Long_Dashed
 72
    65
 73
     2
 40
15.0
 49
10.0
 74
     0
 49
-5.0
 74
     0
  0
LTYPE
  5
2E
330
5
100
AcDbSymbolTableRecord
100
AcDbLinetypeTableRecord
  2
DASH_CENTER
 70
     0
  3
Dash_Center
 72
    65
 73
     4
 40
14.0
 49
11.0
 74
     0
 49
-1.0
 74
     0
 49
1.0
 74
     0
 49
-1.0
 74
     0
  0
LTYPE
  5
2F
330
5
100
AcDbSymbolTableRecord
100
AcDbLinetypeTableRecord
  2
PHANTOM
 70
     0
  3
Phantom
 72
    65
 73
     6
 40
13.0
 49
10.0
 74
     0
 49
-1.0
 74
     0
 49
0.0
 74
     0
 49
-1.0
 74
     0
 49
0.0
 74
     0
 49
-1.0
 74
     0
  0
LTYPE
  5
30
330
5
100
AcDbSymbolTableRecord
100
AcDbLinetypeTableRecord
  2
CENTER_DASH_DASH
 70
     0
  3
Center_Dash_Dash
 72
    65
 73
     6
 40
14.0
 49
9.0
 74
     0
 49
-1.0
 74
     0
 49
1.0
 74
     0
 49
-1.0
 74
     0
 49
1.0
 74
     0
 49
-1.0
 74
     0
  0
ENDTAB
  0
TABLE
  2
LAYER
  5
2
330
0
100
AcDbSymbolTable
 70
     2
  0
LAYER
  5
10
330
2
100
AcDbSymbolTableRecord
100
AcDbLayerTableRecord
  2
0
 70
     0
 62
     7
  6
Continuous
370
    -3
390
F
  0
LAYER
  5
31
330
2
100
AcDbSymbolTableRecord
100
AcDbLayerTableRecord
  2
1
 70
     0
 62
     7
  6
Continuous
370
    -3
390
F
  0
ENDTAB
  0
TABLE
  2
STYLE
  5
3
330
0
100
AcDbSymbolTable
 70
     2
  0
STYLE
  5
11
330
3
100
AcDbSymbolTableRecord
100
AcDbTextStyleTableRecord
  2
Standard
 70
     0
 40
0.0
 41
1.0
 50
0.0
 71
     0
 42
0.2
  3
txt
  4

  0
STYLE
  5
1B6
330
3
100
AcDbSymbolTableRecord
100
AcDbTextStyleTableRecord
  2
CONVERTER_11
 70
     0
 40
0.0
 41
0.9
 50
0.0
 71
     0
 42
0.2
  3
txt.shx
  4

  0
ENDTAB
  0
TABLE
  2
VIEW
  5
6
330
0
100
AcDbSymbolTable
 70
     0
  0
ENDTAB
  0
TABLE
  2
UCS
  5
7
330
0
100
AcDbSymbolTable
 70
     0
  0
ENDTAB
  0
TABLE
  2
APPID
  5
9
330
0
100
AcDbSymbolTable
 70
     1
  0
APPID
  5
12
330
9
100
AcDbSymbolTableRecord
100
AcDbRegAppTableRecord
  2
ACAD
 70
     0
  0
ENDTAB
  0
TABLE
  2
DIMSTYLE
  5
A
330
0
100
AcDbSymbolTable
 70
    12
100
AcDbDimStyleTable
  0
DIMSTYLE
105
27
330
A
100
AcDbSymbolTableRecord
100
AcDbDimStyleTableRecord
  2
Standard
 70
     0
340
11
  0
DIMSTYLE
105
1BA
102
{ACAD_REACTORS
330
1BB
102
}
330
A
100
AcDbSymbolTableRecord
100
AcDbDimStyleTableRecord
  2
ME10_DIM_10
 70
     0
  3
min.<>
 41
3.5
 42
0.0
 44
2.0
 73
     0
 74
     0
 77
     1
 78
     8
140
3.5
147
2.0
172
     1
173
     1
176
     2
177
     2
178
     2
271
     3
340
1B6
  0
DIMSTYLE
105
1C6
102
{ACAD_REACTORS
330
1C7
102
}
330
A
100
AcDbSymbolTableRecord
100
AcDbDimStyleTableRecord
  2
ME10_DIM_11
 70
     0
 41
3.5
 42
0.0
 44
2.0
 73
     0
 74
     0
 77
     1
 78
     8
140
3.5
147
2.0
172
     1
173
     1
176
     2
177
     2
178
     2
271
     3
340
1B6
  0
DIMSTYLE
105
1D1
102
{ACAD_REACTORS
330
1D2
102
}
330
A
100
AcDbSymbolTableRecord
100
AcDbDimStyleTableRecord
  2
ME10_DIM_12
 70
     0
 41
3.5
 42
0.0
 44
2.0
 73
     0
 74
     0
 77
     1
 78
     8
140
3.5
147
2.0
172
     1
173
     1
176
     2
177
     2
178
     2
271
     3
340
1B6
  0
DIMSTYLE
105
1DC
102
{ACAD_REACTORS
330
1DD
102
}
330
A
100
AcDbSymbolTableRecord
100
AcDbDimStyleTableRecord
  2
ME10_DIM_13
 70
     0
 41
3.5
 42
0.0
 44
2.0
 73
     0
 74
     0
 77
     1
 78
     8
140
3.5
147
2.0
172
     1
173
     1
176
     2
177
     2
178
     2
271
     3
340
1B6
  0
DIMSTYLE
105
1E7
102
{ACAD_REACTORS
330
1E8
102
}
330
A
100
AcDbSymbolTableRecord
100
AcDbDimStyleTableRecord
  2
ME10_DIM_14
 70
     0
 41
3.5
 42
0.0
 44
2.0
 73
     0
 74
     0
 77
     1
 78
     8
140
3.5
147
2.0
172
     1
173
     1
176
     2
177
     2
178
     2
271
     3
340
1B6
  0
DIMSTYLE
105
1F2
102
{ACAD_REACTORS
330
1F3
102
}
330
A
100
AcDbSymbolTableRecord
100
AcDbDimStyleTableRecord
  2
ME10_DIM_15
 70
     0
 41
3.5
 42
0.0
 44
2.0
 73
     0
 74
     0
 77
     1
 78
     8
140
3.5
147
2.0
172
     1
173
     1
176
     2
177
     2
178
     2
271
     3
340
1B6
  0
DIMSTYLE
105
1FD
102
{ACAD_REACTORS
330
1FE
102
}
330
A
100
AcDbSymbolTableRecord
100
AcDbDimStyleTableRecord
  2
ME10_DIM_16
 70
     0
 41
3.5
 42
0.0
 44
2.0
 73
     0
 74
     0
 77
     1
 78
     8
140
3.5
147
2.0
172
     1
173
     1
176
     2
177
     2
178
     2
271
     3
340
1B6
  0
DIMSTYLE
105
20A
102
{ACAD_REACTORS
330
20B
102
}
330
A
100
AcDbSymbolTableRecord
100
AcDbDimStyleTableRecord
  2
ME10_DIM_17
 70
     0
 41
3.5
 42
0.0
 44
2.0
 73
     0
 74
     0
 77
     1
 78
     8
140
3.5
147
2.0
172
     1
173
     1
176
     2
177
     2
178
     2
271
     3
340
1B6
  0
DIMSTYLE
105
215
102
{ACAD_REACTORS
330
216
102
}
330
A
100
AcDbSymbolTableRecord
100
AcDbDimStyleTableRecord
  2
ME10_DIM_18
 70
     0
 41
3.5
 42
0.0
 44
2.0
 73
     0
 74
     0
 77
     1
 78
     8
140
3.5
147
2.0
172
     1
173
     1
176
     2
177
     2
178
     2
271
     3
340
1B6
  0
DIMSTYLE
105
222
102
{ACAD_REACTORS
330
223
102
}
330
A
100
AcDbSymbolTableRecord
100
AcDbDimStyleTableRecord
  2
ME10_DIM_19
 70
     0
 41
3.5
 42
0.0
 44
2.0
 73
     0
 74
     0
 77
     1
 78
     8
140
3.5
147
2.0
172
     1
173
     1
176
     2
177
     2
178
     2
271
     3
340
1B6
  0
DIMSTYLE
105
22F
102
{ACAD_REACTORS
330
230
102
}
330
A
100
AcDbSymbolTableRecord
100
AcDbDimStyleTableRecord
  2
ME10_DIM_20
 70
     0
 41
3.5
 42
0.0
 44
2.0
 73
     0
 74
     0
 77
     1
 78
     8
140
3.5
147
2.0
172
     1
173
     1
176
     2
177
     2
178
     2
271
     3
340
1B6
  0
ENDTAB
  0
TABLE
  2
BLOCK_RECORD
  5
1
330
0
100
AcDbSymbolTable
 70
    12
  0
BLOCK_RECORD
  5
1F
330
1
100
AcDbSymbolTableRecord
100
AcDbBlockTableRecord
  2
*Model_Space
340
22
  0
BLOCK_RECORD
  5
1B
330
1
100
AcDbSymbolTableRecord
100
AcDbBlockTableRecord
  2
*Paper_Space
340
1E
  0
BLOCK_RECORD
  5
23
330
1
100
AcDbSymbolTableRecord
100
AcDbBlockTableRecord
  2
*Paper_Space0
340
26
  0
BLOCK_RECORD
  5
1AF
330
1
100
AcDbSymbolTableRecord
100
AcDbBlockTableRecord
  2
*D1
340
0
  0
BLOCK_RECORD
  5
1BC
330
1
100
AcDbSymbolTableRecord
100
AcDbBlockTableRecord
  2
*D2
340
0
  0
BLOCK_RECORD
  5
1C8
330
1
100
AcDbSymbolTableRecord
100
AcDbBlockTableRecord
  2
*D3
340
0
  0
BLOCK_RECORD
  5
1D3
330
1
100
AcDbSymbolTableRecord
100
AcDbBlockTableRecord
  2
*D4
340
0
  0
BLOCK_RECORD
  5
1DE
330
1
100
AcDbSymbolTableRecord
100
AcDbBlockTableRecord
  2
*D5
340
0
  0
BLOCK_RECORD
  5
1E9
330
1
100
AcDbSymbolTableRecord
100
AcDbBlockTableRecord
  2
*D6
340
0
  0
BLOCK_RECORD
  5
1F4
330
1
100
AcDbSymbolTableRecord
100
AcDbBlockTableRecord
  2
*D7
340
0
  0
BLOCK_RECORD
  5
1FF
330
1
100
AcDbSymbolTableRecord
100
AcDbBlockTableRecord
  2
*D8
340
0
  0
BLOCK_RECORD
  5
20C
330
1
100
AcDbSymbolTableRecord
100
AcDbBlockTableRecord
  2
*D9
340
0
  0
BLOCK_RECORD
  5
217
330
1
100
AcDbSymbolTableRecord
100
AcDbBlockTableRecord
  2
*D10
340
0
  0
BLOCK_RECORD
  5
224
330
1
100
AcDbSymbolTableRecord
100
AcDbBlockTableRecord
  2
*D11
340
0
  0
ENDTAB
  0
ENDSEC
  0
SECTION
  2
BLOCKS
  0
BLOCK
  5
20
330
1F
100
AcDbEntity
  8
0
100
AcDbBlockBegin
  2
*Model_Space
 70
     0
 71
     0
 10
0.0
 20
0.0
 30
0.0
  3
*Model_Space
  1

  0
ENDBLK
  5
21
330
1F
100
AcDbEntity
  8
0
100
AcDbBlockEnd
  0
BLOCK
  5
1C
330
1B
100
AcDbEntity
 67
     1
  8
0
100
AcDbBlockBegin
  2
*Paper_Space
 70
     0
 71
     0
 10
0.0
 20
0.0
 30
0.0
  3
*Paper_Space
  1

  0
ENDBLK
  5
1D
330
1B
100
AcDbEntity
 67
     1
  8
0
100
AcDbBlockEnd
  0
BLOCK
  5
24
330
23
100
AcDbEntity
  8
0
100
AcDbBlockBegin
  2
*Paper_Space0
 70
     0
 71
     0
 10
0.0
 20
0.0
 30
0.0
  3
*Paper_Space0
  1

  0
ENDBLK
  5
25
330
23
100
AcDbEntity
  8
0
100
AcDbBlockEnd
  0
BLOCK
  5
1B8
330
1AF
100
AcDbEntity
  8
0
100
AcDbBlockBegin
  2
*D1
 70
     1
 71
     0
 10
0.0
 20
0.0
 30
0.0
  3
*D1
  1

  0
LINE
  5
1B0
330
1AF
100
AcDbEntity
  8
1
  6
Continuous
 62
     2
100
AcDbLine
 10
598.6606808592596
 20
160.926499169594
 30
0.0
 11
646.6606808592601
 21
160.926499169594
 31
0.0
  0
LINE
  5
1B1
330
1AF
100
AcDbEntity
  8
1
  6
Continuous
 62
     2
100
AcDbLine
 10
598.6606808592596
 20
203.2485701722067
 30
0.0
 11
598.6606808592596
 21
158.926499169594
 31
0.0
  0
LINE
  5
1B2
330
1AF
100
AcDbEntity
  8
1
  6
Continuous
 62
     2
100
AcDbLine
 10
646.6606808592601
 20
193.2485701722066
 30
0.0
 11
646.6606808592601
 21
173.316770630375
 31
0.0
  0
LINE
  5
1B3
330
1AF
100
AcDbEntity
  8
1
  6
Continuous
 62
     2
100
AcDbLine
 10
646.6606808592601
 20
166.421081212156
 30
0.0
 11
646.6606808592601
 21
158.926499169594
 31
0.0
  0
SOLID
  5
1B4
330
1AF
100
AcDbEntity
  8
1
 62
     2
100
AcDbTrace
 10
602.1606808592596
 20
161.3872829111499
 30
0.0
 11
602.1606808592596
 21
160.4657154280381
 31
0.0
 12
598.6606808592596
 22
160.926499169594
 32
0.0
 13
598.6606808592596
 23
160.926499169594
 33
0.0
  0
SOLID
  5
1B5
330
1AF
100
AcDbEntity
  8
1
 62
     2
100
AcDbTrace
 10
643.1606808592601
 20
160.4657154280381
 30
0.0
 11
643.1606808592601
 21
161.3872829111499
 31
0.0
 12
646.6606808592601
 22
160.926499169594
 32
0.0
 13
646.6606808592601
 23
160.926499169594
 33
0.0
  0
MTEXT
  5
1B7
330
1AF
100
AcDbEntity
  8
1
 62
     2
100
AcDbMText
 10
613.3993116784067
 20
162.9264713412887
 30
0.0
 40
3.5
 41
0.0
 71
     7
 72
     1
  1
\C2;min.\C2;48
  7
CONVERTER_11
 11
0.9999999999970621
 21
2.424068405545307E-6
 31
0.0
 73
     1
 44
0.60024009603842
  0
ENDBLK
  5
1B9
330
1AF
100
AcDbEntity
  8
0
100
AcDbBlockEnd
  0
BLOCK
  5
1C4
330
1BC
100
AcDbEntity
  8
0
100
AcDbBlockBegin
  2
*D2
 70
     1
 71
     0
 10
0.0
 20
0.0
 30
0.0
  3
*D2
  1

  0
LINE
  5
1BD
330
1BC
100
AcDbEntity
  8
1
  6
Continuous
 62
     2
100
AcDbLine
 10
650.1606808592601
 20
160.926499169594
 30
0.0
 11
693.6606808592602
 21
160.926499169594
 31
0.0
  0
LINE
  5
1BE
330
1BC
100
AcDbEntity
  8
1
  6
Continuous
 62
     2
100
AcDbLine
 10
650.1606808592601
 20
193.2485701722067
 30
0.0
 11
650.1606808592601
 21
173.247724646635
 31
0.0
  0
LINE
  5
1BF
330
1BC
100
AcDbEntity
  8
1
  6
Continuous
 62
     2
100
AcDbLine
 10
650.1606808592601
 20
166.762790120985
 30
0.0
 11
650.1606808592601
 21
158.926499169594
 31
0.0
  0
LINE
  5
1C0
330
1BC
100
AcDbEntity
  8
1
  6
Continuous
 62
     2
100
AcDbLine
 10
693.6606808592602
 20
198.2485701722183
 30
0.0
 11
693.6606808592602
 21
158.926499169594
 31
0.0
  0
SOLID
  5
1C1
330
1BC
100
AcDbEntity
  8
1
 62
     2
100
AcDbTrace
 10
653.6606808592601
 20
161.3872829111499
 30
0.0
 11
653.6606808592601
 21
160.4657154280381
 31
0.0
 12
650.1606808592601
 22
160.926499169594
 32
0.0
 13
650.1606808592601
 23
160.926499169594
 33
0.0
  0
SOLID
  5
1C2
330
1BC
100
AcDbEntity
  8
1
 62
     2
100
AcDbTrace
 10
690.1606808592602
 20
160.4657154280381
 30
0.0
 11
690.1606808592602
 21
161.3872829111499
 31
0.0
 12
693.6606808592602
 22
160.926499169594
 32
0.0
 13
693.6606808592602
 23
160.926499169594
 33
0.0
  0
MTEXT
  5
1C3
330
1BC
100
AcDbEntity
  8
1
 62
     2
100
AcDbMText
 10
665.5317680904931
 20
162.926499169594
 30
0.0
 40
3.5
 41
0.0
 71
     7
 72
     1
  1
43.5
  7
CONVERTER_11
 11
0.9999999999970621
 21
2.424068405545307E-6
 31
0.0
 73
     1
 44
0.60024009603842
  0
ENDBLK
  5
1C5
330
1BC
100
AcDbEntity
  8
0
100
AcDbBlockEnd
  0
BLOCK
  5
1CF
330
1C8
100
AcDbEntity
  8
0
100
AcDbBlockBegin
  2
*D3
 70
     1
 71
     0
 10
0.0
 20
0.0
 30
0.0
  3
*D3
  1

  0
LINE
  5
1C9
330
1C8
100
AcDbEntity
  8
1
  6
Continuous
 62
     2
100
AcDbLine
 10
715.624538565575
 20
230.2485701722067
 30
0.0
 11
715.624538565575
 21
198.2485701722183
 31
0.0
  0
LINE
  5
1CA
330
1C8
100
AcDbEntity
  8
1
  6
Continuous
 62
     2
100
AcDbLine
 10
693.6606808592602
 20
230.2485701722067
 30
0.0
 11
717.624538565575
 21
230.2485701722067
 31
0.0
  0
LINE
  5
1CB
330
1C8
100
AcDbEntity
  8
1
  6
Continuous
 62
     2
100
AcDbLine
 10
693.6606808592602
 20
198.2485701722183
 30
0.0
 11
717.624538565575
 21
198.2485701722183
 31
0.0
  0
SOLID
  5
1CC
330
1C8
100
AcDbEntity
  8
1
 62
     2
100
AcDbTrace
 10
716.0853223071309
 20
226.7485701722067
 30
0.0
 11
715.1637548240191
 21
226.7485701722067
 31
0.0
 12
715.624538565575
 22
230.2485701722067
 32
0.0
 13
715.624538565575
 23
230.2485701722067
 33
0.0
  0
SOLID
  5
1CD
330
1C8
100
AcDbEntity
  8
1
 62
     2
100
AcDbTrace
 10
715.1637548240191
 20
201.7485701722183
 30
0.0
 11
716.0853223071309
 21
201.7485701722183
 31
0.0
 12
715.624538565575
 22
198.2485701722183
 32
0.0
 13
715.624538565575
 23
198.2485701722183
 33
0.0
  0
MTEXT
  5
1CE
330
1C8
100
AcDbEntity
  8
1
 62
     2
100
AcDbMText
 10
713.624538565575
 20
212.306320047857
 30
0.0
 40
3.5
 41
0.0
 71
     7
 72
     1
  1
32
  7
CONVERTER_11
 11
0.0
 21
1.0
 31
0.0
 73
     1
 44
0.60024009603842
  0
ENDBLK
  5
1D0
330
1C8
100
AcDbEntity
  8
0
100
AcDbBlockEnd
  0
BLOCK
  5
1DA
330
1D3
100
AcDbEntity
  8
0
100
AcDbBlockBegin
  2
*D4
 70
     1
 71
     0
 10
0.0
 20
0.0
 30
0.0
  3
*D4
  1

  0
LINE
  5
1D4
330
1D3
100
AcDbEntity
  8
1
  6
Continuous
 62
     2
100
AcDbLine
 10
650.1606808592601
 20
174.550866435993
 30
0.0
 11
691.1606808592601
 21
174.550866435993
 31
0.0
  0
LINE
  5
1D5
330
1D3
100
AcDbEntity
  8
1
  6
Continuous
 62
     2
100
AcDbLine
 10
650.1606808592601
 20
185.2485701722064
 30
0.0
 11
650.1606808592601
 21
172.550866435993
 31
0.0
  0
LINE
  5
1D6
330
1D3
100
AcDbEntity
  8
1
  6
Continuous
 62
     2
100
AcDbLine
 10
691.1606808592601
 20
201.6606127994785
 30
0.0
 11
691.1606808592601
 21
172.550866435993
 31
0.0
  0
SOLID
  5
1D7
330
1D3
100
AcDbEntity
  8
1
 62
     2
100
AcDbTrace
 10
653.6606808592601
 20
175.0116501775489
 30
0.0
 11
653.6606808592601
 21
174.0900826944371
 31
0.0
 12
650.1606808592601
 22
174.550866435993
 32
0.0
 13
650.1606808592601
 23
174.550866435993
 33
0.0
  0
SOLID
  5
1D8
330
1D3
100
AcDbEntity
  8
1
 62
     2
100
AcDbTrace
 10
687.6606808592601
 20
174.0900826944371
 30
0.0
 11
687.6606808592601
 21
175.0116501775489
 31
0.0
 12
691.1606808592601
 22
174.550866435993
 32
0.0
 13
691.1606808592601
 23
174.550866435993
 33
0.0
  0
MTEXT
  5
1D9
330
1D3
100
AcDbEntity
  8
1
 62
     2
100
AcDbMText
 10
668.8549034532728
 20
176.550866435993
 30
0.0
 40
3.5
 41
0.0
 71
     7
 72
     1
  1
41
  7
CONVERTER_11
 11
0.9999999999970621
 21
2.424068405545307E-6
 31
0.0
 73
     1
 44
0.60024009603842
  0
ENDBLK
  5
1DB
330
1D3
100
AcDbEntity
  8
0
100
AcDbBlockEnd
  0
BLOCK
  5
1E5
330
1DE
100
AcDbEntity
  8
0
100
AcDbBlockBegin
  2
*D5
 70
     1
 71
     0
 10
0.0
 20
0.0
 30
0.0
  3
*D5
  1

  0
LINE
  5
1DF
330
1DE
100
AcDbEntity
  8
1
  6
Continuous
 62
     2
100
AcDbLine
 10
585.138730769708
 20
198.2485701722066
 30
0.0
 11
585.138730769708
 21
230.2485701722066
 31
0.0
  0
LINE
  5
1E0
330
1DE
100
AcDbEntity
  8
1
  6
Continuous
 62
     2
100
AcDbLine
 10
620.6606808592601
 20
198.2485701722066
 30
0.0
 11
583.138730769708
 21
198.2485701722066
 31
0.0
  0
LINE
  5
1E1
330
1DE
100
AcDbEntity
  8
1
  6
Continuous
 62
     2
100
AcDbLine
 10
620.6606808592618
 20
230.2485701722066
 30
0.0
 11
583.138730769708
 21
230.2485701722066
 31
0.0
  0
SOLID
  5
1E2
330
1DE
100
AcDbEntity
  8
1
 62
     2
100
AcDbTrace
 10
584.6779470281521
 20
201.7485701722066
 30
0.0
 11
585.5995145112639
 21
201.7485701722066
 31
0.0
 12
585.138730769708
 22
198.2485701722066
 32
0.0
 13
585.138730769708
 23
198.2485701722066
 33
0.0
  0
SOLID
  5
1E3
330
1DE
100
AcDbEntity
  8
1
 62
     2
100
AcDbTrace
 10
585.5995145112639
 20
226.7485701722066
 30
0.0
 11
584.6779470281521
 21
226.7485701722066
 31
0.0
 12
585.138730769708
 22
230.2485701722066
 32
0.0
 13
585.138730769708
 23
230.2485701722066
 33
0.0
  0
MTEXT
  5
1E4
330
1DE
100
AcDbEntity
  8
1
 62
     2
100
AcDbMText
 10
583.138730769708
 20
212.306320047857
 30
0.0
 40
3.5
 41
0.0
 71
     7
 72
     1
  1
32
  7
CONVERTER_11
 11
0.0
 21
1.0
 31
0.0
 73
     1
 44
0.60024009603842
  0
ENDBLK
  5
1E6
330
1DE
100
AcDbEntity
  8
0
100
AcDbBlockEnd
  0
BLOCK
  5
1F0
330
1E9
100
AcDbEntity
  8
0
100
AcDbBlockBegin
  2
*D6
 70
     1
 71
     0
 10
0.0
 20
0.0
 30
0.0
  3
*D6
  1

  0
LINE
  5
1EA
330
1E9
100
AcDbEntity
  8
1
  6
Continuous
 62
     2
100
AcDbLine
 10
646.6606808592601
 20
174.550866435993
 30
0.0
 11
605.6606808592601
 21
174.550866435993
 31
0.0
  0
LINE
  5
1EB
330
1E9
100
AcDbEntity
  8
1
  6
Continuous
 62
     2
100
AcDbLine
 10
605.6606808592601
 20
201.6606127994669
 30
0.0
 11
605.6606808592601
 21
172.550866435993
 31
0.0
  0
LINE
  5
1EC
330
1E9
100
AcDbEntity
  8
1
  6
Continuous
 62
     2
100
AcDbLine
 10
646.6606808592601
 20
193.2485701722066
 30
0.0
 11
646.6606808592601
 21
172.550866435993
 31
0.0
  0
SOLID
  5
1ED
330
1E9
100
AcDbEntity
  8
1
 62
     2
100
AcDbTrace
 10
643.1606808592601
 20
174.0900826944371
 30
0.0
 11
643.1606808592601
 21
175.0116501775489
 31
0.0
 12
646.6606808592601
 22
174.550866435993
 32
0.0
 13
646.6606808592601
 23
174.550866435993
 33
0.0
  0
SOLID
  5
1EE
330
1E9
100
AcDbEntity
  8
1
 62
     2
100
AcDbTrace
 10
609.1606808592601
 20
175.0116501775489
 30
0.0
 11
609.1606808592601
 21
174.0900826944371
 31
0.0
 12
605.6606808592601
 22
174.550866435993
 32
0.0
 13
605.6606808592601
 23
174.550866435993
 33
0.0
  0
MTEXT
  5
1EF
330
1E9
100
AcDbEntity
  8
1
 62
     2
100
AcDbMText
 10
622.7032500992179
 20
176.550866435993
 30
0.0
 40
3.5
 41
0.0
 71
     7
 72
     1
  1
41
  7
CONVERTER_11
 11
0.9999999999970621
 21
2.424068405545307E-6
 31
0.0
 73
     1
 44
0.60024009603842
  0
ENDBLK
  5
1F1
330
1E9
100
AcDbEntity
  8
0
100
AcDbBlockEnd
  0
BLOCK
  5
1FB
330
1F4
100
AcDbEntity
  8
0
100
AcDbBlockBegin
  2
*D7
 70
     1
 71
     0
 10
0.0
 20
0.0
 30
0.0
  3
*D7
  1

  0
LINE
  5
1F5
330
1F4
100
AcDbEntity
  8
1
  6
Continuous
 62
     2
100
AcDbLine
 10
725.315366366601
 20
230.2485701722067
 30
0.0
 11
725.315366366601
 21
193.2485701722066
 31
0.0
  0
LINE
  5
1F6
330
1F4
100
AcDbEntity
  8
1
  6
Continuous
 62
     2
100
AcDbLine
 10
693.6606808592602
 20
230.2485701722067
 30
0.0
 11
727.315366366601
 21
230.2485701722067
 31
0.0
  0
LINE
  5
1F7
330
1F4
100
AcDbEntity
  8
1
  6
Continuous
 62
     2
100
AcDbLine
 10
705.1606808592601
 20
193.2485701722066
 30
0.0
 11
727.315366366601
 21
193.2485701722066
 31
0.0
  0
SOLID
  5
1F8
330
1F4
100
AcDbEntity
  8
1
 62
     2
100
AcDbTrace
 10
725.7761501081569
 20
226.7485701722067
 30
0.0
 11
724.854582625045
 21
226.7485701722067
 31
0.0
 12
725.315366366601
 22
230.2485701722067
 32
0.0
 13
725.315366366601
 23
230.2485701722067
 33
0.0
  0
SOLID
  5
1F9
330
1F4
100
AcDbEntity
  8
1
 62
     2
100
AcDbTrace
 10
724.854582625045
 20
196.7485701722066
 30
0.0
 11
725.7761501081569
 21
196.7485701722066
 31
0.0
 12
725.315366366601
 22
193.2485701722066
 32
0.0
 13
725.315366366601
 23
193.2485701722066
 33
0.0
  0
MTEXT
  5
1FA
330
1F4
100
AcDbEntity
  8
1
 62
     2
100
AcDbMText
 10
723.315366366601
 20
208.58845676882
 30
0.0
 40
3.5
 41
0.0
 71
     7
 72
     1
  1
37
  7
CONVERTER_11
 11
0.0
 21
1.0
 31
0.0
 73
     1
 44
0.60024009603842
  0
ENDBLK
  5
1FC
330
1F4
100
AcDbEntity
  8
0
100
AcDbBlockEnd
  0
BLOCK
  5
208
330
1FF
100
AcDbEntity
  8
0
100
AcDbBlockBegin
  2
*D8
 70
     1
 71
     0
 10
0.0
 20
0.0
 30
0.0
  3
*D8
  1

  0
LINE
  5
200
330
1FF
100
AcDbEntity
  8
1
  6
Continuous
 62
     2
100
AcDbLine
 10
725.315366366601
 20
185.2485701722064
 30
0.0
 11
725.315366366601
 21
178.2485701722064
 31
0.0
  0
LINE
  5
201
330
1FF
100
AcDbEntity
  8
1
  6
Continuous
 62
     2
100
AcDbLine
 10
725.315366366601
 20
193.2485701722066
 30
0.0
 11
725.315366366601
 21
185.2485701722064
 31
0.0
  0
LINE
  5
202
330
1FF
100
AcDbEntity
  8
1
  6
Continuous
 62
     2
100
AcDbLine
 10
725.315366366601
 20
200.2485701722066
 30
0.0
 11
725.315366366601
 21
193.2485701722066
 31
0.0
  0
LINE
  5
203
330
1FF
100
AcDbEntity
  8
1
  6
Continuous
 62
     2
100
AcDbLine
 10
705.1606808592601
 20
193.2485701722066
 30
0.0
 11
727.315366366601
 21
193.2485701722066
 31
0.0
  0
LINE
  5
204
330
1FF
100
AcDbEntity
  8
1
  6
Continuous
 62
     2
100
AcDbLine
 10
705.1606808592601
 20
185.2485701722064
 30
0.0
 11
727.315366366601
 21
185.2485701722064
 31
0.0
  0
SOLID
  5
205
330
1FF
100
AcDbEntity
  8
1
 62
     2
100
AcDbTrace
 10
724.854582625045
 20
196.7485701722066
 30
0.0
 11
725.7761501081569
 21
196.7485701722066
 31
0.0
 12
725.315366366601
 22
193.2485701722066
 32
0.0
 13
725.315366366601
 23
193.2485701722066
 33
0.0
  0
SOLID
  5
206
330
1FF
100
AcDbEntity
  8
1
 62
     2
100
AcDbTrace
 10
725.7761501081569
 20
181.7485701722064
 30
0.0
 11
724.854582625045
 21
181.7485701722064
 31
0.0
 12
725.315366366601
 22
185.2485701722064
 32
0.0
 13
725.315366366601
 23
185.2485701722064
 33
0.0
  0
MTEXT
  5
207
330
1FF
100
AcDbEntity
  8
1
 62
     2
100
AcDbMText
 10
723.315366366601
 20
188.098538986395
 30
0.0
 40
3.5
 41
0.0
 71
     7
 72
     1
  1
8
  7
CONVERTER_11
 11
0.0
 21
1.0
 31
0.0
 73
     1
 44
0.60024009603842
  0
ENDBLK
  5
209
330
1FF
100
AcDbEntity
  8
0
100
AcDbBlockEnd
  0
BLOCK
  5
213
330
20C
100
AcDbEntity
  8
0
100
AcDbBlockBegin
  2
*D9
 70
     1
 71
     0
 10
0.0
 20
0.0
 30
0.0
  3
*D9
  1

  0
LINE
  5
20D
330
20C
100
AcDbEntity
  8
1
  6
Continuous
 62
     2
100
AcDbLine
 10
574.579713236376
 20
230.2485701722066
 30
0.0
 11
574.579713236376
 21
193.2485701722066
 31
0.0
  0
LINE
  5
20E
330
20C
100
AcDbEntity
  8
1
  6
Continuous
 62
     2
100
AcDbLine
 10
620.6606808592618
 20
230.2485701722066
 30
0.0
 11
572.579713236376
 21
230.2485701722066
 31
0.0
  0
LINE
  5
20F
330
20C
100
AcDbEntity
  8
1
  6
Continuous
 62
     2
100
AcDbLine
 10
594.838407179133
 20
193.2485701722066
 30
0.0
 11
572.579713236376
 21
193.2485701722066
 31
0.0
  0
SOLID
  5
210
330
20C
100
AcDbEntity
  8
1
 62
     2
100
AcDbTrace
 10
575.040496977932
 20
226.7485701722066
 30
0.0
 11
574.1189294948201
 21
226.7485701722066
 31
0.0
 12
574.579713236376
 22
230.2485701722066
 32
0.0
 13
574.579713236376
 23
230.2485701722066
 33
0.0
  0
SOLID
  5
211
330
20C
100
AcDbEntity
  8
1
 62
     2
100
AcDbTrace
 10
574.1189294948201
 20
196.7485701722066
 30
0.0
 11
575.040496977932
 21
196.7485701722066
 31
0.0
 12
574.579713236376
 22
193.2485701722066
 32
0.0
 13
574.579713236376
 23
193.2485701722066
 33
0.0
  0
MTEXT
  5
212
330
20C
100
AcDbEntity
  8
1
 62
     2
100
AcDbMText
 10
572.579713236376
 20
208.58845676882
 30
0.0
 40
3.5
 41
0.0
 71
     7
 72
     1
  1
37
  7
CONVERTER_11
 11
0.0
 21
1.0
 31
0.0
 73
     1
 44
0.60024009603842
  0
ENDBLK
  5
214
330
20C
100
AcDbEntity
  8
0
100
AcDbBlockEnd
  0
BLOCK
  5
220
330
217
100
AcDbEntity
  8
0
100
AcDbBlockBegin
  2
*D10
 70
     1
 71
     0
 10
0.0
 20
0.0
 30
0.0
  3
*D10
  1

  0
LINE
  5
218
330
217
100
AcDbEntity
  8
1
  6
Continuous
 62
     2
100
AcDbLine
 10
574.579713236376
 20
185.2485701722064
 30
0.0
 11
574.579713236376
 21
178.2485701722064
 31
0.0
  0
LINE
  5
219
330
217
100
AcDbEntity
  8
1
  6
Continuous
 62
     2
100
AcDbLine
 10
574.579713236376
 20
193.2485701722066
 30
0.0
 11
574.579713236376
 21
185.2485701722064
 31
0.0
  0
LINE
  5
21A
330
217
100
AcDbEntity
  8
1
  6
Continuous
 62
     2
100
AcDbLine
 10
574.579713236376
 20
200.2485701722066
 30
0.0
 11
574.579713236376
 21
193.2485701722066
 31
0.0
  0
LINE
  5
21B
330
217
100
AcDbEntity
  8
1
  6
Continuous
 62
     2
100
AcDbLine
 10
594.838407179133
 20
193.2485701722066
 30
0.0
 11
572.579713236376
 21
193.2485701722066
 31
0.0
  0
LINE
  5
21C
330
217
100
AcDbEntity
  8
1
  6
Continuous
 62
     2
100
AcDbLine
 10
594.838407179133
 20
185.2485701722064
 30
0.0
 11
572.579713236376
 21
185.2485701722064
 31
0.0
  0
SOLID
  5
21D
330
217
100
AcDbEntity
  8
1
 62
     2
100
AcDbTrace
 10
574.1189294948201
 20
196.7485701722066
 30
0.0
 11
575.040496977932
 21
196.7485701722066
 31
0.0
 12
574.579713236376
 22
193.2485701722066
 32
0.0
 13
574.579713236376
 23
193.2485701722066
 33
0.0
  0
SOLID
  5
21E
330
217
100
AcDbEntity
  8
1
 62
     2
100
AcDbTrace
 10
575.040496977932
 20
181.7485701722064
 30
0.0
 11
574.1189294948201
 21
181.7485701722064
 31
0.0
 12
574.579713236376
 22
185.2485701722064
 32
0.0
 13
574.579713236376
 23
185.2485701722064
 33
0.0
  0
MTEXT
  5
21F
330
217
100
AcDbEntity
  8
1
 62
     2
100
AcDbMText
 10
572.579713236376
 20
188.567437895479
 30
0.0
 40
3.5
 41
0.0
 71
     7
 72
     1
  1
8
  7
CONVERTER_11
 11
0.0
 21
1.0
 31
0.0
 73
     1
 44
0.60024009603842
  0
ENDBLK
  5
221
330
217
100
AcDbEntity
  8
0
100
AcDbBlockEnd
  0
BLOCK
  5
22D
330
224
100
AcDbEntity
  8
0
100
AcDbBlockBegin
  2
*D11
 70
     1
 71
     0
 10
0.0
 20
0.0
 30
0.0
  3
*D11
  1

  0
LINE
  5
225
330
224
100
AcDbEntity
  8
1
  6
Continuous
 62
     2
100
AcDbLine
 10
650.1606808592601
 20
174.550866435993
 30
0.0
 11
657.1606808592601
 21
174.550866435993
 31
0.0
  0
LINE
  5
226
330
224
100
AcDbEntity
  8
1
  6
Continuous
 62
     2
100
AcDbLine
 10
646.6606808592601
 20
174.550866435993
 30
0.0
 11
650.1606808592601
 21
174.550866435993
 31
0.0
  0
LINE
  5
227
330
224
100
AcDbEntity
  8
1
  6
Continuous
 62
     2
100
AcDbLine
 10
639.6606808592601
 20
174.550866435993
 30
0.0
 11
646.6606808592601
 21
174.550866435993
 31
0.0
  0
LINE
  5
228
330
224
100
AcDbEntity
  8
1
  6
Continuous
 62
     2
100
AcDbLine
 10
646.6606808592601
 20
187.2485701722066
 30
0.0
 11
646.6606808592601
 21
172.550866435993
 31
0.0
  0
LINE
  5
229
330
224
100
AcDbEntity
  8
1
  6
Continuous
 62
     2
100
AcDbLine
 10
650.1606808592601
 20
185.2485701722064
 30
0.0
 11
650.1606808592601
 21
172.550866435993
 31
0.0
  0
SOLID
  5
22A
330
224
100
AcDbEntity
  8
1
 62
     2
100
AcDbTrace
 10
643.1606808592601
 20
174.0900826944371
 30
0.0
 11
643.1606808592601
 21
175.0116501775489
 31
0.0
 12
646.6606808592601
 22
174.550866435993
 32
0.0
 13
646.6606808592601
 23
174.550866435993
 33
0.0
  0
SOLID
  5
22B
330
224
100
AcDbEntity
  8
1
 62
     2
100
AcDbTrace
 10
653.6606808592601
 20
175.0116501775489
 30
0.0
 11
653.6606808592601
 21
174.0900826944371
 31
0.0
 12
650.1606808592601
 22
174.550866435993
 32
0.0
 13
650.1606808592601
 23
174.550866435993
 33
0.0
  0
MTEXT
  5
22C
330
224
100
AcDbEntity
  8
1
 62
     2
100
AcDbMText
 10
644.976466205349
 20
168.621188251483
 30
0.0
 40
3.5
 41
0.0
 71
     7
 72
     1
  1
3.5
  7
CONVERTER_11
 11
0.9999999999970621
 21
2.424068405545307E-6
 31
0.0
 73
     1
 44
0.60024009603842
  0
ENDBLK
  5
22E
330
224
100
AcDbEntity
  8
0
100
AcDbBlockEnd
  0
ENDSEC
  0
SECTION
  2
ENTITIES
  0
POINT
  5
32
330
1F
100
AcDbEntity
  8
1
 62
     3
 60
     1
100
AcDbPoint
 10
594.838407179133
 20
185.2485701722064
 30
0.0
  0
POINT
  5
33
330
1F
100
AcDbEntity
  8
1
 62
     3
 60
     1
100
AcDbPoint
 10
594.838407179133
 20
193.2485701722066
 30
0.0
  0
POINT
  5
34
330
1F
100
AcDbEntity
  8
1
 62
     3
 60
     1
100
AcDbPoint
 10
594.838407179133
 20
196.2485701722066
 30
0.0
  0
POINT
  5
35
330
1F
100
AcDbEntity
  8
1
 62
     3
 60
     1
100
AcDbPoint
 10
594.838407179133
 20
181.2485701722064
 30
0.0
  0
POINT
  5
36
330
1F
100
AcDbEntity
  8
1
 62
     3
 60
     1
100
AcDbPoint
 10
645.1606808592601
 20
230.2485701722067
 30
0.0
  0
POINT
  5
37
330
1F
100
AcDbEntity
  8
1
 62
     3
 60
     1
100
AcDbPoint
 10
633.66068085926
 20
202.4985701722066
 30
0.0
  0
LINE
  5
38
330
1F
100
AcDbEntity
  8
1
  6
Continuous
 62
     7
100
AcDbLine
 10
627.8384071791331
 20
193.2485701722064
 30
0.0
 11
626.8384071791331
 21
193.2485701722064
 31
0.0
  0
LINE
  5
39
330
1F
100
AcDbEntity
  8
1
  6
Continuous
 62
     7
100
AcDbLine
 10
627.8384071791331
 20
193.2485701722064
 30
0.0
 11
640.8384071791331
 21
193.2485701722064
 31
0.0
  0
LINE
  5
3A
330
1F
100
AcDbEntity
  8
1
  6
DOT_CENTER
 62
     2
100
AcDbLine
 10
640.6606808592602
 20
207.0235701722065
 30
0.0
 11
640.6606808592602
 21
192.4735701722064
 31
0.0
  0
LINE
  5
3B
330
1F
100
AcDbEntity
  8
1
  6
DOT_CENTER
 62
     2
100
AcDbLine
 10
647.9356808592601
 20
199.7485701722067
 30
0.0
 11
633.3856808592601
 21
199.7485701722065
 31
0.0
  0
LINE
  5
3C
330
1F
100
AcDbEntity
  8
1
  6
DOT_CENTER
 62
     2
100
AcDbLine
 10
649.1606808592599
 20
230.2485701722065
 30
0.0
 11
649.1606808592603
 21
216.2485701722065
 31
0.0
  0
LINE
  5
3D
330
1F
100
AcDbEntity
  8
1
  6
DOT_CENTER
 62
     2
100
AcDbLine
 10
656.1606808592603
 20
223.2485701722067
 30
0.0
 11
642.1606808592599
 21
223.2485701722067
 31
0.0
  0
LINE
  5
3E
330
1F
100
AcDbEntity
  8
1
  6
DOT_CENTER
 62
     2
100
AcDbLine
 10
685.1606808592601
 20
221.6485701722068
 30
0.0
 11
685.1606808592602
 21
209.8485701722069
 31
0.0
  0
LINE
  5
3F
330
1F
100
AcDbEntity
  8
1
  6
DOT_CENTER
 62
     2
100
AcDbLine
 10
691.0606808592602
 20
215.7485701722066
 30
0.0
 11
679.2606808592602
 21
215.7485701722067
 31
0.0
  0
LINE
  5
40
330
1F
100
AcDbEntity
  8
1
  6
Continuous
 62
     7
100
AcDbLine
 10
661.1225074315774
 20
222.3500527311898
 30
0.0
 11
645.1259320216432
 21
216.2095427475842
 31
0.0
  0
LINE
  5
41
330
1F
100
AcDbEntity
  8
1
  6
Continuous
 62
     7
100
AcDbLine
 10
642.153588489497
 20
208.6638090945098
 30
0.0
 11
645.3793496023308
 21
202.0500186928492
 31
0.0
  0
LINE
  5
42
330
1F
100
AcDbEntity
  8
1
  6
Continuous
 62
     7
100
AcDbLine
 10
635.4106808592602
 20
199.7485701722066
 30
0.0
 11
635.4106808592601
 21
213.8772498286467
 31
0.0
  0
LINE
  5
43
330
1F
100
AcDbEntity
  8
1
  6
Continuous
 62
     7
100
AcDbLine
 10
637.3144867815477
 20
218.4734439063594
 30
0.0
 11
645.6251469533274
 21
226.7841040781391
 31
0.0
  0
LINE
  5
44
330
1F
100
AcDbEntity
  8
1
  6
Continuous
 62
     7
100
AcDbLine
 10
652.7662321347241
 20
227.2485701722067
 30
0.0
 11
676.6251469533273
 21
227.2485701722067
 31
0.0
  0
LINE
  5
45
330
1F
100
AcDbEntity
  8
1
  6
Continuous
 62
     7
100
AcDbLine
 10
681.2213410310399
 20
225.3447642499191
 30
0.0
 11
687.9891079840061
 21
218.5769972969532
 31
0.0
  0
LINE
  5
46
330
1F
100
AcDbEntity
  8
1
  6
Continuous
 62
     7
100
AcDbLine
 10
679.2109333909541
 20
220.9912108593263
 30
0.0
 11
680.9503153135315
 21
219.2518289367488
 31
0.0
  0
LINE
  5
47
330
1F
100
AcDbEntity
  8
1
  6
Continuous
 62
     7
100
AcDbLine
 10
663.2727151288492
 20
222.7485701722066
 30
0.0
 11
674.9682927038351
 21
222.7485701722065
 31
0.0
  0
LINE
  5
48
330
1F
100
AcDbEntity
  8
1
  6
DASHED
 62
     2
100
AcDbLine
 10
675.027684302265
 20
222.7482762181756
 30
0.0
 11
672.1606808592603
 21
227.2485701722066
 31
0.0
  0
LINE
  5
49
330
1F
100
AcDbEntity
  8
1
  6
DOT_CENTER
 62
     2
100
AcDbLine
 10
657.6606808592596
 20
192.4735701722067
 30
0.0
 11
657.6606808592596
 21
207.0235701722067
 31
0.0
  0
LINE
  5
4A
330
1F
100
AcDbEntity
  8
1
  6
DOT_CENTER
 62
     2
100
AcDbLine
 10
664.9356808592597
 20
199.7485701722067
 30
0.0
 11
650.3856808592598
 21
199.748570172207
 31
0.0
  0
LINE
  5
4B
330
1F
100
AcDbEntity
  8
1
  6
DOT_CENTER
 62
     2
100
AcDbLine
 10
613.1606808592596
 20
209.8485701722071
 30
0.0
 11
613.1606808592597
 21
221.6485701722071
 31
0.0
  0
LINE
  5
4C
330
1F
100
AcDbEntity
  8
1
  6
DOT_CENTER
 62
     2
100
AcDbLine
 10
619.0606808592596
 20
215.748570172207
 30
0.0
 11
607.2606808592597
 21
215.7485701722069
 31
0.0
  0
LINE
  5
4D
330
1F
100
AcDbEntity
  8
1
  6
Continuous
 62
     7
100
AcDbLine
 10
658.2376565948164
 20
221.2426622485154
 30
0.0
 11
661.0068749369722
 21
218.4734439063597
 31
0.0
  0
LINE
  5
4E
330
1F
100
AcDbEntity
  8
1
  6
DASHED
 62
     2
100
AcDbLine
 10
649.1606808592603
 20
217.7583377167463
 30
0.0
 11
640.0837051237038
 21
221.2426622485156
 31
0.0
  0
LINE
  5
4F
330
1F
100
AcDbEntity
  8
1
  6
Continuous
 62
     7
100
AcDbLine
 10
640.0837051237038
 20
221.2426622485156
 30
0.0
 11
637.1988542869424
 21
222.3500527311901
 31
0.0
  0
LINE
  5
50
330
1F
100
AcDbEntity
  8
1
  6
Continuous
 62
     7
100
AcDbLine
 10
656.5078494137546
 20
209.5343556771844
 30
0.0
 11
662.91068085926
 21
202.168740665514
 31
0.0
  0
LINE
  5
51
330
1F
100
AcDbEntity
  8
1
  6
Continuous
 62
     7
100
AcDbLine
 10
653.1954296968767
 20
216.2095427475845
 30
0.0
 11
649.1606808592603
 21
217.7583377167463
 31
0.0
  0
LINE
  5
52
330
1F
100
AcDbEntity
  8
1
  6
Continuous
 62
     7
100
AcDbLine
 10
652.9420121161891
 20
202.0500186928494
 30
0.0
 11
656.1677732290228
 21
208.66380909451
 31
0.0
  0
LINE
  5
53
330
1F
100
AcDbEntity
  8
1
  6
Continuous
 62
     7
100
AcDbLine
 10
662.9106808592597
 20
213.877249828647
 30
0.0
 11
662.9106808592596
 21
199.7485701722069
 31
0.0
  0
LINE
  5
54
330
1F
100
AcDbEntity
  8
1
  6
DASHED
 62
     2
100
AcDbLine
 10
652.6962147651924
 20
226.7841040781394
 30
0.0
 11
658.2376565948164
 21
221.2426622485154
 31
0.0
  0
LINE
  5
55
330
1F
100
AcDbEntity
  8
1
  6
Continuous
 62
     7
100
AcDbLine
 10
621.6962147651925
 20
227.248570172207
 30
0.0
 11
645.5551295837957
 21
227.248570172207
 31
0.0
  0
LINE
  5
56
330
1F
100
AcDbEntity
  8
1
  6
Continuous
 62
     7
100
AcDbLine
 10
610.3322537345138
 20
218.5769972969534
 30
0.0
 11
617.10002068748
 21
225.3447642499194
 31
0.0
  0
LINE
  5
57
330
1F
100
AcDbEntity
  8
1
  6
Continuous
 62
     7
100
AcDbLine
 10
617.3710464049883
 20
219.2518289367491
 30
0.0
 11
619.1104283275657
 21
220.9912108593265
 31
0.0
  0
LINE
  5
58
330
1F
100
AcDbEntity
  8
1
  6
Continuous
 62
     7
100
AcDbLine
 10
623.3530690146847
 20
222.7485701722068
 30
0.0
 11
635.0486465896706
 21
222.7485701722069
 31
0.0
  0
LINE
  5
59
330
1F
100
AcDbEntity
  8
1
  6
Continuous
 62
     7
100
AcDbLine
 10
626.1606808592595
 20
227.2485701722069
 30
0.0
 11
623.2936774162548
 21
222.7482762181759
 31
0.0
  0
LINE
  5
5A
330
1F
100
AcDbEntity
  8
1
  6
DOT_CENTER
 62
     2
100
AcDbLine
 10
594.838407179133
 20
185.2485701722064
 30
0.0
 11
594.838407179133
 21
181.2485701722064
 31
0.0
  0
LINE
  5
5B
330
1F
100
AcDbEntity
  8
1
  6
DOT_CENTER
 62
     2
100
AcDbLine
 10
594.838407179133
 20
193.2485701722066
 30
0.0
 11
594.838407179133
 21
196.2485701722066
 31
0.0
  0
LINE
  5
5C
330
1F
100
AcDbEntity
  8
1
  6
Continuous
 62
     7
100
AcDbLine
 10
594.838407179133
 20
193.2485701722066
 30
0.0
 11
646.6606808592601
 21
193.2485701722066
 31
0.0
  0
LINE
  5
5D
330
1F
100
AcDbEntity
  8
1
  6
DOT_CENTER
 62
     2
100
AcDbLine
 10
594.838407179133
 20
185.2485701722064
 30
0.0
 11
594.838407179133
 21
193.2485701722066
 31
0.0
  0
LINE
  5
5E
330
1F
100
AcDbEntity
  8
1
  6
Continuous
 62
     7
100
AcDbLine
 10
646.6606808592601
 20
185.2485701722064
 30
0.0
 11
594.838407179133
 21
185.2485701722064
 31
0.0
  0
LINE
  5
5F
330
1F
100
AcDbEntity
  8
1
  6
Continuous
 62
     7
100
AcDbLine
 10
646.6606808592601
 20
193.2485701722066
 30
0.0
 11
646.6606808592601
 21
185.2485701722064
 31
0.0
  0
LINE
  5
60
330
1F
100
AcDbEntity
  8
1
  6
Continuous
 62
     7
100
AcDbLine
 10
650.1606808592602
 20
217.374473681711
 30
0.0
 11
650.1606808592601
 21
193.2485701722067
 31
0.0
  0
LINE
  5
61
330
1F
100
AcDbEntity
  8
1
  6
Continuous
 62
     7
100
AcDbLine
 10
662.66068085926
 20
198.1477891128495
 30
0.0
 11
662.6606808592599
 21
193.7485701722066
 31
0.0
  0
LINE
  5
62
330
1F
100
AcDbEntity
  8
1
  6
Continuous
 62
     7
100
AcDbLine
 10
662.9106808592596
 20
205.1279578287687
 30
0.0
 11
689.6606808592602
 21
212.2955987263014
 31
0.0
  0
LINE
  5
63
330
1F
100
AcDbEntity
  8
1
  6
DASHED
 62
     2
100
AcDbLine
 10
662.8863674523112
 20
214.4389286947024
 30
0.0
 11
659.5522945413377
 21
213.5455665507005
 31
0.0
  0
LINE
  5
64
330
1F
100
AcDbEntity
  8
1
  6
Continuous
 62
     7
100
AcDbLine
 10
654.6606808592601
 20
227.2485701722067
 30
0.0
 11
654.6606808592601
 21
227.7485701722066
 31
0.0
  0
LINE
  5
65
330
1F
100
AcDbEntity
  8
1
  6
DASHED
 62
     2
100
AcDbLine
 10
681.8175351087524
 20
224.7485701722066
 30
0.0
 11
656.6606808592601
 21
224.7485701722066
 31
0.0
  0
LINE
  5
66
330
1F
100
AcDbEntity
  8
1
  6
DASHED
 62
     2
100
AcDbLine
 10
685.9478665316869
 20
220.6182387492722
 30
0.0
 11
680.9287687092602
 21
219.2733755410201
 31
0.0
  0
LINE
  5
67
330
1F
100
AcDbEntity
  8
1
  6
Continuous
 62
     7
100
AcDbLine
 10
680.9287687092602
 20
219.2733755410201
 30
0.0
 11
662.8863674523112
 21
214.4389286947024
 31
0.0
  0
LINE
  5
68
330
1F
100
AcDbEntity
  8
1
  6
Continuous
 62
     7
100
AcDbLine
 10
656.6606808592602
 20
230.2485701722063
 30
0.0
 11
676.1606808592602
 21
230.2485701722067
 31
0.0
  0
LINE
  5
69
330
1F
100
AcDbEntity
  8
1
  6
Continuous
 62
     7
100
AcDbLine
 10
656.6606808592602
 20
229.2485701722063
 30
0.0
 11
676.122306917639
 21
229.2485701722066
 31
0.0
  0
LINE
  5
6A
330
1F
100
AcDbEntity
  8
1
  6
Continuous
 62
     7
100
AcDbLine
 10
656.6606808592602
 20
229.2485701722063
 30
0.0
 11
656.6606808592602
 21
230.2485701722063
 31
0.0
  0
LINE
  5
6B
330
1F
100
AcDbEntity
  8
1
  6
DASHED
 62
     2
100
AcDbLine
 10
654.6606808592601
 20
226.7485701722066
 30
0.0
 11
654.6606808592601
 21
227.2485701722067
 31
0.0
  0
LINE
  5
6C
330
1F
100
AcDbEntity
  8
1
  6
Continuous
 62
     7
100
AcDbLine
 10
662.6606808592599
 20
193.7485701722066
 30
0.0
 11
650.6606808592601
 21
193.7485701722066
 31
0.0
  0
LINE
  5
6D
330
1F
100
AcDbEntity
  8
1
  6
DASHED
 62
     2
100
AcDbLine
 10
662.6606808592601
 20
201.7485701722066
 30
0.0
 11
662.66068085926
 21
198.1477891128495
 31
0.0
  0
LINE
  5
6E
330
1F
100
AcDbEntity
  8
1
  6
Continuous
 62
     7
100
AcDbLine
 10
685.6606808592601
 20
202.7485701722066
 30
0.0
 11
663.6606808592602
 21
202.7485701722066
 31
0.0
  0
LINE
  5
6F
330
1F
100
AcDbEntity
  8
1
  6
Continuous
 62
     7
100
AcDbLine
 10
687.6606808592601
 20
224.7485701722066
 30
0.0
 11
681.8175351087524
 21
224.7485701722066
 31
0.0
  0
LINE
  5
70
330
1F
100
AcDbEntity
  8
1
  6
Continuous
 62
     7
100
AcDbLine
 10
654.6606808592601
 20
227.7485701722066
 30
0.0
 11
651.3401303310301
 21
227.7485701722066
 31
0.0
  0
LINE
  5
71
330
1F
100
AcDbEntity
  8
1
  6
Continuous
 62
     7
100
AcDbLine
 10
650.1606808592602
 20
230.2485701722063
 30
0.0
 11
650.1606808592602
 21
228.1475496577735
 31
0.0
  0
LINE
  5
72
330
1F
100
AcDbEntity
  8
1
  6
Continuous
 62
     7
100
AcDbLine
 10
666.6606808592602
 20
193.2485701722067
 30
0.0
 11
667.6606808592602
 21
193.2485701722067
 31
0.0
  0
LINE
  5
73
330
1F
100
AcDbEntity
  8
1
  6
Continuous
 62
     7
100
AcDbLine
 10
666.6606808592602
 20
198.2485701722183
 30
0.0
 11
666.6606808592602
 21
193.2485701722067
 31
0.0
  0
LINE
  5
74
330
1F
100
AcDbEntity
  8
1
  6
Continuous
 62
     7
100
AcDbLine
 10
650.1606808592601
 20
193.2485701722067
 30
0.0
 11
666.6606808592602
 21
193.2485701722067
 31
0.0
  0
LINE
  5
75
330
1F
100
AcDbEntity
  8
1
  6
Continuous
 62
     7
100
AcDbLine
 10
693.6606808592602
 20
198.2485701722183
 30
0.0
 11
676.1606808592601
 21
198.2485701722184
 31
0.0
  0
LINE
  5
76
330
1F
100
AcDbEntity
  8
1
  6
Continuous
 62
     7
100
AcDbLine
 10
693.6606808592602
 20
230.2485701722067
 30
0.0
 11
693.6606808592602
 21
198.2485701722183
 31
0.0
  0
LINE
  5
77
330
1F
100
AcDbEntity
  8
1
  6
Continuous
 62
     7
100
AcDbLine
 10
650.1606808592602
 20
230.2485701722063
 30
0.0
 11
652.1606808592602
 21
230.2485701722063
 31
0.0
  0
LINE
  5
78
330
1F
100
AcDbEntity
  8
1
  6
Continuous
 62
     7
100
AcDbLine
 10
650.1606808592602
 20
233.7485701722065
 30
0.0
 11
650.1606808592602
 21
230.2485701722063
 31
0.0
  0
LINE
  5
79
330
1F
100
AcDbEntity
  8
1
  6
DOT_CENTER
 62
     2
100
AcDbLine
 10
705.1606808592601
 20
233.7485701722064
 30
0.0
 11
705.1606808592601
 21
236.5002251733415
 31
0.0
  0
LINE
  5
7A
330
1F
100
AcDbEntity
  8
1
  6
Continuous
 62
     7
100
AcDbLine
 10
705.1606808592601
 20
185.2485701722064
 30
0.0
 11
650.1606808592601
 21
185.2485701722064
 31
0.0
  0
LINE
  5
7B
330
1F
100
AcDbEntity
  8
1
  6
PHANTOM
 62
     2
100
AcDbLine
 10
705.1606808592601
 20
185.2485701722064
 30
0.0
 11
705.1606808592601
 21
193.2485701722066
 31
0.0
  0
LINE
  5
7C
330
1F
100
AcDbEntity
  8
1
  6
Continuous
 62
     7
100
AcDbLine
 10
650.1606808592601
 20
185.2485701722064
 30
0.0
 11
650.1606808592601
 21
193.2485701722067
 31
0.0
  0
LINE
  5
7D
330
1F
100
AcDbEntity
  8
1
  6
Continuous
 62
     7
100
AcDbLine
 10
650.1606808592602
 20
233.7485701722065
 30
0.0
 11
705.1606808592601
 21
233.7485701722064
 31
0.0
  0
LINE
  5
7E
330
1F
100
AcDbEntity
  8
1
  6
PHANTOM
 62
     2
100
AcDbLine
 10
705.1606808592601
 20
183.472839565103
 30
0.0
 11
705.1606808592601
 21
185.2485701722064
 31
0.0
  0
LINE
  5
7F
330
1F
100
AcDbEntity
  8
1
  6
Continuous
 62
     7
100
AcDbLine
 10
667.6606808592602
 20
193.2485701722067
 30
0.0
 11
705.1606808592601
 21
193.2485701722066
 31
0.0
  0
LINE
  5
80
330
1F
100
AcDbEntity
  8
1
  6
PHANTOM
 62
     2
100
AcDbLine
 10
705.1606808592601
 20
193.2485701722066
 30
0.0
 11
705.1606808592601
 21
233.7485701722064
 31
0.0
  0
LINE
  5
81
330
1F
100
AcDbEntity
  8
1
  6
Continuous
 62
     7
100
AcDbLine
 10
652.1606808592602
 20
230.2485701722063
 30
0.0
 11
652.1606808592602
 21
229.7485701722063
 31
0.0
  0
LINE
  5
82
330
1F
100
AcDbEntity
  8
1
  6
Continuous
 62
     7
100
AcDbLine
 10
652.1606808592602
 20
230.2485701722063
 30
0.0
 11
656.6606808592602
 21
230.2485701722063
 31
0.0
  0
LINE
  5
83
330
1F
100
AcDbEntity
  8
1
  6
Continuous
 62
     7
100
AcDbLine
 10
652.1606808592602
 20
229.7485701722063
 30
0.0
 11
654.0267062630445
 21
229.2485701722063
 31
0.0
  0
LINE
  5
84
330
1F
100
AcDbEntity
  8
1
  6
Continuous
 62
     7
100
AcDbLine
 10
654.0267062630445
 20
229.2485701722063
 30
0.0
 11
656.6606808592602
 21
229.2485701722063
 31
0.0
  0
LINE
  5
85
330
1F
100
AcDbEntity
  8
1
  6
Continuous
 62
     7
100
AcDbLine
 10
676.122306917639
 20
229.2485701722066
 30
0.0
 11
689.7304207741347
 21
227.3317759366843
 31
0.0
  0
LINE
  5
86
330
1F
100
AcDbEntity
  8
1
  6
Continuous
 62
     7
100
AcDbLine
 10
690.1606808592601
 20
226.8366634804956
 30
0.0
 11
690.1606808592602
 21
226.2485701722184
 31
0.0
  0
LINE
  5
87
330
1F
100
AcDbEntity
  8
1
  6
Continuous
 62
     7
100
AcDbLine
 10
689.7302674097401
 20
201.1654787651077
 30
0.0
 11
676.0907540473168
 21
199.2485701722183
 31
0.0
  0
LINE
  5
88
330
1F
100
AcDbEntity
  8
1
  6
Continuous
 62
     7
100
AcDbLine
 10
676.0907540473168
 20
199.2485701722183
 30
0.0
 11
666.6606808592602
 21
199.2485701722183
 31
0.0
  0
LINE
  5
89
330
1F
100
AcDbEntity
  8
1
  6
Continuous
 62
     7
100
AcDbLine
 10
666.6606808592602
 20
198.2485701722183
 30
0.0
 11
666.6606808592602
 21
199.2485701722183
 31
0.0
  0
LINE
  5
8A
330
1F
100
AcDbEntity
  8
1
  6
Continuous
 62
     7
100
AcDbLine
 10
676.1606808592601
 20
198.2485701722184
 30
0.0
 11
689.8694405107003
 21
200.1752106963662
 31
0.0
  0
LINE
  5
8B
330
1F
100
AcDbEntity
  8
1
  6
Continuous
 62
     7
100
AcDbLine
 10
676.1606808592601
 20
198.2485701722184
 30
0.0
 11
666.6606808592602
 21
198.2485701722183
 31
0.0
  0
LINE
  5
8C
330
1F
100
AcDbEntity
  8
1
  6
Continuous
 62
     7
100
AcDbLine
 10
691.1606808592601
 20
201.6606127994785
 30
0.0
 11
691.1606808592601
 21
205.7485701722183
 31
0.0
  0
LINE
  5
8D
330
1F
100
AcDbEntity
  8
1
  6
Continuous
 62
     7
100
AcDbLine
 10
689.8694405107003
 20
228.3219296480587
 30
0.0
 11
676.1606808592602
 21
230.2485701722067
 31
0.0
  0
LINE
  5
8E
330
1F
100
AcDbEntity
  8
1
  6
Continuous
 62
     7
100
AcDbLine
 10
676.1606808592602
 20
230.2485701722067
 30
0.0
 11
693.6606808592602
 21
230.2485701722067
 31
0.0
  0
LINE
  5
8F
330
1F
100
AcDbEntity
  8
1
  6
Continuous
 62
     7
100
AcDbLine
 10
650.6606808592601
 20
193.7485701722066
 30
0.0
 11
650.6606808592602
 21
217.1825416641933
 31
0.0
  0
LINE
  5
90
330
1F
100
AcDbEntity
  8
1
  6
Continuous
 62
     7
100
AcDbLine
 10
690.1606808592601
 20
205.7485701722183
 30
0.0
 11
691.1606808592601
 21
205.7485701722183
 31
0.0
  0
LINE
  5
91
330
1F
100
AcDbEntity
  8
1
  6
Continuous
 62
     7
100
AcDbLine
 10
690.1606808592601
 20
205.7485701722183
 30
0.0
 11
690.1606808592601
 21
201.6606127994786
 31
0.0
  0
LINE
  5
92
330
1F
100
AcDbEntity
  8
1
  6
Continuous
 62
     7
100
AcDbLine
 10
691.1606808592602
 20
226.2485701722183
 30
0.0
 11
691.1606808592601
 21
226.8365275449464
 31
0.0
  0
LINE
  5
93
330
1F
100
AcDbEntity
  8
1
  6
Continuous
 62
     7
100
AcDbLine
 10
686.6606808592601
 20
208.7485701722066
 30
0.0
 11
686.6606808592601
 21
203.7485701722066
 31
0.0
  0
LINE
  5
94
330
1F
100
AcDbEntity
  8
1
  6
Continuous
 62
     7
100
AcDbLine
 10
691.1606808592601
 20
205.7485701722183
 30
0.0
 11
691.1606808592602
 21
226.2485701722183
 31
0.0
  0
LINE
  5
95
330
1F
100
AcDbEntity
  8
1
  6
DASHED
 62
     2
100
AcDbLine
 10
658.1380809789646
 20
211.0960768079173
 30
0.0
 11
659.4321762044772
 21
206.266447676472
 31
0.0
  0
LINE
  5
96
330
1F
100
AcDbEntity
  8
1
  6
DASHED
 62
     2
100
AcDbLine
 10
661.8816659472604
 20
204.8522341140989
 30
0.0
 11
662.9106808592596
 21
205.1279578287687
 31
0.0
  0
LINE
  5
97
330
1F
100
AcDbEntity
  8
1
  6
DOT_CENTER
 62
     2
100
AcDbLine
 10
656.8804399086612
 20
208.1709024477361
 30
0.0
 11
696.7140801364764
 21
218.8442941783711
 31
0.0
  0
LINE
  5
98
330
1F
100
AcDbEntity
  8
1
  6
Continuous
 62
     7
100
AcDbLine
 10
689.6606808592602
 20
210.3197447374791
 30
0.0
 11
689.6606808592602
 21
212.2955987263014
 31
0.0
  0
LINE
  5
99
330
1F
100
AcDbEntity
  8
1
  6
Continuous
 62
     7
100
AcDbLine
 10
686.6606808592601
 20
208.7485701722066
 30
0.0
 11
688.9194999043627
 21
209.3538189111899
 31
0.0
  0
LINE
  5
9A
330
1F
100
AcDbEntity
  8
1
  6
Continuous
 62
     7
100
AcDbLine
 10
689.6606808592601
 20
221.6130843499921
 30
0.0
 11
685.9478665316869
 21
220.6182387492722
 31
0.0
  0
LINE
  5
9B
330
1F
100
AcDbEntity
  8
1
  6
Continuous
 62
     7
100
AcDbLine
 10
689.6606808592601
 20
221.6130843499921
 30
0.0
 11
689.6606808592601
 21
222.7485701722066
 31
0.0
  0
LINE
  5
9C
330
1F
100
AcDbEntity
  8
1
  6
Continuous
 62
     7
100
AcDbLine
 10
689.6606808592602
 20
212.2955987263014
 30
0.0
 11
689.6606808592601
 21
221.6130843499921
 31
0.0
  0
LINE
  5
9D
330
1F
100
AcDbEntity
  8
1
  6
Continuous
 62
     7
100
AcDbLine
 10
690.1606808592602
 20
226.2485701722184
 30
0.0
 11
690.1606808592601
 21
205.7485701722183
 31
0.0
  0
LINE
  5
9E
330
1F
100
AcDbEntity
  8
1
  6
Continuous
 62
     7
100
AcDbLine
 10
689.9441114103903
 20
227.2485701722183
 30
0.0
 11
691.102977941456
 21
227.2485701722183
 31
0.0
  0
LINE
  5
9F
330
1F
100
AcDbEntity
  8
1
  6
DASHED
 62
     2
100
AcDbLine
 10
635.4349942662086
 20
214.4389286947024
 30
0.0
 11
639.2690671771825
 21
213.4115919544849
 31
0.0
  0
LINE
  5
A0
330
1F
100
AcDbEntity
  8
1
  6
Continuous
 62
     7
100
AcDbLine
 10
635.4106808592602
 20
205.1279578287687
 30
0.0
 11
608.1606808592601
 21
212.4295733225169
 31
0.0
  0
LINE
  5
A1
330
1F
100
AcDbEntity
  8
1
  6
DASHED
 62
     2
100
AcDbLine
 10
635.6606808592601
 20
198.1477891128494
 30
0.0
 11
635.6606808592599
 21
200.4985701722068
 31
0.0
  0
LINE
  5
A2
330
1F
100
AcDbEntity
  8
1
  6
Continuous
 62
     7
100
AcDbLine
 10
646.6606808592601
 20
227.5786971911285
 30
0.0
 11
646.6606808592601
 21
228.4985701722067
 31
0.0
  0
LINE
  5
A3
330
1F
100
AcDbEntity
  8
1
  6
Continuous
 62
     7
100
AcDbLine
 10
616.2538266097672
 20
224.4985701722066
 30
0.0
 11
610.1606808592601
 21
224.4985701722066
 31
0.0
  0
LINE
  5
A4
330
1F
100
AcDbEntity
  8
1
  6
Continuous
 62
     7
100
AcDbLine
 10
617.3925930092595
 20
219.2733755410202
 30
0.0
 11
635.4349942662086
 21
214.4389286947024
 31
0.0
  0
LINE
  5
A5
330
1F
100
AcDbEntity
  8
1
  6
DASHED
 62
     2
100
AcDbLine
 10
612.3734951868328
 20
220.6182387492723
 30
0.0
 11
617.3925930092595
 21
219.2733755410202
 31
0.0
  0
LINE
  5
A6
330
1F
100
AcDbEntity
  8
1
  6
Continuous
 62
     7
100
AcDbLine
 10
642.1606808592601
 20
229.2485701722067
 30
0.0
 11
642.7946554554755
 21
229.2485701722067
 31
0.0
  0
LINE
  5
A7
330
1F
100
AcDbEntity
  8
1
  6
Continuous
 62
     7
100
AcDbLine
 10
642.1606808592601
 20
230.2485701722067
 30
0.0
 11
644.6606808592601
 21
230.2485701722067
 31
0.0
  0
LINE
  5
A8
330
1F
100
AcDbEntity
  8
1
  6
Continuous
 62
     7
100
AcDbLine
 10
642.1606808592601
 20
229.2485701722067
 30
0.0
 11
642.1606808592601
 21
230.2485701722067
 31
0.0
  0
LINE
  5
A9
330
1F
100
AcDbEntity
  8
1
  6
Continuous
 62
     7
100
AcDbLine
 10
632.6606808592601
 20
198.2485701722066
 30
0.0
 11
632.6606808592601
 21
197.7485701722067
 31
0.0
  0
LINE
  5
AA
330
1F
100
AcDbEntity
  8
1
  6
DASHED
 62
     2
100
AcDbLine
 10
642.6606808592601
 20
227.248570172207
 30
0.0
 11
642.6606808592601
 21
226.4985701722066
 31
0.0
  0
LINE
  5
AB
330
1F
100
AcDbEntity
  8
1
  6
DASHED
 62
     2
100
AcDbLine
 10
640.6606808592601
 20
224.4985701722066
 30
0.0
 11
616.2538266097672
 21
224.4985701722066
 31
0.0
  0
LINE
  5
AC
330
1F
100
AcDbEntity
  8
1
  6
Continuous
 62
     7
100
AcDbLine
 10
646.6606808592601
 20
193.2485701722066
 30
0.0
 11
646.6606808592601
 21
216.7986776291577
 31
0.0
  0
LINE
  5
AD
330
1F
100
AcDbEntity
  8
1
  6
Continuous
 62
     7
100
AcDbLine
 10
646.6606808592601
 20
194.4985701722066
 30
0.0
 11
644.9606808592602
 21
194.4985701722066
 31
0.0
  0
LINE
  5
AE
330
1F
100
AcDbEntity
  8
1
  6
Continuous
 62
     7
100
AcDbLine
 10
644.9606808592602
 20
194.4985701722066
 30
0.0
 11
635.6606808592603
 21
194.4985701722066
 31
0.0
  0
LINE
  5
AF
330
1F
100
AcDbEntity
  8
1
  6
Continuous
 62
     7
100
AcDbLine
 10
635.6606808592603
 20
194.4985701722066
 30
0.0
 11
635.6606808592601
 21
198.1477891128494
 31
0.0
  0
LINE
  5
B0
330
1F
100
AcDbEntity
  8
1
  6
Continuous
 62
     7
100
AcDbLine
 10
642.6606808592601
 20
228.4985701722067
 30
0.0
 11
642.6606808592601
 21
227.248570172207
 31
0.0
  0
LINE
  5
B1
330
1F
100
AcDbEntity
  8
1
  6
Continuous
 62
     7
100
AcDbLine
 10
646.6606808592601
 20
193.2485701722066
 30
0.0
 11
646.6606808592601
 21
187.2485701722066
 31
0.0
  0
LINE
  5
B2
330
1F
100
AcDbEntity
  8
1
  6
Continuous
 62
     7
100
AcDbLine
 10
646.6606808592601
 20
230.2485701722067
 30
0.0
 11
646.6606808592601
 21
228.4985701722067
 31
0.0
  0
LINE
  5
B3
330
1F
100
AcDbEntity
  8
1
  6
Continuous
 62
     7
100
AcDbLine
 10
633.66068085926
 20
202.4985701722066
 30
0.0
 11
610.1606808592601
 21
202.4985701722066
 31
0.0
  0
LINE
  5
B4
330
1F
100
AcDbEntity
  8
1
  6
Continuous
 62
     7
100
AcDbLine
 10
632.6606808592601
 20
198.2485701722066
 30
0.0
 11
629.6606808592601
 21
198.2485701722066
 31
0.0
  0
LINE
  5
B5
330
1F
100
AcDbEntity
  8
1
  6
Continuous
 62
     7
100
AcDbLine
 10
620.7519474983847
 20
199.2455710550822
 30
0.0
 11
607.0910943087802
 21
201.165478765096
 31
0.0
  0
LINE
  5
B6
330
1F
100
AcDbEntity
  8
1
  6
Continuous
 62
     7
100
AcDbLine
 10
606.6606808592601
 20
201.6606127994668
 30
0.0
 11
606.6606808592601
 21
226.8365275449465
 31
0.0
  0
LINE
  5
B7
330
1F
100
AcDbEntity
  8
1
  6
Continuous
 62
     7
100
AcDbLine
 10
607.0910943087802
 20
227.3316615793173
 30
0.0
 11
620.7306076712025
 21
229.2485701722065
 31
0.0
  0
LINE
  5
B8
330
1F
100
AcDbEntity
  8
1
  6
Continuous
 62
     7
100
AcDbLine
 10
620.7306076712025
 20
229.2485701722065
 30
0.0
 11
642.1606808592601
 21
229.2485701722067
 31
0.0
  0
LINE
  5
B9
330
1F
100
AcDbEntity
  8
1
  6
Continuous
 62
     7
100
AcDbLine
 10
646.6606808592601
 20
228.4985701722067
 30
0.0
 11
642.6606808592601
 21
228.4985701722067
 31
0.0
  0
LINE
  5
BA
330
1F
100
AcDbEntity
  8
1
  6
Continuous
 62
     7
100
AcDbLine
 10
644.6606808592601
 20
230.2485701722067
 30
0.0
 11
644.6606808592601
 21
229.7485701722067
 31
0.0
  0
LINE
  5
BB
330
1F
100
AcDbEntity
  8
1
  6
Continuous
 62
     7
100
AcDbLine
 10
644.6606808592601
 20
230.2485701722067
 30
0.0
 11
646.6606808592601
 21
230.2485701722067
 31
0.0
  0
LINE
  5
BC
330
1F
100
AcDbEntity
  8
1
  6
Continuous
 62
     7
100
AcDbLine
 10
644.6606808592601
 20
229.7485701722067
 30
0.0
 11
642.7946554554755
 21
229.2485701722067
 31
0.0
  0
LINE
  5
BD
330
1F
100
AcDbEntity
  8
1
  6
Continuous
 62
     7
100
AcDbLine
 10
605.6606808592601
 20
226.8365275449462
 30
0.0
 11
605.6606808592601
 21
201.6606127994669
 31
0.0
  0
LINE
  5
BE
330
1F
100
AcDbEntity
  8
1
  6
Continuous
 62
     7
100
AcDbLine
 10
606.9519212078199
 20
228.3219296480585
 30
0.0
 11
620.6606808592618
 21
230.2485701722066
 31
0.0
  0
LINE
  5
BF
330
1F
100
AcDbEntity
  8
1
  6
Continuous
 62
     7
100
AcDbLine
 10
620.6606808592618
 20
230.2485701722066
 30
0.0
 11
642.1606808592601
 21
230.2485701722067
 31
0.0
  0
LINE
  5
C0
330
1F
100
AcDbEntity
  8
1
  6
Continuous
 62
     7
100
AcDbLine
 10
606.9519212078199
 20
200.1752106963545
 30
0.0
 11
620.6606808592601
 21
198.2485701722066
 31
0.0
  0
LINE
  5
C1
330
1F
100
AcDbEntity
  8
1
  6
Continuous
 62
     7
100
AcDbLine
 10
629.6606808592601
 20
198.2485701722066
 30
0.0
 11
629.6606808592601
 21
199.2478146467363
 31
0.0
  0
LINE
  5
C2
330
1F
100
AcDbEntity
  8
1
  6
Continuous
 62
     7
100
AcDbLine
 10
629.6606808592601
 20
198.2485701722066
 30
0.0
 11
620.6606808592601
 21
198.2485701722066
 31
0.0
  0
LINE
  5
C3
330
1F
100
AcDbEntity
  8
1
  6
Continuous
 62
     7
100
AcDbLine
 10
629.6606808592601
 20
199.2478146467363
 30
0.0
 11
620.7519474983847
 21
199.2455710550822
 31
0.0
  0
LINE
  5
C4
330
1F
100
AcDbEntity
  8
1
  6
Continuous
 62
     7
100
AcDbLine
 10
608.1606808592601
 20
204.4985701722066
 30
0.0
 11
608.1606808592601
 21
212.4295733225169
 31
0.0
  0
LINE
  5
C5
330
1F
100
AcDbEntity
  8
1
  6
Continuous
 62
     7
100
AcDbLine
 10
608.1606808592601
 20
221.7470589462077
 30
0.0
 11
612.3734951868328
 21
220.6182387492723
 31
0.0
  0
LINE
  5
C6
330
1F
100
AcDbEntity
  8
1
  6
DASHED
 62
     2
100
AcDbLine
 10
640.6832807395555
 20
210.9621022117018
 30
0.0
 11
639.3891855140429
 21
206.1324730802565
 31
0.0
  0
LINE
  5
C7
330
1F
100
AcDbEntity
  8
1
  6
DASHED
 62
     2
100
AcDbLine
 10
636.9396957712597
 20
204.7182595178833
 30
0.0
 11
635.4106808592602
 21
205.1279578287687
 31
0.0
  0
LINE
  5
C8
330
1F
100
AcDbEntity
  8
1
  6
DOT_CENTER
 62
     2
100
AcDbLine
 10
604.7116969716031
 20
218.0124685817679
 30
0.0
 11
641.9868264237849
 21
208.0246277472901
 31
0.0
  0
LINE
  5
C9
330
1F
100
AcDbEntity
  8
1
  6
Continuous
 62
     7
100
AcDbLine
 10
608.1606808592601
 20
221.7470589462077
 30
0.0
 11
608.1606808592601
 21
222.4985701722066
 31
0.0
  0
LINE
  5
CA
330
1F
100
AcDbEntity
  8
1
  6
Continuous
 62
     7
100
AcDbLine
 10
608.1606808592601
 20
212.4295733225169
 30
0.0
 11
608.1606808592601
 21
221.7470589462077
 31
0.0
  0
LINE
  5
CB
330
1F
100
AcDbEntity
  8
1
  6
Continuous
 62
     7
100
AcDbLine
 10
630.6606808592601
 20
194.7485701722067
 30
0.0
 11
621.66068085926
 21
194.7485701722067
 31
0.0
  0
LINE
  5
CC
330
1F
100
AcDbEntity
  8
1
  6
Continuous
 62
     7
100
AcDbLine
 10
630.6606808592601
 20
193.2485701722066
 30
0.0
 11
644.1606808592601
 21
193.2485701722066
 31
0.0
  0
LINE
  5
CD
330
1F
100
AcDbEntity
  8
1
  6
Continuous
 62
     7
100
AcDbLine
 10
645.1606808592601
 20
230.2485701722067
 30
0.0
 11
646.6606808592601
 21
230.2485701722067
 31
0.0
  0
LINE
  5
CE
330
1F
100
AcDbEntity
  8
1
  6
Continuous
 62
     7
100
AcDbLine
 10
645.1606808592601
 20
230.2485701722067
 30
0.0
 11
645.1606808592601
 21
250.2485701722065
 31
0.0
  0
LINE
  5
CF
330
1F
100
AcDbEntity
  8
1
  6
Continuous
 62
     7
100
AcDbLine
 10
646.6606808592601
 20
235.7485701722065
 30
0.0
 11
646.6606808592601
 21
230.2485701722067
 31
0.0
  0
LINE
  5
D0
330
1F
100
AcDbEntity
  8
1
  6
Continuous
 62
     7
100
AcDbLine
 10
660.1606808592601
 20
239.2485701722065
 30
0.0
 11
660.1606808592601
 21
269.341273009907
 31
0.0
  0
LINE
  5
D1
330
1F
100
AcDbEntity
  8
1
  6
Continuous
 62
     7
100
AcDbLine
 10
661.6606808592601
 20
238.7485701722065
 30
0.0
 11
661.6606808592601
 21
269.341273009907
 31
0.0
  0
LINE
  5
D2
330
1F
100
AcDbEntity
  8
1
  6
Continuous
 62
     7
100
AcDbLine
 10
657.6498175071224
 20
236.7485701722065
 30
0.0
 11
659.6606808592601
 21
236.7485701722065
 31
0.0
  0
LINE
  5
D3
330
1F
100
AcDbEntity
  8
1
  6
Continuous
 62
     7
100
AcDbLine
 10
658.3014301935432
 20
238.2485701722065
 30
0.0
 11
659.1606808592601
 21
238.2485701722065
 31
0.0
  0
LINE
  5
D4
330
1F
100
AcDbEntity
  8
1
  6
Continuous
 62
     7
100
AcDbLine
 10
660.1095695986937
 20
249.8603416045526
 30
0.0
 11
657.3355043672539
 21
239.5073892173089
 31
0.0
  0
LINE
  5
D5
330
1F
100
AcDbEntity
  8
1
  6
Continuous
 62
     7
100
AcDbLine
 10
646.6606808592601
 20
251.7485701722064
 30
0.0
 11
658.6606808592601
 21
251.7485701722065
 31
0.0
  0
LINE
  5
D6
330
1F
100
AcDbEntity
  8
1
  6
Continuous
 62
     7
100
AcDbLine
 10
658.4920310859841
 20
249.6191606496552
 30
0.0
 11
657.6487822196038
 21
246.472113036899
 31
0.0
  0
LINE
  5
D7
330
1F
100
AcDbEntity
  8
1
  6
Continuous
 62
     7
100
AcDbLine
 10
647.1606808592601
 20
250.2485701722066
 30
0.0
 11
649.6606808592601
 21
250.2485701722065
 31
0.0
  0
LINE
  5
D8
330
1F
100
AcDbEntity
  8
1
  6
Continuous
 62
     7
100
AcDbLine
 10
646.6606808592601
 20
235.7485701722065
 30
0.0
 11
646.6606808592601
 21
247.2485701722065
 31
0.0
  0
LINE
  5
D9
330
1F
100
AcDbEntity
  8
1
  6
Continuous
 62
     7
100
AcDbLine
 10
648.6606808592601
 20
233.7485701722065
 30
0.0
 11
656.4666015505024
 21
233.7485701722065
 31
0.0
  0
LINE
  5
DA
330
1F
100
AcDbEntity
  8
1
  6
Continuous
 62
     7
100
AcDbLine
 10
649.6606808592601
 20
250.2485701722065
 30
0.0
 11
654.7510047407366
 21
250.2485701722065
 31
0.0
  0
LINE
  5
DB
330
1F
100
AcDbEntity
  8
1
  6
Continuous
 62
     7
100
AcDbLine
 10
646.6606808592601
 20
247.2485701722065
 30
0.0
 11
646.6606808592601
 21
249.7485701722065
 31
0.0
  0
LINE
  5
DC
330
1F
100
AcDbEntity
  8
1
  6
Continuous
 62
     7
100
AcDbLine
 10
654.7510047407366
 20
250.2485701722065
 30
0.0
 11
658.0090681728395
 21
250.2485701722066
 31
0.0
  0
LINE
  5
DD
330
1F
100
AcDbEntity
  8
1
  6
Continuous
 62
     7
100
AcDbLine
 10
657.6487822196038
 20
246.472113036899
 30
0.0
 11
655.7179658545444
 21
239.2662082624115
 31
0.0
  0
LINE
  5
DE
330
1F
100
AcDbEntity
  8
1
  6
Continuous
 62
     7
100
AcDbLine
 10
648.6606808592601
 20
234.7485701722065
 30
0.0
 11
656.4666015505024
 21
234.7485701722065
 31
0.0
  0
LINE
  5
DF
330
1F
100
AcDbEntity
  8
1
  6
Continuous
 62
     7
100
AcDbLine
 10
647.6606808592601
 20
235.7485701722065
 30
0.0
 11
647.6606808592601
 21
247.2485701722065
 31
0.0
  0
LINE
  5
E0
330
1F
100
AcDbEntity
  8
1
  6
Continuous
 62
     7
100
AcDbLine
 10
649.6606808592601
 20
249.2485701722065
 30
0.0
 11
654.7510047407366
 21
249.2485701722065
 31
0.0
  0
LINE
  5
E1
330
1F
100
AcDbEntity
  8
1
  6
Continuous
 62
     7
100
AcDbLine
 10
656.6828563933148
 20
246.7309320820014
 30
0.0
 11
654.7520400282551
 21
239.525027307514
 31
0.0
  0
LINE
  5
E2
330
1F
100
AcDbEntity
  8
1
  6
Continuous
 62
     7
100
AcDbLine
 10
598.6606808592596
 20
203.2485701722067
 30
0.0
 11
598.6606808592596
 21
195.7485701722066
 31
0.0
  0
LINE
  5
E3
330
1F
100
AcDbEntity
  8
1
  6
Continuous
 62
     7
100
AcDbLine
 10
601.1606808592596
 20
193.2485701722065
 30
0.0
 11
630.6606808592601
 21
193.2485701722066
 31
0.0
  0
LINE
  5
E4
330
1F
100
AcDbEntity
  8
1
  6
Continuous
 62
     7
100
AcDbLine
 10
600.1606808592596
 20
195.7485701722066
 30
0.0
 11
600.1606808592596
 21
203.2485701722067
 31
0.0
  0
LINE
  5
E5
330
1F
100
AcDbEntity
  8
1
  6
Continuous
 62
     7
100
AcDbLine
 10
598.6606808592596
 20
203.2485701722067
 30
0.0
 11
600.1606808592596
 21
203.2485701722067
 31
0.0
  0
LINE
  5
E6
330
1F
100
AcDbEntity
  8
1
  6
Continuous
 62
     7
100
AcDbLine
 10
630.6606808592601
 20
194.7485701722067
 30
0.0
 11
630.6606808592601
 21
193.2485701722066
 31
0.0
  0
LINE
  5
E7
330
1F
100
AcDbEntity
  8
1
  6
Continuous
 62
     7
100
AcDbLine
 10
630.6606808592601
 20
194.7485701722067
 30
0.0
 11
630.6606808592601
 21
193.2485701722066
 31
0.0
  0
LINE
  5
E8
330
1F
100
AcDbEntity
  8
1
  6
Continuous
 62
     7
100
AcDbLine
 10
633.16068085926
 20
197.7485701722067
 30
0.0
 11
633.16068085926
 21
194.7485701722067
 31
0.0
  0
LINE
  5
E9
330
1F
100
AcDbEntity
  8
1
  6
Continuous
 62
     7
100
AcDbLine
 10
633.16068085926
 20
194.7485701722067
 30
0.0
 11
630.6606808592601
 21
194.7485701722067
 31
0.0
  0
LINE
  5
EA
330
1F
100
AcDbEntity
  8
1
  6
Continuous
 62
     7
100
AcDbLine
 10
621.66068085926
 20
197.7485701722067
 30
0.0
 11
633.16068085926
 21
197.7485701722067
 31
0.0
  0
LINE
  5
EB
330
1F
100
AcDbEntity
  8
1
  6
Continuous
 62
     7
100
AcDbLine
 10
621.66068085926
 20
194.7485701722067
 30
0.0
 11
621.66068085926
 21
197.7485701722067
 31
0.0
  0
LINE
  5
EC
330
1F
100
AcDbEntity
  8
1
  6
Continuous
 62
     7
100
AcDbLine
 10
633.6606808592601
 20
233.4485701722064
 30
0.0
 11
633.6606808592601
 21
235.4485701722067
 31
0.0
  0
LINE
  5
ED
330
1F
100
AcDbEntity
  8
1
  6
Continuous
 62
     7
100
AcDbLine
 10
636.6606808592601
 20
233.4485701722066
 30
0.0
 11
636.6606808592601
 21
233.2485701722067
 31
0.0
  0
LINE
  5
EE
330
1F
100
AcDbEntity
  8
1
  6
Continuous
 62
     7
100
AcDbLine
 10
636.6606808592601
 20
233.4485701722066
 30
0.0
 11
633.6606808592601
 21
233.4485701722064
 31
0.0
  0
LINE
  5
EF
330
1F
100
AcDbEntity
  8
1
  6
Continuous
 62
     7
100
AcDbLine
 10
633.6606808592601
 20
235.4485701722067
 30
0.0
 11
636.6606808592601
 21
235.4485701722067
 31
0.0
  0
LINE
  5
F0
330
1F
100
AcDbEntity
  8
1
  6
Continuous
 62
     7
100
AcDbLine
 10
636.6606808592601
 20
235.4485701722067
 30
0.0
 11
636.6606808592601
 21
233.4485701722066
 31
0.0
  0
LINE
  5
F1
330
1F
100
AcDbEntity
  8
1
  6
Continuous
 62
     7
100
AcDbLine
 10
633.6606808592601
 20
233.2485701722066
 30
0.0
 11
633.6606808592601
 21
233.4485701722064
 31
0.0
  0
LINE
  5
F2
330
1F
100
AcDbEntity
  8
1
  6
Continuous
 62
     7
100
AcDbLine
 10
644.6606808592601
 20
233.2485701722067
 30
0.0
 11
636.9106808592601
 21
233.2485701722067
 31
0.0
  0
LINE
  5
F3
330
1F
100
AcDbEntity
  8
1
  6
Continuous
 62
     7
100
AcDbLine
 10
602.16068085926
 20
230.2485701722067
 30
0.0
 11
602.16068085926
 21
194.7485701722067
 31
0.0
  0
LINE
  5
F4
330
1F
100
AcDbEntity
  8
1
  6
Continuous
 62
     7
100
AcDbLine
 10
644.6606808592601
 20
230.7485701722067
 30
0.0
 11
644.6606808592601
 21
233.2485701722067
 31
0.0
  0
LINE
  5
F5
330
1F
100
AcDbEntity
  8
1
  6
Continuous
 62
     7
100
AcDbLine
 10
604.66068085926
 20
230.2485701722067
 30
0.0
 11
604.66068085926
 21
194.7485701722067
 31
0.0
  0
LINE
  5
F6
330
1F
100
AcDbEntity
  8
1
  6
Continuous
 62
     7
100
AcDbLine
 10
645.1606808592601
 20
230.7485701722067
 30
0.0
 11
644.6606808592601
 21
230.7485701722067
 31
0.0
  0
LINE
  5
F7
330
1F
100
AcDbEntity
  8
1
  6
Continuous
 62
     7
100
AcDbLine
 10
644.6606808592601
 20
230.7485701722067
 30
0.0
 11
605.16068085926
 21
230.7485701722067
 31
0.0
  0
LINE
  5
F8
330
1F
100
AcDbEntity
  8
1
  6
Continuous
 62
     7
100
AcDbLine
 10
636.9106808592601
 20
233.2485701722067
 30
0.0
 11
605.16068085926
 21
233.2485701722067
 31
0.0
  0
LINE
  5
F9
330
1F
100
AcDbEntity
  8
1
  6
Continuous
 62
     7
100
AcDbLine
 10
604.66068085926
 20
194.7485701722067
 30
0.0
 11
602.16068085926
 21
194.7485701722067
 31
0.0
  0
LINE
  5
FA
330
1F
100
AcDbEntity
  8
1
  6
Continuous
 62
     7
100
AcDbLine
 10
633.16068085926
 20
197.7485701722067
 30
0.0
 11
633.16068085926
 21
194.7485701722067
 31
0.0
  0
LINE
  5
FB
330
1F
100
AcDbEntity
  8
1
  6
Continuous
 62
     7
100
AcDbLine
 10
633.66068085926
 20
198.2485701722066
 30
0.0
 11
633.66068085926
 21
199.7485701722066
 31
0.0
  0
LINE
  5
FC
330
1F
100
AcDbEntity
  8
1
  6
Continuous
 62
     7
100
AcDbLine
 10
633.66068085926
 20
199.7485701722066
 30
0.0
 11
633.66068085926
 21
202.4985701722066
 31
0.0
  0
LINE
  5
FD
330
1F
100
AcDbEntity
  8
1
  6
Continuous
 62
     7
100
AcDbLine
 10
621.66068085926
 20
194.7485701722067
 30
0.0
 11
601.1606808592596
 21
194.7485701722066
 31
0.0
  0
LINE
  5
FE
330
1F
100
AcDbEntity
  8
1
  6
Continuous
 62
     7
100
AcDbLine
 10
633.16068085926
 20
194.7485701722067
 30
0.0
 11
635.6606808592603
 21
194.7485701722067
 31
0.0
  0
ARC
  5
FF
330
1F
100
AcDbEntity
  8
1
  6
Continuous
 62
     7
100
AcDbCircle
 10
640.6606808592601
 20
199.7485701722066
 30
0.0
 40
5.249999999999886
100
AcDbArc
 50
180.0
 51
25.99999999999914
  0
ARC
  5
100
330
1F
100
AcDbEntity
  8
1
  6
Continuous
 62
     7
100
AcDbCircle
 10
649.1606808592601
 20
223.2485701722067
 30
0.0
 40
5.000000000000126
100
AcDbArc
 50
58.99728086612595
 51
135.0000000000021
  0
ARC
  5
101
330
1F
100
AcDbEntity
  8
1
  6
Continuous
 62
     7
100
AcDbCircle
 10
685.1606808592602
 20
215.7485701722069
 30
0.0
 40
3.999999999999701
100
AcDbArc
 50
159.6243183521657
 51
45.00000000000432
  0
ARC
  5
102
330
1F
100
AcDbEntity
  8
1
  6
Continuous
 62
     7
100
AcDbCircle
 10
657.6606808592601
 20
199.7485701722066
 30
0.0
 40
5.250000000000415
100
AcDbArc
 50
154.0000000000005
 51
0.00000000000341
  0
ARC
  5
103
330
1F
100
AcDbEntity
  8
1
  6
DASHED
 62
     2
100
AcDbCircle
 10
649.1606808592601
 20
223.2485701722067
 30
0.0
 40
4.999999999999658
100
AcDbArc
 50
45.000000000003
 51
121.0027191338762
  0
ARC
  5
104
330
1F
100
AcDbEntity
  8
1
  6
Continuous
 62
     7
100
AcDbCircle
 10
613.1606808592596
 20
215.7485701722072
 30
0.0
 40
3.999999999999791
100
AcDbArc
 50
134.9999999999965
 51
20.37568164783313
  0
ARC
  5
105
330
1F
100
AcDbEntity
  8
1
  6
Continuous
 62
     7
100
AcDbCircle
 10
607.1606808592601
 20
226.8365275449462
 30
0.0
 40
1.49999999999997
100
AcDbArc
 50
98.00000000000533
 51
180.0
  0
ARC
  5
106
330
1F
100
AcDbEntity
  8
1
  6
Continuous
 62
     7
100
AcDbCircle
 10
607.1606808592601
 20
201.6606127994668
 30
0.0
 40
1.5
100
AcDbArc
 50
179.9999999999967
 51
-98.00000000000533
  0
ARC
  5
107
330
1F
100
AcDbEntity
  8
1
  6
Continuous
 62
     7
100
AcDbCircle
 10
648.6606808592601
 20
235.7485701722065
 30
0.0
 40
2.0
100
AcDbArc
 50
180.0
 51
-90.0
  0
ARC
  5
108
330
1F
100
AcDbEntity
  8
1
  6
Continuous
 62
     7
100
AcDbCircle
 10
656.4666015505024
 20
235.3485701722065
 30
0.0
 40
1.599999999999994
100
AcDbArc
 50
-90.0
 51
70.81186354628234
  0
ARC
  5
109
330
1F
100
AcDbEntity
  8
1
  6
Continuous
 62
     7
100
AcDbCircle
 10
649.6606808592601
 20
247.2485701722065
 30
0.0
 40
3.0
100
AcDbArc
 50
90.0
 51
180.0
  0
ARC
  5
10A
330
1F
100
AcDbEntity
  8
1
  6
Continuous
 62
     7
100
AcDbCircle
 10
654.7510047407366
 20
247.2485701722065
 30
0.0
 40
3.000000000000062
100
AcDbArc
 50
-14.99999999999864
 51
90.0
  0
ARC
  5
10B
330
1F
100
AcDbEntity
  8
1
  6
Continuous
 62
     7
100
AcDbCircle
 10
648.6606808592601
 20
235.7485701722065
 30
0.0
 40
1.0
100
AcDbArc
 50
180.0
 51
-90.0
  0
ARC
  5
10C
330
1F
100
AcDbEntity
  8
1
  6
Continuous
 62
     7
100
AcDbCircle
 10
649.6606808592601
 20
247.2485701722065
 30
0.0
 40
2.0
100
AcDbArc
 50
90.0
 51
180.0
  0
ARC
  5
10D
330
1F
100
AcDbEntity
  8
1
  6
Continuous
 62
     7
100
AcDbCircle
 10
654.7510047407366
 20
247.2485701722065
 30
0.0
 40
2.000000000000068
100
AcDbArc
 50
-15.00000000000153
 51
90.0
  0
ARC
  5
10E
330
1F
100
AcDbEntity
  8
1
  6
Continuous
 62
     7
100
AcDbCircle
 10
656.4666015505024
 20
235.3485701722065
 30
0.0
 40
0.5999999999999943
100
AcDbArc
 50
-90.0
 51
70.81186354627319
  0
CIRCLE
  5
10F
330
1F
100
AcDbEntity
  8
1
  6
Continuous
 62
     2
100
AcDbCircle
 10
703.070021860046
 20
186.6285686420738
 30
0.0
 40
0.5
  0
CIRCLE
  5
110
330
1F
100
AcDbEntity
  8
1
  6
Continuous
 62
     2
100
AcDbCircle
 10
700.070021860046
 20
186.6285686420738
 30
0.0
 40
0.5
  0
CIRCLE
  5
111
330
1F
100
AcDbEntity
  8
1
  6
Continuous
 62
     2
100
AcDbCircle
 10
701.070021860046
 20
188.6285686420738
 30
0.0
 40
0.5
  0
CIRCLE
  5
112
330
1F
100
AcDbEntity
  8
1
  6
Continuous
 62
     2
100
AcDbCircle
 10
704.070021860046
 20
188.6285686420738
 30
0.0
 40
0.5
  0
CIRCLE
  5
113
330
1F
100
AcDbEntity
  8
1
  6
Continuous
 62
     2
100
AcDbCircle
 10
703.070021860046
 20
191.6285686420738
 30
0.0
 40
0.5
  0
CIRCLE
  5
114
330
1F
100
AcDbEntity
  8
1
  6
Continuous
 62
     2
100
AcDbCircle
 10
700.070021860046
 20
191.6285686420738
 30
0.0
 40
0.5
  0
CIRCLE
  5
115
330
1F
100
AcDbEntity
  8
1
  6
Continuous
 62
     2
100
AcDbCircle
 10
698.070021860046
 20
188.6285686420738
 30
0.0
 40
0.5
  0
CIRCLE
  5
116
330
1F
100
AcDbEntity
  8
1
  6
Continuous
 62
     2
100
AcDbCircle
 10
697.070021860046
 20
186.6285686420738
 30
0.0
 40
0.5
  0
CIRCLE
  5
117
330
1F
100
AcDbEntity
  8
1
  6
Continuous
 62
     2
100
AcDbCircle
 10
695.070021860046
 20
188.6285686420738
 30
0.0
 40
0.5
  0
CIRCLE
  5
118
330
1F
100
AcDbEntity
  8
1
  6
Continuous
 62
     2
100
AcDbCircle
 10
696.070021860046
 20
191.6285686420738
 30
0.0
 40
0.5
  0
CIRCLE
  5
119
330
1F
100
AcDbEntity
  8
1
  6
Continuous
 62
     2
100
AcDbCircle
 10
690.070021860046
 20
188.6285686420738
 30
0.0
 40
0.5
  0
CIRCLE
  5
11A
330
1F
100
AcDbEntity
  8
1
  6
Continuous
 62
     2
100
AcDbCircle
 10
692.070021860046
 20
187.6285686420738
 30
0.0
 40
0.5
  0
CIRCLE
  5
11B
330
1F
100
AcDbEntity
  8
1
  6
Continuous
 62
     2
100
AcDbCircle
 10
692.070021860046
 20
191.6285686420738
 30
0.0
 40
0.5
  0
CIRCLE
  5
11C
330
1F
100
AcDbEntity
  8
1
  6
Continuous
 62
     2
100
AcDbCircle
 10
689.070021860046
 20
191.6285686420738
 30
0.0
 40
0.5
  0
CIRCLE
  5
11D
330
1F
100
AcDbEntity
  8
1
  6
Continuous
 62
     2
100
AcDbCircle
 10
688.070021860046
 20
186.6285686420738
 30
0.0
 40
0.5
  0
CIRCLE
  5
11E
330
1F
100
AcDbEntity
  8
1
  6
Continuous
 62
     2
100
AcDbCircle
 10
683.070021860046
 20
186.6285686420738
 30
0.0
 40
0.5
  0
CIRCLE
  5
11F
330
1F
100
AcDbEntity
  8
1
  6
Continuous
 62
     2
100
AcDbCircle
 10
686.070021860046
 20
187.6285686420738
 30
0.0
 40
0.5
  0
CIRCLE
  5
120
330
1F
100
AcDbEntity
  8
1
  6
Continuous
 62
     2
100
AcDbCircle
 10
687.070021860046
 20
189.6285686420738
 30
0.0
 40
0.5
  0
CIRCLE
  5
121
330
1F
100
AcDbEntity
  8
1
  6
Continuous
 62
     2
100
AcDbCircle
 10
685.070021860046
 20
191.6285686420738
 30
0.0
 40
0.5
  0
CIRCLE
  5
122
330
1F
100
AcDbEntity
  8
1
  6
Continuous
 62
     2
100
AcDbCircle
 10
680.070021860046
 20
188.6285686420738
 30
0.0
 40
0.5
  0
CIRCLE
  5
123
330
1F
100
AcDbEntity
  8
1
  6
Continuous
 62
     2
100
AcDbCircle
 10
681.070021860046
 20
186.6285686420738
 30
0.0
 40
0.5
  0
CIRCLE
  5
124
330
1F
100
AcDbEntity
  8
1
  6
Continuous
 62
     2
100
AcDbCircle
 10
683.070021860046
 20
189.6285686420738
 30
0.0
 40
0.5
  0
CIRCLE
  5
125
330
1F
100
AcDbEntity
  8
1
  6
Continuous
 62
     2
100
AcDbCircle
 10
681.070021860046
 20
191.6285686420738
 30
0.0
 40
0.5
  0
CIRCLE
  5
126
330
1F
100
AcDbEntity
  8
1
  6
Continuous
 62
     2
100
AcDbCircle
 10
679.070021860046
 20
190.6285686420738
 30
0.0
 40
0.5
  0
CIRCLE
  5
127
330
1F
100
AcDbEntity
  8
1
  6
Continuous
 62
     2
100
AcDbCircle
 10
677.070021860046
 20
188.6285686420738
 30
0.0
 40
0.5
  0
CIRCLE
  5
128
330
1F
100
AcDbEntity
  8
1
  6
Continuous
 62
     2
100
AcDbCircle
 10
677.070021860046
 20
186.6285686420738
 30
0.0
 40
0.5
  0
CIRCLE
  5
129
330
1F
100
AcDbEntity
  8
1
  6
Continuous
 62
     2
100
AcDbCircle
 10
673.070021860046
 20
192.6285686420738
 30
0.0
 40
0.5
  0
CIRCLE
  5
12A
330
1F
100
AcDbEntity
  8
1
  6
Continuous
 62
     2
100
AcDbCircle
 10
674.070021860046
 20
189.6285686420738
 30
0.0
 40
0.5
  0
CIRCLE
  5
12B
330
1F
100
AcDbEntity
  8
1
  6
Continuous
 62
     2
100
AcDbCircle
 10
676.070021860046
 20
191.6285686420738
 30
0.0
 40
0.5
  0
CIRCLE
  5
12C
330
1F
100
AcDbEntity
  8
1
  6
Continuous
 62
     2
100
AcDbCircle
 10
669.070021860046
 20
191.6285686420738
 30
0.0
 40
0.5
  0
CIRCLE
  5
12D
330
1F
100
AcDbEntity
  8
1
  6
Continuous
 62
     2
100
AcDbCircle
 10
671.070021860046
 20
190.6285686420738
 30
0.0
 40
0.5
  0
CIRCLE
  5
12E
330
1F
100
AcDbEntity
  8
1
  6
Continuous
 62
     2
100
AcDbCircle
 10
672.070021860046
 20
188.6285686420738
 30
0.0
 40
0.5
  0
CIRCLE
  5
12F
330
1F
100
AcDbEntity
  8
1
  6
Continuous
 62
     2
100
AcDbCircle
 10
674.070021860046
 20
186.6285686420738
 30
0.0
 40
0.5
  0
CIRCLE
  5
130
330
1F
100
AcDbEntity
  8
1
  6
Continuous
 62
     2
100
AcDbCircle
 10
664.070021860046
 20
188.6285686420738
 30
0.0
 40
0.5
  0
CIRCLE
  5
131
330
1F
100
AcDbEntity
  8
1
  6
Continuous
 62
     2
100
AcDbCircle
 10
666.070021860046
 20
191.6285686420738
 30
0.0
 40
0.5
  0
CIRCLE
  5
132
330
1F
100
AcDbEntity
  8
1
  6
Continuous
 62
     2
100
AcDbCircle
 10
668.070021860046
 20
189.6285686420738
 30
0.0
 40
0.5
  0
CIRCLE
  5
133
330
1F
100
AcDbEntity
  8
1
  6
Continuous
 62
     2
100
AcDbCircle
 10
670.1296092702171
 20
186.6285686420738
 30
0.0
 40
0.5
  0
CIRCLE
  5
134
330
1F
100
AcDbEntity
  8
1
  6
Continuous
 62
     2
100
AcDbCircle
 10
666.070021860046
 20
187.6285686420738
 30
0.0
 40
0.5
  0
CIRCLE
  5
135
330
1F
100
AcDbEntity
  8
1
  6
Continuous
 62
     2
100
AcDbCircle
 10
664.070021860046
 20
190.6285686420738
 30
0.0
 40
0.5
  0
CIRCLE
  5
136
330
1F
100
AcDbEntity
  8
1
  6
Continuous
 62
     2
100
AcDbCircle
 10
662.070021860046
 20
186.6285686420738
 30
0.0
 40
0.5
  0
CIRCLE
  5
137
330
1F
100
AcDbEntity
  8
1
  6
Continuous
 62
     2
100
AcDbCircle
 10
661.070021860046
 20
189.6285686420738
 30
0.0
 40
0.5
  0
CIRCLE
  5
138
330
1F
100
AcDbEntity
  8
1
  6
Continuous
 62
     2
100
AcDbCircle
 10
659.070021860046
 20
192.6285686420738
 30
0.0
 40
0.5
  0
CIRCLE
  5
139
330
1F
100
AcDbEntity
  8
1
  6
Continuous
 62
     2
100
AcDbCircle
 10
656.070021860046
 20
186.6285686420738
 30
0.0
 40
0.5
  0
CIRCLE
  5
13A
330
1F
100
AcDbEntity
  8
1
  6
Continuous
 62
     2
100
AcDbCircle
 10
658.070021860046
 20
189.6285686420738
 30
0.0
 40
0.5
  0
CIRCLE
  5
13B
330
1F
100
AcDbEntity
  8
1
  6
Continuous
 62
     2
100
AcDbCircle
 10
652.070021860046
 20
186.6285686420738
 30
0.0
 40
0.5
  0
CIRCLE
  5
13C
330
1F
100
AcDbEntity
  8
1
  6
Continuous
 62
     2
100
AcDbCircle
 10
659.070021860046
 20
186.6285686420738
 30
0.0
 40
0.5
  0
CIRCLE
  5
13D
330
1F
100
AcDbEntity
  8
1
  6
Continuous
 62
     2
100
AcDbCircle
 10
655.070021860046
 20
190.6285686420738
 30
0.0
 40
0.5
  0
CIRCLE
  5
13E
330
1F
100
AcDbEntity
  8
1
  6
Continuous
 62
     2
100
AcDbCircle
 10
654.070021860046
 20
187.6285686420738
 30
0.0
 40
0.5
  0
CIRCLE
  5
13F
330
1F
100
AcDbEntity
  8
1
  6
Continuous
 62
     2
100
AcDbCircle
 10
652.070021860046
 20
188.6285686420738
 30
0.0
 40
0.5
  0
CIRCLE
  5
140
330
1F
100
AcDbEntity
  8
1
  6
Continuous
 62
     2
100
AcDbCircle
 10
652.070021860046
 20
192.6285686420738
 30
0.0
 40
0.5
  0
CIRCLE
  5
141
330
1F
100
AcDbEntity
  8
1
  6
Continuous
 62
     2
100
AcDbCircle
 10
645.070021860046
 20
186.6285686420738
 30
0.0
 40
0.5
  0
CIRCLE
  5
142
330
1F
100
AcDbEntity
  8
1
  6
Continuous
 62
     2
100
AcDbCircle
 10
642.070021860046
 20
187.6285686420738
 30
0.0
 40
0.5
  0
CIRCLE
  5
143
330
1F
100
AcDbEntity
  8
1
  6
Continuous
 62
     2
100
AcDbCircle
 10
645.070021860046
 20
189.6285686420738
 30
0.0
 40
0.5
  0
CIRCLE
  5
144
330
1F
100
AcDbEntity
  8
1
  6
Continuous
 62
     2
100
AcDbCircle
 10
643.070021860046
 20
191.6285686420738
 30
0.0
 40
0.5
  0
CIRCLE
  5
145
330
1F
100
AcDbEntity
  8
1
  6
Continuous
 62
     2
100
AcDbCircle
 10
641.070021860046
 20
190.6285686420738
 30
0.0
 40
0.5
  0
CIRCLE
  5
146
330
1F
100
AcDbEntity
  8
1
  6
Continuous
 62
     2
100
AcDbCircle
 10
607.070021860046
 20
189.6285686420738
 30
0.0
 40
0.5
  0
CIRCLE
  5
147
330
1F
100
AcDbEntity
  8
1
  6
Continuous
 62
     2
100
AcDbCircle
 10
604.307027358363
 20
188.4955516769857
 30
0.0
 40
0.5
  0
CIRCLE
  5
148
330
1F
100
AcDbEntity
  8
1
  6
Continuous
 62
     2
100
AcDbCircle
 10
604.070021860046
 20
191.6285686420738
 30
0.0
 40
0.5
  0
CIRCLE
  5
149
330
1F
100
AcDbEntity
  8
1
  6
Continuous
 62
     2
100
AcDbCircle
 10
602.070021860046
 20
189.6285686420738
 30
0.0
 40
0.5
  0
CIRCLE
  5
14A
330
1F
100
AcDbEntity
  8
1
  6
Continuous
 62
     2
100
AcDbCircle
 10
602.070021860046
 20
186.6285686420738
 30
0.0
 40
0.5
  0
CIRCLE
  5
14B
330
1F
100
AcDbEntity
  8
1
  6
Continuous
 62
     2
100
AcDbCircle
 10
599.070021860046
 20
191.6285686420738
 30
0.0
 40
0.5
  0
CIRCLE
  5
14C
330
1F
100
AcDbEntity
  8
1
  6
Continuous
 62
     2
100
AcDbCircle
 10
597.070021860046
 20
192.6285686420738
 30
0.0
 40
0.5
  0
CIRCLE
  5
14D
330
1F
100
AcDbEntity
  8
1
  6
Continuous
 62
     2
100
AcDbCircle
 10
596.070021860046
 20
189.6285686420738
 30
0.0
 40
0.5
  0
CIRCLE
  5
14E
330
1F
100
AcDbEntity
  8
1
  6
Continuous
 62
     2
100
AcDbCircle
 10
597.070021860046
 20
186.6285686420738
 30
0.0
 40
0.5
  0
CIRCLE
  5
14F
330
1F
100
AcDbEntity
  8
1
  6
Continuous
 62
     2
100
AcDbCircle
 10
598.070021860046
 20
188.6285686420738
 30
0.0
 40
0.5
  0
CIRCLE
  5
150
330
1F
100
AcDbEntity
  8
1
  6
Continuous
 62
     2
100
AcDbCircle
 10
608.070021860046
 20
191.6285686420738
 30
0.0
 40
0.5
  0
CIRCLE
  5
151
330
1F
100
AcDbEntity
  8
1
  6
Continuous
 62
     2
100
AcDbCircle
 10
607.070021860046
 20
186.6285686420738
 30
0.0
 40
0.5
  0
CIRCLE
  5
152
330
1F
100
AcDbEntity
  8
1
  6
Continuous
 62
     2
100
AcDbCircle
 10
611.070021860046
 20
191.6285686420738
 30
0.0
 40
0.5
  0
CIRCLE
  5
153
330
1F
100
AcDbEntity
  8
1
  6
Continuous
 62
     2
100
AcDbCircle
 10
609.070021860046
 20
189.6285686420738
 30
0.0
 40
0.5
  0
CIRCLE
  5
154
330
1F
100
AcDbEntity
  8
1
  6
Continuous
 62
     2
100
AcDbCircle
 10
610.070021860046
 20
186.6285686420738
 30
0.0
 40
0.5
  0
CIRCLE
  5
155
330
1F
100
AcDbEntity
  8
1
  6
Continuous
 62
     2
100
AcDbCircle
 10
614.070021860046
 20
188.6285686420738
 30
0.0
 40
0.5
  0
CIRCLE
  5
156
330
1F
100
AcDbEntity
  8
1
  6
Continuous
 62
     2
100
AcDbCircle
 10
614.070021860046
 20
191.6285686420738
 30
0.0
 40
0.5
  0
CIRCLE
  5
157
330
1F
100
AcDbEntity
  8
1
  6
Continuous
 62
     2
100
AcDbCircle
 10
612.070021860046
 20
189.6285686420738
 30
0.0
 40
0.5
  0
CIRCLE
  5
158
330
1F
100
AcDbEntity
  8
1
  6
Continuous
 62
     2
100
AcDbCircle
 10
613.070021860046
 20
186.6285686420738
 30
0.0
 40
0.5
  0
CIRCLE
  5
159
330
1F
100
AcDbEntity
  8
1
  6
Continuous
 62
     2
100
AcDbCircle
 10
617.070021860046
 20
191.6285686420738
 30
0.0
 40
0.5
  0
CIRCLE
  5
15A
330
1F
100
AcDbEntity
  8
1
  6
Continuous
 62
     2
100
AcDbCircle
 10
618.070021860046
 20
188.6285686420738
 30
0.0
 40
0.5
  0
CIRCLE
  5
15B
330
1F
100
AcDbEntity
  8
1
  6
Continuous
 62
     2
100
AcDbCircle
 10
623.070021860046
 20
191.6285686420738
 30
0.0
 40
0.5
  0
CIRCLE
  5
15C
330
1F
100
AcDbEntity
  8
1
  6
Continuous
 62
     2
100
AcDbCircle
 10
620.070021860046
 20
191.6285686420738
 30
0.0
 40
0.5
  0
CIRCLE
  5
15D
330
1F
100
AcDbEntity
  8
1
  6
Continuous
 62
     2
100
AcDbCircle
 10
621.070021860046
 20
189.6285686420738
 30
0.0
 40
0.5
  0
CIRCLE
  5
15E
330
1F
100
AcDbEntity
  8
1
  6
Continuous
 62
     2
100
AcDbCircle
 10
621.070021860046
 20
186.6285686420738
 30
0.0
 40
0.5
  0
CIRCLE
  5
15F
330
1F
100
AcDbEntity
  8
1
  6
Continuous
 62
     2
100
AcDbCircle
 10
616.070021860046
 20
186.6285686420738
 30
0.0
 40
0.5
  0
CIRCLE
  5
160
330
1F
100
AcDbEntity
  8
1
  6
Continuous
 62
     2
100
AcDbCircle
 10
626.070021860046
 20
191.6285686420738
 30
0.0
 40
0.5
  0
CIRCLE
  5
161
330
1F
100
AcDbEntity
  8
1
  6
Continuous
 62
     2
100
AcDbCircle
 10
624.070021860046
 20
189.6285686420738
 30
0.0
 40
0.5
  0
CIRCLE
  5
162
330
1F
100
AcDbEntity
  8
1
  6
Continuous
 62
     2
100
AcDbCircle
 10
624.070021860046
 20
186.6285686420738
 30
0.0
 40
0.5
  0
CIRCLE
  5
163
330
1F
100
AcDbEntity
  8
1
  6
Continuous
 62
     2
100
AcDbCircle
 10
629.070021860046
 20
191.6285686420738
 30
0.0
 40
0.5
  0
CIRCLE
  5
164
330
1F
100
AcDbEntity
  8
1
  6
Continuous
 62
     2
100
AcDbCircle
 10
632.070021860046
 20
191.6285686420738
 30
0.0
 40
0.5
  0
CIRCLE
  5
165
330
1F
100
AcDbEntity
  8
1
  6
Continuous
 62
     2
100
AcDbCircle
 10
629.070021860046
 20
188.6285686420738
 30
0.0
 40
0.5
  0
CIRCLE
  5
166
330
1F
100
AcDbEntity
  8
1
  6
Continuous
 62
     2
100
AcDbCircle
 10
627.070021860046
 20
189.6285686420738
 30
0.0
 40
0.5
  0
CIRCLE
  5
167
330
1F
100
AcDbEntity
  8
1
  6
Continuous
 62
     2
100
AcDbCircle
 10
627.070021860046
 20
187.6285686420738
 30
0.0
 40
0.5
  0
CIRCLE
  5
168
330
1F
100
AcDbEntity
  8
1
  6
Continuous
 62
     2
100
AcDbCircle
 10
634.070021860046
 20
187.6285686420738
 30
0.0
 40
0.5
  0
CIRCLE
  5
169
330
1F
100
AcDbEntity
  8
1
  6
Continuous
 62
     2
100
AcDbCircle
 10
637.070021860046
 20
188.6285686420738
 30
0.0
 40
0.5
  0
CIRCLE
  5
16A
330
1F
100
AcDbEntity
  8
1
  6
Continuous
 62
     2
100
AcDbCircle
 10
638.070021860046
 20
191.6285686420738
 30
0.0
 40
0.5
  0
CIRCLE
  5
16B
330
1F
100
AcDbEntity
  8
1
  6
Continuous
 62
     2
100
AcDbCircle
 10
635.070021860046
 20
190.6285686420738
 30
0.0
 40
0.5
  0
CIRCLE
  5
16C
330
1F
100
AcDbEntity
  8
1
  6
Continuous
 62
     2
100
AcDbCircle
 10
632.070021860046
 20
189.6285686420738
 30
0.0
 40
0.5
  0
CIRCLE
  5
16D
330
1F
100
AcDbEntity
  8
1
  6
Continuous
 62
     2
100
AcDbCircle
 10
631.070021860046
 20
186.6285686420738
 30
0.0
 40
0.5
  0
CIRCLE
  5
16E
330
1F
100
AcDbEntity
  8
1
  6
Continuous
 62
     2
100
AcDbCircle
 10
638.070021860046
 20
187.6285686420738
 30
0.0
 40
0.5
  0
CIRCLE
  5
16F
330
1F
100
AcDbEntity
  8
1
  6
Continuous
 62
     2
100
AcDbCircle
 10
601.070021860046
 20
191.6285686420738
 30
0.0
 40
0.5
  0
CIRCLE
  5
170
330
1F
100
AcDbEntity
  8
1
  6
Continuous
 62
     2
100
AcDbCircle
 10
636.070021860046
 20
186.6285686420738
 30
0.0
 40
0.5
  0
CIRCLE
  5
171
330
1F
100
AcDbEntity
  8
1
  6
Continuous
 62
     2
100
AcDbCircle
 10
640.070021860046
 20
186.6285686420738
 30
0.0
 40
0.5
  0
CIRCLE
  5
172
330
1F
100
AcDbEntity
  8
1
  6
Continuous
 62
     2
100
AcDbCircle
 10
639.070021860046
 20
189.6285686420738
 30
0.0
 40
0.5
  0
CIRCLE
  5
173
330
1F
100
AcDbEntity
  8
1
  6
Continuous
 62
     7
100
AcDbCircle
 10
685.1606808592602
 20
215.7485701722069
 30
0.0
 40
2.499999999999929
  0
CIRCLE
  5
174
330
1F
100
AcDbEntity
  8
1
  6
Continuous
 62
     7
100
AcDbCircle
 10
649.1606808592601
 20
223.2485701722067
 30
0.0
 40
2.50000000000003
  0
CIRCLE
  5
175
330
1F
100
AcDbEntity
  8
1
  6
Continuous
 62
     7
100
AcDbCircle
 10
640.6606808592601
 20
199.7485701722066
 30
0.0
 40
2.749999999999792
  0
CIRCLE
  5
176
330
1F
100
AcDbEntity
  8
1
  6
Continuous
 62
     7
100
AcDbCircle
 10
613.1606808592596
 20
215.7485701722072
 30
0.0
 40
2.499999999999929
  0
CIRCLE
  5
177
330
1F
100
AcDbEntity
  8
1
  6
Continuous
 62
     7
100
AcDbCircle
 10
657.6606808592601
 20
199.7485701722066
 30
0.0
 40
2.749999999999695
  0
SPLINE
  5
178
330
1F
100
AcDbEntity
  8
1
  6
Continuous
 62
     2
100
AcDbSpline
210
0.0
220
0.0
230
1.0
 70
     8
 71
     3
 72
    12
 73
     8
 74
     6
 42
0.0000000001
 43
0.0000000001
 44
0.00000001
 40
0.0
 40
0.0
 40
0.0
 40
0.0
 40
0.277529159979579
 40
0.5641738536599217
 40
0.8992522958634309
 40
1.29750401933171
 40
1.680834346735593
 40
1.680834346735593
 40
1.680834346735593
 40
1.680834346735593
 10
660.1606808592601
 20
269.341273009907
 30
0.0
 10
660.248624733211
 20
269.410472716678
 30
0.0
 10
660.4274010256783
 20
269.5511450166412
 30
0.0
 10
660.6285486092934
 20
269.1863970379462
 30
0.0
 10
660.9981322526017
 20
269.3505492460543
 30
0.0
 10
661.3169800680273
 20
269.6153314398523
 30
0.0
 10
661.5475814199467
 20
269.4314556791256
 30
0.0
 10
661.6606808592601
 20
269.341273009907
 30
0.0
 11
660.1606808592601
 21
269.341273009907
 31
0.0
 11
660.4117887988018
 21
269.4594560769601
 31
0.0
 11
660.6360400668519
 21
269.280916027691
 31
0.0
 11
660.9634817407627
 21
269.3520462787521
 31
0.0
 11
661.3231699886433
 21
269.5230106012937
 31
0.0
 11
661.6606808592601
 21
269.341273009907
 31
0.0
  0
ARC
  5
179
330
1F
100
AcDbEntity
  8
1
  6
Continuous
 62
     7
100
AcDbCircle
 10
676.6251469533272
 20
220.7485701722067
 30
0.0
 40
6.499999999999952
100
AcDbArc
 50
44.99999999999841
 51
89.999999999999
  0
ARC
  5
17A
330
1F
100
AcDbEntity
  8
1
  6
Continuous
 62
     7
100
AcDbCircle
 10
652.7662321347241
 20
229.2485701722067
 30
0.0
 40
1.999999999999877
100
AcDbArc
 50
-121.002719133874
 51
-90.0
  0
ARC
  5
17B
330
1F
100
AcDbEntity
  8
1
  6
Continuous
 62
     7
100
AcDbCircle
 10
641.9106808592601
 20
213.8772498286467
 30
0.0
 40
6.499999999999992
100
AcDbArc
 50
134.9999999999984
 51
180.0
  0
ARC
  5
17C
330
1F
100
AcDbEntity
  8
1
  6
Continuous
 62
     7
100
AcDbCircle
 10
679.5361017511589
 20
217.8376153743755
 30
0.0
 40
1.999999999999762
100
AcDbArc
 50
-20.37568164783217
 51
45.00000000001324
  0
ARC
  5
17D
330
1F
100
AcDbEntity
  8
1
  6
Continuous
 62
     7
100
AcDbCircle
 10
674.9682927038352
 20
216.7485701722067
 30
0.0
 40
5.999999999999908
100
AcDbArc
 50
45.0000000000048
 51
90.0000000000011
  0
ARC
  5
17E
330
1F
100
AcDbEntity
  8
1
  6
Continuous
 62
     7
100
AcDbCircle
 10
647.0969557441422
 20
211.0748504018496
 30
0.0
 40
5.499999999999948
100
AcDbArc
 50
110.9999999999987
 51
-154.0
  0
ARC
  5
17F
330
1F
100
AcDbEntity
  8
1
  6
Continuous
 62
     7
100
AcDbCircle
 10
663.2727151288492
 20
216.7485701722066
 30
0.0
 40
6.0
100
AcDbArc
 50
90.0
 51
110.9999999999996
  0
ARC
  5
180
330
1F
100
AcDbEntity
  8
1
  6
Continuous
 62
     7
100
AcDbCircle
 10
621.6962147651926
 20
220.748570172207
 30
0.0
 40
6.5
100
AcDbArc
 50
90.00000000000101
 51
135.0000000000016
  0
ARC
  5
181
330
1F
100
AcDbEntity
  8
1
  6
Continuous
 62
     7
100
AcDbCircle
 10
645.5551295837957
 20
229.248570172207
 30
0.0
 40
2.0
100
AcDbArc
 50
-90.0
 51
-58.99728086612727
  0
ARC
  5
182
330
1F
100
AcDbEntity
  8
1
  6
Continuous
 62
     7
100
AcDbCircle
 10
656.4106808592597
 20
213.877249828647
 30
0.0
 40
6.5
100
AcDbArc
 50
0.0
 51
45.00000000000178
  0
ARC
  5
183
330
1F
100
AcDbEntity
  8
1
  6
Continuous
 62
     7
100
AcDbCircle
 10
618.785259967361
 20
217.8376153743758
 30
0.0
 40
1.999999999999835
100
AcDbArc
 50
134.9999999999868
 51
-159.6243183521655
  0
ARC
  5
184
330
1F
100
AcDbEntity
  8
1
  6
Continuous
 62
     7
100
AcDbCircle
 10
623.3530690146846
 20
216.748570172207
 30
0.0
 40
5.999999999999801
100
AcDbArc
 50
89.99999999999892
 51
134.9999999999958
  0
ARC
  5
185
330
1F
100
AcDbEntity
  8
1
  6
Continuous
 62
     7
100
AcDbCircle
 10
651.2244059743776
 20
211.0748504018499
 30
0.0
 40
5.499999999999776
100
AcDbArc
 50
-26.00000000000084
 51
69.00000000000135
  0
ARC
  5
186
330
1F
100
AcDbEntity
  8
1
  6
Continuous
 62
     7
100
AcDbCircle
 10
635.0486465896706
 20
216.7485701722069
 30
0.0
 40
5.999999999999953
100
AcDbArc
 50
69.00000000000033
 51
90.0
  0
ARC
  5
187
330
1F
100
AcDbEntity
  8
1
  6
Continuous
 62
     7
100
AcDbCircle
 10
663.6606808592601
 20
201.7485701722066
 30
0.0
 40
1.0
100
AcDbArc
 50
89.99999999999349
 51
138.5903778907658
  0
ARC
  5
188
330
1F
100
AcDbEntity
  8
1
  6
DASHED
 62
     2
100
AcDbCircle
 10
663.6606808592601
 20
201.7485701722066
 30
0.0
 40
1.000000000000042
100
AcDbArc
 50
138.5903778907658
 51
180.0
  0
ARC
  5
189
330
1F
100
AcDbEntity
  8
1
  6
Continuous
 62
     7
100
AcDbCircle
 10
685.6606808592601
 20
203.7485701722066
 30
0.0
 40
1.0
100
AcDbArc
 50
-90.0
 51
0.0
  0
ARC
  5
18A
330
1F
100
AcDbEntity
  8
1
  6
DASHED
 62
     2
100
AcDbCircle
 10
656.6606808592601
 20
226.7485701722067
 30
0.0
 40
2.0
100
AcDbArc
 50
-179.9999999999967
 51
-90.0
  0
ARC
  5
18B
330
1F
100
AcDbEntity
  8
1
  6
Continuous
 62
     7
100
AcDbCircle
 10
689.6606808592601
 20
226.8366634804956
 30
0.0
 40
0.49999999999993
100
AcDbArc
 50
55.46837036532131
 51
81.98225263598243
  0
ARC
  5
18C
330
1F
100
AcDbEntity
  8
1
  6
Continuous
 62
     7
100
AcDbCircle
 10
689.6606808592601
 20
201.6606127994786
 30
0.0
 40
0.5000000000001068
100
AcDbArc
 50
-82.00000000000094
 51
0.0
  0
ARC
  5
18D
330
1F
100
AcDbEntity
  8
1
  6
Continuous
 62
     7
100
AcDbCircle
 10
689.6606808592601
 20
201.6606127994786
 30
0.0
 40
1.500000000000055
100
AcDbArc
 50
-81.99999999999513
 51
-0.00000000000326
  0
ARC
  5
18E
330
1F
100
AcDbEntity
  8
1
  6
Continuous
 62
     7
100
AcDbCircle
 10
689.6606808592601
 20
226.8365275449464
 30
0.0
 40
1.499999999999949
100
AcDbArc
 50
15.9438440404123
 51
81.99999999999469
  0
ARC
  5
18F
330
1F
100
AcDbEntity
  8
1
  6
DASHED
 62
     2
100
AcDbCircle
 10
661.3640278570554
 20
206.7840857666771
 30
0.0
 40
2.000000000000061
100
AcDbArc
 50
-164.9999999999993
 51
-74.99999999999926
  0
ARC
  5
190
330
1F
100
AcDbEntity
  8
1
  6
DASHED
 62
     2
100
AcDbCircle
 10
660.0699326315428
 20
211.6137148981224
 30
0.0
 40
1.999999999999979
100
AcDbArc
 50
105.0000000000014
 51
-164.9999999999993
  0
ARC
  5
191
330
1F
100
AcDbEntity
  8
1
  6
Continuous
 62
     7
100
AcDbCircle
 10
687.6606808592601
 20
222.7485701722066
 30
0.0
 40
2.0
100
AcDbArc
 50
0.0
 51
90.0
  0
ARC
  5
192
330
1F
100
AcDbEntity
  8
1
  6
Continuous
 62
     7
100
AcDbCircle
 10
688.6606808592602
 20
210.319744737479
 30
0.0
 40
1.00000000000003
100
AcDbArc
 50
-74.99999999999926
 51
0.00000000000651
  0
ARC
  5
193
330
1F
100
AcDbEntity
  8
1
  6
Continuous
 62
     7
100
AcDbCircle
 10
689.6606808592601
 20
226.8366634804956
 30
0.0
 40
0.5
100
AcDbArc
 50
0.0
 51
55.46837036532131
  0
ARC
  5
194
330
1F
100
AcDbEntity
  8
1
  6
Continuous
 62
     7
100
AcDbCircle
 10
689.6606808592601
 20
226.8365275449464
 30
0.0
 40
1.5
100
AcDbArc
 50
0.0
 51
15.9438440404123
  0
ARC
  5
195
330
1F
100
AcDbEntity
  8
1
  6
DASHED
 62
     2
100
AcDbCircle
 10
633.6606808592599
 20
200.4985701722066
 30
0.0
 40
2.0
100
AcDbArc
 50
0.0000000000057
 51
28.95502437184097
  0
ARC
  5
196
330
1F
100
AcDbEntity
  8
1
  6
Continuous
 62
     7
100
AcDbCircle
 10
633.6606808592599
 20
200.4985701722066
 30
0.0
 40
2.000000000000025
100
AcDbArc
 50
28.95502437184097
 51
89.99999999999675
  0
ARC
  5
197
330
1F
100
AcDbEntity
  8
1
  6
Continuous
 62
     7
100
AcDbCircle
 10
610.1606808592601
 20
222.4985701722066
 30
0.0
 40
2.0
100
AcDbArc
 50
90.0
 51
180.0
  0
ARC
  5
198
330
1F
100
AcDbEntity
  8
1
  6
DASHED
 62
     2
100
AcDbCircle
 10
640.6606808592601
 20
226.4985701722066
 30
0.0
 40
2.0
100
AcDbArc
 50
-90.0
 51
0.0
  0
ARC
  5
199
330
1F
100
AcDbEntity
  8
1
  6
Continuous
 62
     7
100
AcDbCircle
 10
610.1606808592601
 20
204.4985701722066
 30
0.0
 40
2.0
100
AcDbArc
 50
180.0
 51
-90.0
  0
ARC
  5
19A
330
1F
100
AcDbEntity
  8
1
  6
Continuous
 62
     7
100
AcDbCircle
 10
607.1606808592601
 20
226.8365275449462
 30
0.0
 40
0.5000000000003161
100
AcDbArc
 50
97.99999999998255
 51
179.9999999999642
  0
ARC
  5
19B
330
1F
100
AcDbEntity
  8
1
  6
Continuous
 62
     7
100
AcDbCircle
 10
607.1606808592601
 20
201.6606127994668
 30
0.0
 40
0.5
100
AcDbArc
 50
180.0
 51
-97.99999999998752
  0
ARC
  5
19C
330
1F
100
AcDbEntity
  8
1
  6
DASHED
 62
     2
100
AcDbCircle
 10
638.7514290869774
 20
211.4797403019068
 30
0.0
 40
1.999999999999929
100
AcDbArc
 50
-14.99999999999923
 51
74.99999999999864
  0
ARC
  5
19D
330
1F
100
AcDbEntity
  8
1
  6
DASHED
 62
     2
100
AcDbCircle
 10
637.4573338614648
 20
206.6501111704614
 30
0.0
 40
1.999999999999979
100
AcDbArc
 50
-105.0000000000014
 51
-14.99999999999687
  0
ARC
  5
19E
330
1F
100
AcDbEntity
  8
1
  6
Continuous
 62
     7
100
AcDbCircle
 10
646.6606808592601
 20
250.2485701722063
 30
0.0
 40
1.500000000000085
100
AcDbArc
 50
90.0
 51
179.9999999999924
  0
ARC
  5
19F
330
1F
100
AcDbEntity
  8
1
  6
Continuous
 62
     7
100
AcDbCircle
 10
647.1606808592601
 20
249.7485701722065
 30
0.0
 40
0.5000000000000853
100
AcDbArc
 50
90.0
 51
180.0
  0
ARC
  5
1A0
330
1F
100
AcDbEntity
  8
1
  6
Continuous
 62
     7
100
AcDbCircle
 10
659.6606808592601
 20
238.7485701722064
 30
0.0
 40
1.999999999999886
100
AcDbArc
 50
-90.0
 51
0.00000000000326
  0
ARC
  5
1A1
330
1F
100
AcDbEntity
  8
1
  6
Continuous
 62
     7
100
AcDbCircle
 10
657.6498175071224
 20
238.7485701722064
 30
0.0
 40
1.999999999999752
100
AcDbArc
 50
-109.1881364537256
 51
-90.0
  0
ARC
  5
1A2
330
1F
100
AcDbEntity
  8
1
  6
Continuous
 62
     7
100
AcDbCircle
 10
659.1606808592601
 20
239.2485701722065
 30
0.0
 40
1.0
100
AcDbArc
 50
-90.0
 51
0.0
  0
ARC
  5
1A3
330
1F
100
AcDbEntity
  8
1
  6
Continuous
 62
     7
100
AcDbCircle
 10
658.3014301935432
 20
239.2485701722065
 30
0.0
 40
1.000000000000213
100
AcDbArc
 50
165.0000000000105
 51
-90.0
  0
ARC
  5
1A4
330
1F
100
AcDbEntity
  8
1
  6
Continuous
 62
     7
100
AcDbCircle
 10
658.6606808592601
 20
250.2485701722064
 30
0.0
 40
1.500000000000046
100
AcDbArc
 50
-15.00000000000074
 51
90.0
  0
ARC
  5
1A5
330
1F
100
AcDbEntity
  8
1
  6
Continuous
 62
     7
100
AcDbCircle
 10
658.0090681728395
 20
249.7485701722065
 30
0.0
 40
0.5000000000000226
100
AcDbArc
 50
-15.00000000000389
 51
90.0
  0
ARC
  5
1A6
330
1F
100
AcDbEntity
  8
1
  6
Continuous
 62
     7
100
AcDbCircle
 10
657.6498175071224
 20
238.7485701722064
 30
0.0
 40
1.999999999999849
100
AcDbArc
 50
164.9999999999968
 51
-109.1881364537256
  0
ARC
  5
1A7
330
1F
100
AcDbEntity
  8
1
  6
Continuous
 62
     7
100
AcDbCircle
 10
657.6498175071224
 20
238.7485701722064
 30
0.0
 40
3.000000000000084
100
AcDbArc
 50
164.9999999999998
 51
-109.1881364537211
  0
ARC
  5
1A8
330
1F
100
AcDbEntity
  8
1
  6
Continuous
 62
     7
100
AcDbCircle
 10
601.1606808592596
 20
195.7485701722067
 30
0.0
 40
1.0
100
AcDbArc
 50
-179.9999999999935
 51
-90.0
  0
ARC
  5
1A9
330
1F
100
AcDbEntity
  8
1
  6
Continuous
 62
     7
100
AcDbCircle
 10
601.1606808592596
 20
195.7485701722067
 30
0.0
 40
2.5
100
AcDbArc
 50
-179.9999999999974
 51
-90.0
  0
ARC
  5
1AA
330
1F
100
AcDbEntity
  8
1
  6
Continuous
 62
     7
100
AcDbCircle
 10
605.16068085926
 20
230.2485701722067
 30
0.0
 40
0.5
100
AcDbArc
 50
90.0
 51
180.0
  0
ARC
  5
1AB
330
1F
100
AcDbEntity
  8
1
  6
Continuous
 62
     7
100
AcDbCircle
 10
605.16068085926
 20
230.2485701722067
 30
0.0
 40
3.0
100
AcDbArc
 50
90.0
 51
180.0
  0
ARC
  5
1AC
330
1F
100
AcDbEntity
  8
1
  6
Continuous
 62
     7
100
AcDbCircle
 10
644.1606808592601
 20
195.7485701722067
 30
0.0
 40
2.500000000000114
100
AcDbArc
 50
-90.0
 51
-30.00000000000345
  0
ARC
  5
1AD
330
1F
100
AcDbEntity
  8
1
  6
Continuous
 62
     7
100
AcDbCircle
 10
633.16068085926
 20
198.2485701722066
 30
0.0
 40
0.4999999999998863
100
AcDbArc
 50
-90.0
 51
0.0
  0
ARC
  5
1AE
330
1F
100
AcDbEntity
  8
1
  6
Continuous
 62
     7
100
AcDbCircle
 10
633.16068085926
 20
198.2485701722066
 30
0.0
 40
3.499999999999886
100
AcDbArc
 50
-90.0
 51
-44.41530859718713
  0
DIMENSION
  5
1BB
330
1F
100
AcDbEntity
  8
1
100
AcDbDimension
  2
*D1
 10
598.6606808592596
 20
160.926499169594
 30
0.0
 11
622.735561678373
 21
164.676499169594
 31
0.0
 70
    32
  1
<>
 71
     5
 42
-1.0
 53
0.00013888888889
  3
ME10_DIM_10
100
AcDbAlignedDimension
 13
646.6606808592601
 23
193.2485701722066
 33
0.0
 14
598.6606808592596
 24
203.2485701722067
 34
0.0
100
AcDbRotatedDimension
  0
DIMENSION
  5
1C7
330
1F
100
AcDbEntity
  8
1
100
AcDbDimension
  2
*D2
 10
650.1606808592601
 20
160.926499169594
 30
0.0
 11
670.300518090493
 21
164.676499169594
 31
0.0
 70
    32
  1
<>
 71
     5
 42
-1.0
 53
0.00013888888889
  3
ME10_DIM_11
100
AcDbAlignedDimension
 13
693.6606808592602
 23
198.2485701722183
 33
0.0
 14
650.1606808592601
 24
193.2485701722067
 34
0.0
100
AcDbRotatedDimension
  0
DIMENSION
  5
1D2
330
1F
100
AcDbEntity
  8
1
100
AcDbDimension
  2
*D3
 10
715.624538565575
 20
230.2485701722067
 30
0.0
 11
711.874538565575
 21
214.931320047857
 31
0.0
 70
    32
  1
<>
 71
     5
 42
-1.0
 53
90.0
  3
ME10_DIM_12
100
AcDbAlignedDimension
 13
693.6606808592602
 23
198.2485701722183
 33
0.0
 14
693.6606808592602
 24
230.2485701722067
 34
0.0
 50
90.0
100
AcDbRotatedDimension
  0
DIMENSION
  5
1DD
330
1F
100
AcDbEntity
  8
1
100
AcDbDimension
  2
*D4
 10
650.1606808592601
 20
174.550866435993
 30
0.0
 11
670.9549034532728
 21
178.300866435993
 31
0.0
 70
    32
  1
<>
 71
     5
 42
-1.0
 53
0.00013888888889
  3
ME10_DIM_13
100
AcDbAlignedDimension
 13
691.1606808592601
 23
201.6606127994785
 33
0.0
 14
650.1606808592601
 24
185.2485701722064
 34
0.0
100
AcDbRotatedDimension
  0
DIMENSION
  5
1E8
330
1F
100
AcDbEntity
  8
1
100
AcDbDimension
  2
*D5
 10
585.138730769708
 20
198.2485701722066
 30
0.0
 11
581.388730769708
 21
214.931320047857
 31
0.0
 70
    32
  1
<>
 71
     5
 42
-1.0
 53
90.0
  3
ME10_DIM_14
100
AcDbAlignedDimension
 13
620.6606808592618
 23
230.2485701722066
 33
0.0
 14
620.6606808592601
 24
198.2485701722066
 34
0.0
 50
90.0
100
AcDbRotatedDimension
  0
DIMENSION
  5
1F3
330
1F
100
AcDbEntity
  8
1
100
AcDbDimension
  2
*D6
 10
646.6606808592601
 20
174.550866435993
 30
0.0
 11
624.803250099218
 21
178.300866435993
 31
0.0
 70
    32
  1
<>
 71
     5
 42
-1.0
 53
0.00013888888889
  3
ME10_DIM_15
100
AcDbAlignedDimension
 13
605.6606808592601
 23
201.6606127994669
 33
0.0
 14
646.6606808592601
 24
193.2485701722066
 34
0.0
100
AcDbRotatedDimension
  0
DIMENSION
  5
1FE
330
1F
100
AcDbEntity
  8
1
100
AcDbDimension
  2
*D7
 10
725.315366366601
 20
230.2485701722067
 30
0.0
 11
721.565366366601
 21
211.21345676882
 31
0.0
 70
    32
  1
<>
 71
     5
 42
-1.0
 53
90.0
  3
ME10_DIM_16
100
AcDbAlignedDimension
 13
705.1606808592601
 23
193.2485701722066
 33
0.0
 14
693.6606808592602
 24
230.2485701722067
 34
0.0
 50
90.0
100
AcDbRotatedDimension
  0
DIMENSION
  5
20B
330
1F
100
AcDbEntity
  8
1
100
AcDbDimension
  2
*D8
 10
725.315366366601
 20
193.2485701722066
 30
0.0
 11
721.565366366601
 21
189.148538986395
 31
0.0
 70
    32
  1
<>
 71
     5
 42
-1.0
 53
90.0
  3
ME10_DIM_17
100
AcDbAlignedDimension
 13
705.1606808592601
 23
185.2485701722064
 33
0.0
 14
705.1606808592601
 24
193.2485701722066
 34
0.0
 50
90.0
100
AcDbRotatedDimension
  0
DIMENSION
  5
216
330
1F
100
AcDbEntity
  8
1
100
AcDbDimension
  2
*D9
 10
574.579713236376
 20
230.2485701722066
 30
0.0
 11
570.829713236376
 21
211.21345676882
 31
0.0
 70
    32
  1
<>
 71
     5
 42
-1.0
 53
90.0
  3
ME10_DIM_18
100
AcDbAlignedDimension
 13
594.838407179133
 23
193.2485701722066
 33
0.0
 14
620.6606808592618
 24
230.2485701722066
 34
0.0
 50
90.0
100
AcDbRotatedDimension
  0
DIMENSION
  5
223
330
1F
100
AcDbEntity
  8
1
100
AcDbDimension
  2
*D10
 10
574.579713236376
 20
193.2485701722066
 30
0.0
 11
570.829713236376
 21
189.617437895479
 31
0.0
 70
    32
  1
<>
 71
     5
 42
-1.0
 53
90.0
  3
ME10_DIM_19
100
AcDbAlignedDimension
 13
594.838407179133
 23
185.2485701722064
 33
0.0
 14
594.838407179133
 24
193.2485701722066
 34
0.0
 50
90.0
100
AcDbRotatedDimension
  0
DIMENSION
  5
230
330
1F
100
AcDbEntity
  8
1
100
AcDbDimension
  2
*D11
 10
646.6606808592601
 20
174.550866435993
 30
0.0
 11
648.170216205349
 21
170.371188251483
 31
0.0
 70
    32
  1
<>
 71
     5
 42
-1.0
 53
0.00013888888889
  3
ME10_DIM_20
100
AcDbAlignedDimension
 13
650.1606808592601
 23
185.2485701722064
 33
0.0
 14
646.6606808592601
 24
187.2485701722066
 34
0.0
100
AcDbRotatedDimension
  0
ENDSEC
  0
SECTION
  2
OBJECTS
  0
DICTIONARY
  5
C
330
0
100
AcDbDictionary
281
     1
  3
ACAD_GROUP
350
D
  3
ACAD_LAYOUT
350
1A
  3
ACAD_MLINESTYLE
350
17
  3
ACAD_PLOTSETTINGS
350
19
  3
ACAD_PLOTSTYLENAME
350
E
  0
DICTIONARY
  5
D
102
{ACAD_REACTORS
330
C
102
}
330
C
100
AcDbDictionary
281
     1
  0
DICTIONARY
  5
1A
102
{ACAD_REACTORS
330
C
102
}
330
C
100
AcDbDictionary
281
     1
  3
Layout1
350
1E
  3
Layout2
350
26
  3
Model
350
22
  0
DICTIONARY
  5
17
102
{ACAD_REACTORS
330
C
102
}
330
C
100
AcDbDictionary
281
     1
  3
Standard
350
18
  0
DICTIONARY
  5
19
102
{ACAD_REACTORS
330
C
102
}
330
C
100
AcDbDictionary
281
     1
  0
ACDBDICTIONARYWDFLT
  5
E
102
{ACAD_REACTORS
330
C
102
}
330
C
100
AcDbDictionary
281
     1
  3
Normal
350
F
100
AcDbDictionaryWithDefault
340
F
  0
LAYOUT
  5
1E
102
{ACAD_REACTORS
330
1A
102
}
330
1A
100
AcDbPlotSettings
  1

  2

  4

  6

 40
0.0
 41
0.0
 42
0.0
 43
0.0
 44
0.0
 45
0.0
 46
0.0
 47
0.0
 48
0.0
 49
0.0
140
0.0
141
0.0
142
1.0
143
1.0
 70
   688
 72
     0
 73
     0
 74
     5
  7

 75
    16
 76
     0
 77
     2
 78
   300
147
1.0
148
0.0
149
0.0
100
AcDbLayout
  1
Layout1
 70
     1
 71
     1
 10
0.0
 20
0.0
 11
0.0
 21
0.0
 12
0.0
 22
0.0
 32
0.0
 14
0.0
 24
0.0
 34
0.0
 15
0.0
 25
0.0
 35
0.0
146
0.0
 13
0.0
 23
0.0
 33
0.0
 16
1.0
 26
0.0
 36
0.0
 17
0.0
 27
1.0
 37
0.0
 76
     0
330
1B
  0
LAYOUT
  5
26
102
{ACAD_REACTORS
330
1A
102
}
330
1A
100
AcDbPlotSettings
  1

  2

  4

  6

 40
0.0
 41
0.0
 42
0.0
 43
0.0
 44
0.0
 45
0.0
 46
0.0
 47
0.0
 48
0.0
 49
0.0
140
0.0
141
0.0
142
1.0
143
1.0
 70
   688
 72
     0
 73
     0
 74
     5
  7

 75
    16
 76
     0
 77
     2
 78
   300
147
1.0
148
0.0
149
0.0
100
AcDbLayout
  1
Layout2
 70
     1
 71
     2
 10
0.0
 20
0.0
 11
0.0
 21
0.0
 12
0.0
 22
0.0
 32
0.0
 14
0.0
 24
0.0
 34
0.0
 15
0.0
 25
0.0
 35
0.0
146
0.0
 13
0.0
 23
0.0
 33
0.0
 16
1.0
 26
0.0
 36
0.0
 17
0.0
 27
1.0
 37
0.0
 76
     0
330
23
  0
LAYOUT
  5
22
102
{ACAD_REACTORS
330
1A
102
}
330
1A
100
AcDbPlotSettings
  1

  2

  4

  6

 40
0.0
 41
0.0
 42
0.0
 43
0.0
 44
0.0
 45
0.0
 46
0.0
 47
0.0
 48
0.0
 49
0.0
140
0.0
141
0.0
142
1.0
143
1.0
 70
  1712
 72
     0
 73
     0
 74
     0
  7

 75
     0
 76
     0
 77
     2
 78
   300
147
1.0
148
0.0
149
0.0
100
AcDbLayout
  1
Model
 70
     1
 71
     0
 10
0.0
 20
0.0
 11
0.0
 21
0.0
 12
0.0
 22
0.0
 32
0.0
 14
569.079713236376
 24
158.926499169594
 34
0.0
 15
727.315366366601
 25
269.5374132848522
 35
0.0
146
0.0
 13
0.0
 23
0.0
 33
0.0
 16
1.0
 26
0.0
 36
0.0
 17
0.0
 27
1.0
 37
0.0
 76
     0
330
1F
  0
MLINESTYLE
  5
18
102
{ACAD_REACTORS
330
17
102
}
330
17
100
AcDbMlineStyle
  2
Standard
 70
     0
  3

 62
   256
 51
90.0
 52
90.0
 71
     2
 49
0.5
 62
   256
  6
BYLAYER
 49
-0.5
 62
   256
  6
BYLAYER
  0
ACDBPLACEHOLDER
  5
F
102
{ACAD_REACTORS
330
E
102
}
330
E
  0
ENDSEC
  0
EOF
