  0
SECTION
  2
HEADER
  9
$ACADVER
  1
AC1018
  9
$ACADMAINTVER
 70
     0
  9
$DWGCODEPAGE
  3
ANSI_1252
  9
$INSBASE
 10
0.0
 20
0.0
 30
0.0
  9
$EXTMIN
 10
-227.4005926546524
 20
-199.2437354523227
 30
0.0
  9
$EXTMAX
 10
182.5994073453476
 20
86.75626454767735
 30
0.0
  9
$LIMMIN
 10
0.0
 20
0.0
  9
$LIMMAX
 10
12.0
 20
9.0
  9
$ORTHOMODE
 70
     0
  9
$REGENMODE
 70
     1
  9
$FILLMODE
 70
     1
  9
$QTEXTMODE
 70
     0
  9
$MIRRTEXT
 70
     1
  9
$LTSCALE
 40
1.0
  9
$ATTMODE
 70
     1
  9
$TEXTSIZE
 40
0.2
  9
$TRACEWID
 40
0.05
  9
$TEXTSTYLE
  7
Standard
  9
$CLAYER
  8
0
  9
$CELTYPE
  6
ByLayer
  9
$CECOLOR
 62
   256
  9
$CELTSCALE
 40
1.0
  9
$DISPSILH
 70
     0
  9
$DIMSCALE
 40
1.0
  9
$DIMASZ
 40
0.18
  9
$DIMEXO
 40
0.0625
  9
$DIMDLI
 40
0.38
  9
$DIMRND
 40
0.0
  9
$DIMDLE
 40
0.0
  9
$DIMEXE
 40
0.18
  9
$DIMTP
 40
0.0
  9
$DIMTM
 40
0.0
  9
$DIMTXT
 40
0.18
  9
$DIMCEN
 40
0.09
  9
$DIMTSZ
 40
0.0
  9
$DIMTOL
 70
     0
  9
$DIMLIM
 70
     0
  9
$DIMTIH
 70
     1
  9
$DIMTOH
 70
     1
  9
$DIMSE1
 70
     0
  9
$DIMSE2
 70
     0
  9
$DIMTAD
 70
     0
  9
$DIMZIN
 70
     0
  9
$DIMBLK
  1

  9
$DIMASO
 70
     1
  9
$DIMSHO
 70
     1
  9
$DIMPOST
  1

  9
$DIMAPOST
  1

  9
$DIMALT
 70
     0
  9
$DIMALTD
 70
     2
  9
$DIMALTF
 40
25.4
  9
$DIMLFAC
 40
1.0
  9
$DIMTOFL
 70
     0
  9
$DIMTVP
 40
0.0
  9
$DIMTIX
 70
     0
  9
$DIMSOXD
 70
     0
  9
$DIMSAH
 70
     0
  9
$DIMBLK1
  1

  9
$DIMBLK2
  1

  9
$DIMSTYLE
  2
Standard
  9
$DIMCLRD
 70
     0
  9
$DIMCLRE
 70
     0
  9
$DIMCLRT
 70
     0
  9
$DIMTFAC
 40
1.0
  9
$DIMGAP
 40
0.09
  9
$DIMJUST
 70
     0
  9
$DIMSD1
 70
     0
  9
$DIMSD2
 70
     0
  9
$DIMTOLJ
 70
     1
  9
$DIMTZIN
 70
     0
  9
$DIMALTZ
 70
     0
  9
$DIMALTTZ
 70
     0
  9
$DIMUPT
 70
     0
  9
$DIMDEC
 70
     4
  9
$DIMTDEC
 70
     4
  9
$DIMALTU
 70
     2
  9
$DIMALTTD
 70
     2
  9
$DIMTXSTY
  7
Standard
  9
$DIMAUNIT
 70
     0
  9
$DIMADEC
 70
     0
  9
$DIMALTRND
 40
0.0
  9
$DIMAZIN
 70
     0
  9
$DIMDSEP
 70
    46
  9
$DIMATFIT
 70
     3
  9
$DIMFRAC
 70
     0
  9
$DIMLDRBLK
  1

  9
$DIMLUNIT
 70
     2
  9
$DIMLWD
 70
    -2
  9
$DIMLWE
 70
    -2
  9
$DIMTMOVE
 70
     0
  9
$LUNITS
 70
     2
  9
$LUPREC
 70
     4
  9
$SKETCHINC
 40
0.1
  9
$FILLETRAD
 40
0.5
  9
$AUNITS
 70
     0
  9
$AUPREC
 70
     0
  9
$MENU
  1
.
  9
$ELEVATION
 40
0.0
  9
$PELEVATION
 40
0.0
  9
$THICKNESS
 40
0.0
  9
$LIMCHECK
 70
     0
  9
$CHAMFERA
 40
0.5
  9
$CHAMFERB
 40
0.5
  9
$CHAMFERC
 40
1.0
  9
$CHAMFERD
 40
0.0
  9
$SKPOLY
 70
     0
  9
$TDCREATE
 40
2454942.456140347
  9
$TDUCREATE
 40
2454942.372807014
  9
$TDUPDATE
 40
2454942.456140359
  9
$TDUUPDATE
 40
2454942.372807025
  9
$TDINDWG
 40
0.0000000116
  9
$TDUSRTIMER
 40
0.0000000116
  9
$USRTIMER
 70
     1
  9
$ANGBASE
 50
0.0
  9
$ANGDIR
 70
     0
  9
$PDMODE
 70
     0
  9
$PDSIZE
 40
0.0
  9
$PLINEWID
 40
0.0
  9
$SPLFRAME
 70
     0
  9
$SPLINETYPE
 70
     6
  9
$SPLINESEGS
 70
     8
  9
$HANDSEED
  5
430
  9
$SURFTAB1
 70
     6
  9
$SURFTAB2
 70
     6
  9
$SURFTYPE
 70
     6
  9
$SURFU
 70
     6
  9
$SURFV
 70
     6
  9
$UCSBASE
  2

  9
$UCSNAME
  2

  9
$UCSORG
 10
0.0
 20
0.0
 30
0.0
  9
$UCSXDIR
 10
1.0
 20
0.0
 30
0.0
  9
$UCSYDIR
 10
0.0
 20
1.0
 30
0.0
  9
$UCSORTHOREF
  2

  9
$UCSORTHOVIEW
 70
     0
  9
$UCSORGTOP
 10
0.0
 20
0.0
 30
0.0
  9
$UCSORGBOTTOM
 10
0.0
 20
0.0
 30
0.0
  9
$UCSORGLEFT
 10
0.0
 20
0.0
 30
0.0
  9
$UCSORGRIGHT
 10
0.0
 20
0.0
 30
0.0
  9
$UCSORGFRONT
 10
0.0
 20
0.0
 30
0.0
  9
$UCSORGBACK
 10
0.0
 20
0.0
 30
0.0
  9
$PUCSBASE
  2

  9
$PUCSNAME
  2

  9
$PUCSORG
 10
0.0
 20
0.0
 30
0.0
  9
$PUCSXDIR
 10
1.0
 20
0.0
 30
0.0
  9
$PUCSYDIR
 10
0.0
 20
1.0
 30
0.0
  9
$PUCSORTHOREF
  2

  9
$PUCSORTHOVIEW
 70
     0
  9
$PUCSORGTOP
 10
0.0
 20
0.0
 30
0.0
  9
$PUCSORGBOTTOM
 10
0.0
 20
0.0
 30
0.0
  9
$PUCSORGLEFT
 10
0.0
 20
0.0
 30
0.0
  9
$PUCSORGRIGHT
 10
0.0
 20
0.0
 30
0.0
  9
$PUCSORGFRONT
 10
0.0
 20
0.0
 30
0.0
  9
$PUCSORGBACK
 10
0.0
 20
0.0
 30
0.0
  9
$USERI1
 70
     0
  9
$USERI2
 70
     0
  9
$USERI3
 70
     0
  9
$USERI4
 70
     0
  9
$USERI5
 70
     0
  9
$USERR1
 40
14.5
  9
$USERR2
 40
0.0
  9
$USERR3
 40
0.0
  9
$USERR4
 40
0.0
  9
$USERR5
 40
0.0
  9
$WORLDVIEW
 70
     1
  9
$SHADEDGE
 70
     3
  9
$SHADEDIF
 70
    70
  9
$TILEMODE
 70
     1
  9
$MAXACTVP
 70
    64
  9
$PINSBASE
 10
0.0
 20
0.0
 30
0.0
  9
$PLIMCHECK
 70
     0
  9
$PEXTMIN
 10
1.00000000000000E+20
 20
1.00000000000000E+20
 30
1.00000000000000E+20
  9
$PEXTMAX
 10
-1.00000000000000E+20
 20
-1.00000000000000E+20
 30
-1.00000000000000E+20
  9
$PLIMMIN
 10
0.0
 20
0.0
  9
$PLIMMAX
 10
12.0
 20
9.0
  9
$UNITMODE
 70
     0
  9
$VISRETAIN
 70
     1
  9
$PLINEGEN
 70
     0
  9
$PSLTSCALE
 70
     1
  9
$TREEDEPTH
 70
  3020
  9
$CMLSTYLE
  2
Standard
  9
$CMLJUST
 70
     0
  9
$CMLSCALE
 40
1.0
  9
$PROXYGRAPHICS
 70
     1
  9
$MEASUREMENT
 70
     1
  9
$CELWEIGHT
370
    -1
  9
$ENDCAPS
280
     0
  9
$JOINSTYLE
280
     0
  9
$LWDISPLAY
290
     0
  9
$INSUNITS
 70
     1
  9
$HYPERLINKBASE
  1

  9
$STYLESHEET
  1

  9
$XEDIT
290
     1
  9
$CEPSNTYPE
380
     0
  9
$PSTYLEMODE
290
     1
  9
$FINGERPRINTGUID
  2
{8C4E1DDA-47BC-44A0-A611-7A8A7FD9B0E4}
  9
$VERSIONGUID
  2
{FAEB1C32-E019-11D5-929B-00C0DF256EC4}
  9
$EXTNAMES
290
     1
  9
$PSVPSCALE
 40
0.0
  9
$OLESTARTUP
290
     0
  9
$SORTENTS
280
   127
  9
$INDEXCTL
280
     0
  9
$HIDETEXT
280
     1
  9
$XCLIPFRAME
290
     0
  9
$HALOGAP
280
     0
  9
$OBSCOLOR
 70
   257
  9
$OBSLTYPE
280
     0
  9
$INTERSECTIONDISPLAY
280
     0
  9
$INTERSECTIONCOLOR
 70
   257
  9
$DIMASSOC
280
     2
  9
$PROJECTNAME
  1

  0
ENDSEC
  0
SECTION
  2
CLASSES
  0
CLASS
  1
ACDBDICTIONARYWDFLT
  2
AcDbDictionaryWithDefault
  3
ObjectDBX Classes
 90
        0
 91
        3
280
     0
281
     0
  0
CLASS
  1

  2
exOdDbCircle
  3

 90
        0
 91
        3
280
     0
281
     1
  0
CLASS
  1

  2
exOdDbSpline
  3

 90
        0
 91
        3
280
     0
281
     1
  0
ENDSEC
  0
SECTION
  2
TABLES
  0
TABLE
  2
VPORT
  5
8
330
0
100
AcDbSymbolTable
 70
     1
  0
VPORT
  5
29
330
8
100
AcDbSymbolTableRecord
100
AcDbViewportTableRecord
  2
*Active
 70
     0
 10
0.0
 20
0.0
 11
1.0
 21
1.0
 12
-22.4005926546524
 22
-56.24373545232268
 13
0.0
 23
0.0
 14
0.5
 24
0.5
 15
0.5
 25
0.5
 16
0.0
 26
0.0
 36
1.0
 17
0.0
 27
0.0
 37
0.0
 40
314.6000000000001
 41
1.60267857142857
 42
50.0
 43
0.0
 44
0.0
 50
0.0
 51
0.0
 71
     0
 72
   100
 73
     1
 74
     3
 75
     0
 76
     0
 77
     0
 78
     0
281
     0
 65
     1
110
0.0
120
0.0
130
0.0
111
1.0
121
0.0
131
0.0
112
0.0
122
1.0
132
0.0
 79
     0
146
0.0
  0
ENDTAB
  0
TABLE
  2
LTYPE
  5
5
330
0
100
AcDbSymbolTable
 70
     9
  0
LTYPE
  5
14
330
5
100
AcDbSymbolTableRecord
100
AcDbLinetypeTableRecord
  2
ByBlock
 70
     0
  3

 72
    65
 73
     0
 40
0.0
  0
LTYPE
  5
15
330
5
100
AcDbSymbolTableRecord
100
AcDbLinetypeTableRecord
  2
ByLayer
 70
     0
  3

 72
    65
 73
     0
 40
0.0
  0
LTYPE
  5
16
330
5
100
AcDbSymbolTableRecord
100
AcDbLinetypeTableRecord
  2
Continuous
 70
     0
  3
Solid line
 72
    65
 73
     0
 40
0.0
  0
LTYPE
  5
2A
330
5
100
AcDbSymbolTableRecord
100
AcDbLinetypeTableRecord
  2
DASHED
 70
     0
  3
Dashed
 72
    65
 73
     2
 40
15.0
 49
7.0
 74
     0
 49
-8.0
 74
     0
  0
LTYPE
  5
2B
330
5
100
AcDbSymbolTableRecord
100
AcDbLinetypeTableRecord
  2
DOTTED
 70
     0
  3
Dotted
 72
    65
 73
     2
 40
1.0
 49
0.0
 74
     0
 49
-1.0
 74
     0
  0
LTYPE
  5
2C
330
5
100
AcDbSymbolTableRecord
100
AcDbLinetypeTableRecord
  2
DOT_CENTER
 70
     0
  3
Dot_Center
 72
    65
 73
     4
 40
14.0
 49
12.0
 74
     0
 49
-1.0
 74
     0
 49
0.0
 74
     0
 49
-1.0
 74
     0
  0
LTYPE
  5
2D
330
5
100
AcDbSymbolTableRecord
100
AcDbLinetypeTableRecord
  2
LONG_DASHED
 70
     0
  3
Long_Dashed
 72
    65
 73
     2
 40
15.0
 49
10.0
 74
     0
 49
-5.0
 74
     0
  0
LTYPE
  5
2E
330
5
100
AcDbSymbolTableRecord
100
AcDbLinetypeTableRecord
  2
DASH_CENTER
 70
     0
  3
Dash_Center
 72
    65
 73
     4
 40
14.0
 49
11.0
 74
     0
 49
-1.0
 74
     0
 49
1.0
 74
     0
 49
-1.0
 74
     0
  0
LTYPE
  5
2F
330
5
100
AcDbSymbolTableRecord
100
AcDbLinetypeTableRecord
  2
PHANTOM
 70
     0
  3
Phantom
 72
    65
 73
     6
 40
13.0
 49
10.0
 74
     0
 49
-1.0
 74
     0
 49
0.0
 74
     0
 49
-1.0
 74
     0
 49
0.0
 74
     0
 49
-1.0
 74
     0
  0
LTYPE
  5
30
330
5
100
AcDbSymbolTableRecord
100
AcDbLinetypeTableRecord
  2
CENTER_DASH_DASH
 70
     0
  3
Center_Dash_Dash
 72
    65
 73
     6
 40
14.0
 49
9.0
 74
     0
 49
-1.0
 74
     0
 49
1.0
 74
     0
 49
-1.0
 74
     0
 49
1.0
 74
     0
 49
-1.0
 74
     0
  0
LTYPE
  5
31
330
5
100
AcDbSymbolTableRecord
100
AcDbLinetypeTableRecord
  2
CENTER
 70
     0
  3
CENTER
 72
    65
 73
     4
 40
14.0
 49
8.0
 74
     0
 49
-2.0
 74
     0
 49
2.0
 74
     0
 49
-2.0
 74
     0
  0
ENDTAB
  0
TABLE
  2
LAYER
  5
2
330
0
100
AcDbSymbolTable
 70
     3
  0
LAYER
  5
10
330
2
100
AcDbSymbolTableRecord
100
AcDbLayerTableRecord
  2
0
 70
     0
 62
     7
  6
Continuous
370
    -3
390
F
  0
LAYER
  5
32
330
2
100
AcDbSymbolTableRecord
100
AcDbLayerTableRecord
  2
1
 70
     0
 62
     7
  6
Continuous
370
    -3
390
F
  0
LAYER
  5
33
330
2
100
AcDbSymbolTableRecord
100
AcDbLayerTableRecord
  2
DEFAULT_1
 70
     0
 62
     7
  6
Continuous
370
    -3
390
F
  0
ENDTAB
  0
TABLE
  2
STYLE
  5
3
330
0
100
AcDbSymbolTable
 70
     5
  0
STYLE
  5
11
330
3
100
AcDbSymbolTableRecord
100
AcDbTextStyleTableRecord
  2
Standard
 70
     0
 40
0.0
 41
1.0
 50
0.0
 71
     0
 42
0.2
  3
txt
  4

  0
STYLE
  5
136
330
3
100
AcDbSymbolTableRecord
100
AcDbTextStyleTableRecord
  2
CONVERTER_11
 70
     0
 40
0.0
 41
0.9
 50
0.0
 71
     0
 42
0.2
  3
txt.shx
  4

  0
STYLE
  5
13B
330
3
100
AcDbSymbolTableRecord
100
AcDbTextStyleTableRecord
  2
CONVERTER_12
 70
     0
 40
0.0
 41
0.72
 50
0.0
 71
     0
 42
0.2
  3
txt.shx
  4

  0
STYLE
  5
13D
330
3
100
AcDbSymbolTableRecord
100
AcDbTextStyleTableRecord
  2
CONVERTER_13
 70
     0
 40
0.0
 41
0.81
 50
0.0
 71
     0
 42
0.2
  3
txt.shx
  4

  0
STYLE
  5
149
330
3
100
AcDbSymbolTableRecord
100
AcDbTextStyleTableRecord
  2
CONVERTER_14
 70
     0
 40
0.0
 41
0.855
 50
0.0
 71
     0
 42
0.2
  3
txt.shx
  4

  0
ENDTAB
  0
TABLE
  2
VIEW
  5
6
330
0
100
AcDbSymbolTable
 70
     0
  0
ENDTAB
  0
TABLE
  2
UCS
  5
7
330
0
100
AcDbSymbolTable
 70
     0
  0
ENDTAB
  0
TABLE
  2
APPID
  5
9
330
0
100
AcDbSymbolTable
 70
     1
  0
APPID
  5
12
330
9
100
AcDbSymbolTableRecord
100
AcDbRegAppTableRecord
  2
ACAD
 70
     0
  0
ENDTAB
  0
TABLE
  2
DIMSTYLE
  5
A
330
0
100
AcDbSymbolTable
 70
    18
100
AcDbDimStyleTable
  0
DIMSTYLE
105
27
330
A
100
AcDbSymbolTableRecord
100
AcDbDimStyleTableRecord
  2
Standard
 70
     0
340
11
  0
DIMSTYLE
105
354
102
{ACAD_REACTORS
330
355
102
}
330
A
100
AcDbSymbolTableRecord
100
AcDbDimStyleTableRecord
  2
ME10_DIM_10
 70
     0
 41
3.5
 42
0.0
 44
2.0
 73
     0
 74
     0
 77
     1
 78
     8
140
3.5
147
2.0
172
     1
173
     1
176
     2
177
     2
178
     2
271
     3
340
136
  0
DIMSTYLE
105
35F
102
{ACAD_REACTORS
330
360
102
}
330
A
100
AcDbSymbolTableRecord
100
AcDbDimStyleTableRecord
  2
ME10_DIM_11
 70
     0
 41
3.5
 42
0.0
 44
2.0
 73
     0
 74
     0
 77
     1
 78
     8
140
3.5
147
2.0
172
     1
173
     1
176
     2
177
     2
178
     2
271
     3
340
136
  0
DIMSTYLE
105
36B
102
{ACAD_REACTORS
330
36C
102
}
330
A
100
AcDbSymbolTableRecord
100
AcDbDimStyleTableRecord
  2
ME10_DIM_12
 70
     0
 41
3.5
 42
0.0
 44
2.0
 73
     0
 74
     0
 77
     1
 78
     8
140
3.5
147
2.0
172
     1
173
     1
176
     2
177
     2
178
     2
271
     3
340
136
  0
DIMSTYLE
105
376
102
{ACAD_REACTORS
330
377
102
}
330
A
100
AcDbSymbolTableRecord
100
AcDbDimStyleTableRecord
  2
ME10_DIM_13
 70
     0
 41
3.5
 42
0.0
 44
2.0
 73
     0
 74
     0
 77
     1
 78
     8
140
3.5
147
2.0
172
     1
173
     1
176
     2
177
     2
178
     2
271
     3
340
136
  0
DIMSTYLE
105
381
102
{ACAD_REACTORS
330
382
102
}
330
A
100
AcDbSymbolTableRecord
100
AcDbDimStyleTableRecord
  2
ME10_DIM_14
 70
     0
 41
3.5
 42
0.0
 44
2.0
 73
     0
 74
     0
 77
     1
 78
     8
140
3.5
147
2.0
172
     1
173
     1
176
     2
177
     2
178
     2
271
     3
340
136
  0
DIMSTYLE
105
38E
102
{ACAD_REACTORS
330
38F
102
}
330
A
100
AcDbSymbolTableRecord
100
AcDbDimStyleTableRecord
  2
ME10_DIM_15
 70
     0
 41
3.5
 42
0.0
 44
2.0
 73
     0
 74
     0
 77
     1
 78
     8
140
3.5
147
2.0
172
     1
173
     1
176
     2
177
     2
178
     2
271
     2
340
136
  0
DIMSTYLE
105
399
102
{ACAD_REACTORS
330
39A
102
}
330
A
100
AcDbSymbolTableRecord
100
AcDbDimStyleTableRecord
  2
ME10_DIM_16
 70
     0
 41
3.5
 42
0.0
 44
2.0
 73
     0
 74
     0
 77
     1
 78
     8
140
3.5
147
2.0
172
     1
173
     1
176
     2
177
     2
178
     2
271
     2
340
136
  0
DIMSTYLE
105
3A4
102
{ACAD_REACTORS
330
3A5
102
}
330
A
100
AcDbSymbolTableRecord
100
AcDbDimStyleTableRecord
  2
ME10_DIM_17
 70
     0
 41
3.5
 42
0.0
 44
2.0
 73
     0
 74
     0
 77
     1
 78
     8
140
3.5
147
2.0
172
     1
173
     1
176
     2
177
     2
178
     2
271
     2
340
136
  0
DIMSTYLE
105
3AF
102
{ACAD_REACTORS
330
3B0
102
}
330
A
100
AcDbSymbolTableRecord
100
AcDbDimStyleTableRecord
  2
ME10_DIM_18
 70
     0
 41
3.5
 42
0.0
 44
2.0
 73
     0
 74
     0
 77
     1
 78
     8
140
3.5
147
2.0
172
     1
173
     1
176
     2
177
     2
178
     2
271
     2
340
136
  0
DIMSTYLE
105
3BA
102
{ACAD_REACTORS
330
3BB
102
}
330
A
100
AcDbSymbolTableRecord
100
AcDbDimStyleTableRecord
  2
ME10_DIM_19
 70
     0
 41
3.5
 42
0.0
 44
2.0
 73
     0
 74
     0
 77
     1
 78
     8
140
3.5
147
2.0
172
     1
173
     1
176
     2
177
     2
178
     2
271
     2
340
136
  0
DIMSTYLE
105
3C5
102
{ACAD_REACTORS
330
3C6
102
}
330
A
100
AcDbSymbolTableRecord
100
AcDbDimStyleTableRecord
  2
ME10_DIM_20
 70
     0
 41
3.5
 42
0.0
 44
2.0
 73
     0
 74
     0
 77
     1
 78
     8
140
3.5
147
2.0
172
     1
173
     1
176
     2
177
     2
178
     2
271
     2
340
136
  0
DIMSTYLE
105
3D2
102
{ACAD_REACTORS
330
3D3
102
}
330
A
100
AcDbSymbolTableRecord
100
AcDbDimStyleTableRecord
  2
ME10_DIM_21
 70
     0
 41
3.5
 42
0.0
 44
2.0
 73
     0
 74
     0
 77
     1
 78
     8
140
3.5
147
2.0
172
     1
173
     1
176
     2
177
     2
178
     2
271
     2
340
136
  0
DIMSTYLE
105
3DD
102
{ACAD_REACTORS
330
3DE
102
}
330
A
100
AcDbSymbolTableRecord
100
AcDbDimStyleTableRecord
  2
ME10_DIM_22
 70
     0
 41
3.5
 42
0.0
 44
2.0
 73
     0
 74
     0
 77
     1
 78
     8
140
3.5
147
2.0
172
     1
173
     1
176
     2
177
     2
178
     2
271
     2
340
136
  0
DIMSTYLE
105
3EA
102
{ACAD_REACTORS
330
3EB
102
}
330
A
100
AcDbSymbolTableRecord
100
AcDbDimStyleTableRecord
  2
ME10_DIM_23
 70
     0
 41
3.5
 42
0.0
 44
2.0
 73
     0
 74
     0
 77
     1
 78
     8
140
3.5
147
2.0
172
     1
173
     1
176
     2
177
     2
178
     2
271
     3
340
136
  0
DIMSTYLE
105
3F7
102
{ACAD_REACTORS
330
3F8
102
}
330
A
100
AcDbSymbolTableRecord
100
AcDbDimStyleTableRecord
  2
ME10_DIM_24
 70
     0
 41
3.5
 42
0.0
 44
2.0
 73
     0
 74
     0
 77
     1
 78
     8
140
3.5
147
2.0
172
     1
173
     1
176
     2
177
     2
178
     2
271
     2
340
136
  0
DIMSTYLE
105
402
102
{ACAD_REACTORS
330
403
102
}
330
A
100
AcDbSymbolTableRecord
100
AcDbDimStyleTableRecord
  2
ME10_DIM_25
 70
     0
 41
3.5
 42
0.0
 44
2.0
 73
     0
 74
     0
 77
     1
 78
     8
140
3.5
147
2.0
172
     1
173
     1
176
     2
177
     2
178
     2
271
     2
340
136
  0
DIMSTYLE
105
40D
102
{ACAD_REACTORS
330
40E
102
}
330
A
100
AcDbSymbolTableRecord
100
AcDbDimStyleTableRecord
  2
ME10_DIM_26
 70
     0
 41
3.5
 42
0.0
 44
2.0
 73
     0
 74
     0
 77
     1
 78
     8
140
3.5
147
2.0
172
     1
173
     1
176
     2
177
     2
178
     2
271
     3
340
136
  0
ENDTAB
  0
TABLE
  2
BLOCK_RECORD
  5
1
330
0
100
AcDbSymbolTable
 70
    26
  0
BLOCK_RECORD
  5
1F
330
1
100
AcDbSymbolTableRecord
100
AcDbBlockTableRecord
  2
*Model_Space
340
22
  0
BLOCK_RECORD
  5
1B
330
1
100
AcDbSymbolTableRecord
100
AcDbBlockTableRecord
  2
*Paper_Space
340
1E
  0
BLOCK_RECORD
  5
23
330
1
100
AcDbSymbolTableRecord
100
AcDbBlockTableRecord
  2
*Paper_Space0
340
26
  0
BLOCK_RECORD
  5
34
330
1
100
AcDbSymbolTableRecord
100
AcDbBlockTableRecord
  2
_art_A3_me10_pdm
340
0
102
{BLKREFS
331
40
102
}
  0
BLOCK_RECORD
  5
37
330
1
100
AcDbSymbolTableRecord
100
AcDbBlockTableRecord
  2
Fl_gel
340
0
102
{BLKREFS
331
41
102
}
  0
BLOCK_RECORD
  5
3A
330
1
100
AcDbSymbolTableRecord
100
AcDbBlockTableRecord
  2
Rahmen
340
0
102
{BLKREFS
331
42
102
}
  0
BLOCK_RECORD
  5
3D
330
1
100
AcDbSymbolTableRecord
100
AcDbBlockTableRecord
  2
5_400520_0_00000_FRAES_4__a_1__Eingecheckt__nur_lesen_
340
0
102
{BLKREFS
331
43
102
}
  0
BLOCK_RECORD
  5
34B
330
1
100
AcDbSymbolTableRecord
100
AcDbBlockTableRecord
  2
*D5
340
0
  0
BLOCK_RECORD
  5
356
330
1
100
AcDbSymbolTableRecord
100
AcDbBlockTableRecord
  2
*D6
340
0
  0
BLOCK_RECORD
  5
361
330
1
100
AcDbSymbolTableRecord
100
AcDbBlockTableRecord
  2
*D7
340
0
  0
BLOCK_RECORD
  5
36D
330
1
100
AcDbSymbolTableRecord
100
AcDbBlockTableRecord
  2
*D8
340
0
  0
BLOCK_RECORD
  5
378
330
1
100
AcDbSymbolTableRecord
100
AcDbBlockTableRecord
  2
*D9
340
0
  0
BLOCK_RECORD
  5
383
330
1
100
AcDbSymbolTableRecord
100
AcDbBlockTableRecord
  2
*D10
340
0
  0
BLOCK_RECORD
  5
390
330
1
100
AcDbSymbolTableRecord
100
AcDbBlockTableRecord
  2
*D11
340
0
  0
BLOCK_RECORD
  5
39B
330
1
100
AcDbSymbolTableRecord
100
AcDbBlockTableRecord
  2
*D12
340
0
  0
BLOCK_RECORD
  5
3A6
330
1
100
AcDbSymbolTableRecord
100
AcDbBlockTableRecord
  2
*D13
340
0
  0
BLOCK_RECORD
  5
3B1
330
1
100
AcDbSymbolTableRecord
100
AcDbBlockTableRecord
  2
*D14
340
0
  0
BLOCK_RECORD
  5
3BC
330
1
100
AcDbSymbolTableRecord
100
AcDbBlockTableRecord
  2
*D15
340
0
  0
BLOCK_RECORD
  5
3C7
330
1
100
AcDbSymbolTableRecord
100
AcDbBlockTableRecord
  2
*D16
340
0
  0
BLOCK_RECORD
  5
3D4
330
1
100
AcDbSymbolTableRecord
100
AcDbBlockTableRecord
  2
*D17
340
0
  0
BLOCK_RECORD
  5
3DF
330
1
100
AcDbSymbolTableRecord
100
AcDbBlockTableRecord
  2
*D18
340
0
  0
BLOCK_RECORD
  5
3EC
330
1
100
AcDbSymbolTableRecord
100
AcDbBlockTableRecord
  2
*D19
340
0
  0
BLOCK_RECORD
  5
3F9
330
1
100
AcDbSymbolTableRecord
100
AcDbBlockTableRecord
  2
*D20
340
0
  0
BLOCK_RECORD
  5
404
330
1
100
AcDbSymbolTableRecord
100
AcDbBlockTableRecord
  2
*D21
340
0
  0
BLOCK_RECORD
  5
40F
330
1
100
AcDbSymbolTableRecord
100
AcDbBlockTableRecord
  2
*D22
340
0
102
{BLKREFS
331
415
102
}
  0
BLOCK_RECORD
  5
416
330
1
100
AcDbSymbolTableRecord
100
AcDbBlockTableRecord
  2
*D23
340
0
102
{BLKREFS
331
41D
102
}
  0
BLOCK_RECORD
  5
41E
330
1
100
AcDbSymbolTableRecord
100
AcDbBlockTableRecord
  2
*D24
340
0
102
{BLKREFS
331
425
102
}
  0
BLOCK_RECORD
  5
426
330
1
100
AcDbSymbolTableRecord
100
AcDbBlockTableRecord
  2
*D25
340
0
102
{BLKREFS
331
42F
102
}
  0
ENDTAB
  0
ENDSEC
  0
SECTION
  2
BLOCKS
  0
BLOCK
  5
20
330
1F
100
AcDbEntity
  8
0
100
AcDbBlockBegin
  2
*Model_Space
 70
     0
 71
     0
 10
0.0
 20
0.0
 30
0.0
  3
*Model_Space
  1

  0
ENDBLK
  5
21
330
1F
100
AcDbEntity
  8
0
100
AcDbBlockEnd
  0
BLOCK
  5
1C
330
1B
100
AcDbEntity
 67
     1
  8
0
100
AcDbBlockBegin
  2
*Paper_Space
 70
     0
 71
     0
 10
0.0
 20
0.0
 30
0.0
  3
*Paper_Space
  1

  0
ENDBLK
  5
1D
330
1B
100
AcDbEntity
 67
     1
  8
0
100
AcDbBlockEnd
  0
BLOCK
  5
24
330
23
100
AcDbEntity
  8
0
100
AcDbBlockBegin
  2
*Paper_Space0
 70
     0
 71
     0
 10
0.0
 20
0.0
 30
0.0
  3
*Paper_Space0
  1

  0
ENDBLK
  5
25
330
23
100
AcDbEntity
  8
0
100
AcDbBlockEnd
  0
BLOCK
  5
35
330
34
100
AcDbEntity
  8
0
100
AcDbBlockBegin
  2
_art_A3_me10_pdm
 70
     0
 71
     0
 10
-14.90059265465243
 20
-28.74373545232265
 30
0.0
  3
_art_A3_me10_pdm
  1

  0
POINT
  5
44
330
34
100
AcDbEntity
  8
1
 62
     3
 60
     1
100
AcDbPoint
 10
59.52932247955323
 20
-199.2437354523227
 30
0.0
  0
POINT
  5
45
330
34
100
AcDbEntity
  8
1
 62
     3
 60
     1
100
AcDbPoint
 10
169.5994073453476
 20
-178.2450354523226
 30
0.0
  0
POINT
  5
46
330
34
100
AcDbEntity
  8
1
 62
     3
 60
     1
100
AcDbPoint
 10
156.5994073453476
 20
-178.2450354523226
 30
0.0
  0
POINT
  5
47
330
34
100
AcDbEntity
  8
1
 62
     3
 60
     1
100
AcDbPoint
 10
156.5994073453476
 20
-186.9110354523227
 30
0.0
  0
POINT
  5
48
330
34
100
AcDbEntity
  8
1
 62
     3
 60
     1
100
AcDbPoint
 10
59.52932247955323
 20
-144.2437354523227
 30
0.0
  0
POINT
  5
49
330
34
100
AcDbEntity
  8
1
 62
     3
 60
     1
100
AcDbPoint
 10
59.52932247955323
 20
-195.577068758922
 30
0.0
  0
POINT
  5
4A
330
34
100
AcDbEntity
  8
1
 62
     3
 60
     1
100
AcDbPoint
 10
169.5994073453476
 20
-186.9110354523227
 30
0.0
  0
LINE
  5
4B
330
34
100
AcDbEntity
  8
1
  6
Continuous
 62
     7
100
AcDbLine
 10
59.52932247955323
 20
-199.2437354523227
 30
0.0
 11
182.5994073453476
 21
-199.2437354523227
 31
0.0
  0
LINE
  5
4C
330
34
100
AcDbEntity
  8
1
  6
Continuous
 62
     7
100
AcDbLine
 10
59.52932247955323
 20
-199.2437354523227
 30
0.0
 11
-0.40059265465243
 21
-199.2437354523227
 31
0.0
  0
LINE
  5
4D
330
34
100
AcDbEntity
  8
1
  6
Continuous
 62
     2
100
AcDbLine
 10
59.52932247955323
 20
-195.577068758922
 30
0.0
 11
59.52932247955323
 21
-199.2437354523227
 31
0.0
  0
LINE
  5
4E
102
{ACAD_REACTORS
330
1AA
330
1AA
102
}
330
34
100
AcDbEntity
  8
0
  6
Continuous
 62
   250
100
AcDbLine
 10
88.89895041612908
 20
-196.3053438853494
 30
0.0
 11
88.12420813270728
 21
-195.3870370849072
 31
0.0
  0
LINE
  5
4F
102
{ACAD_REACTORS
330
1AA
330
1AA
102
}
330
34
100
AcDbEntity
  8
0
  6
Continuous
 62
   250
100
AcDbLine
 10
88.69850593263982
 20
-196.3053438853494
 30
0.0
 11
88.89895041612908
 21
-196.3053438853494
 31
0.0
  0
LINE
  5
50
102
{ACAD_REACTORS
330
1AA
330
1AA
102
}
330
34
100
AcDbEntity
  8
0
  6
Continuous
 62
   250
100
AcDbLine
 10
87.93190679207328
 20
-195.3870370849072
 30
0.0
 11
88.69850593263982
 21
-196.3053438853494
 31
0.0
  0
LINE
  5
51
102
{ACAD_REACTORS
330
1AA
330
1AA
102
}
330
34
100
AcDbEntity
  8
0
  6
Continuous
 62
   250
100
AcDbLine
 10
88.64968775327725
 20
-194.5013019099615
 30
0.0
 11
87.93190679207328
 21
-195.3870370849072
 31
0.0
  0
LINE
  5
52
102
{ACAD_REACTORS
330
1AA
330
1AA
102
}
330
34
100
AcDbEntity
  8
0
  6
Continuous
 62
   250
100
AcDbLine
 10
88.84744560505351
 20
-194.5013019099615
 30
0.0
 11
88.64968775327725
 21
-194.5013019099615
 31
0.0
  0
LINE
  5
53
102
{ACAD_REACTORS
330
1AA
330
1AA
102
}
330
34
100
AcDbEntity
  8
0
  6
Continuous
 62
   250
100
AcDbLine
 10
88.12420813270728
 20
-195.3870370849072
 30
0.0
 11
88.84744560505351
 21
-194.5013019099615
 31
0.0
  0
LINE
  5
54
102
{ACAD_REACTORS
330
1BB
330
1BB
102
}
330
34
100
AcDbEntity
  8
0
  6
Continuous
 62
   250
100
AcDbLine
 10
76.1797803248337
 20
-193.255028327505
 30
0.0
 11
76.94693003568682
 21
-193.255028327505
 31
0.0
  0
LINE
  5
55
102
{ACAD_REACTORS
330
1BB
330
1BB
102
}
330
34
100
AcDbEntity
  8
0
  6
Continuous
 62
   250
100
AcDbLine
 10
76.1797803248337
 20
-189.8488343437693
 30
0.0
 11
76.1797803248337
 21
-193.255028327505
 31
0.0
  0
LINE
  5
56
102
{ACAD_REACTORS
330
1AF
330
1AF
102
}
330
34
100
AcDbEntity
  8
0
  6
Continuous
 62
   250
100
AcDbLine
 10
95.36427570451633
 20
-193.255028327505
 30
0.0
 11
97.50727694801026
 21
-193.255028327505
 31
0.0
  0
LINE
  5
57
102
{ACAD_REACTORS
330
1AF
330
1AF
102
}
330
34
100
AcDbEntity
  8
0
  6
Continuous
 62
   250
100
AcDbLine
 10
97.50727694801026
 20
-193.255028327505
 30
0.0
 11
97.50727694801026
 21
-192.5748479122913
 31
0.0
  0
LINE
  5
58
102
{ACAD_REACTORS
330
1AF
330
1AF
102
}
330
34
100
AcDbEntity
  8
0
  6
Continuous
 62
   250
100
AcDbLine
 10
97.50727694801026
 20
-190.5290147589813
 30
0.0
 11
97.50727694801026
 21
-189.8488343437693
 31
0.0
  0
LINE
  5
59
102
{ACAD_REACTORS
330
1AF
330
1AF
102
}
330
34
100
AcDbEntity
  8
0
  6
Continuous
 62
   250
100
AcDbLine
 10
97.50727694801026
 20
-189.8488343437693
 30
0.0
 11
95.36427570451633
 21
-189.8488343437693
 31
0.0
  0
LINE
  5
5A
102
{ACAD_REACTORS
330
1AF
330
1AF
102
}
330
34
100
AcDbEntity
  8
0
  6
Continuous
 62
   250
100
AcDbLine
 10
96.13144528132398
 20
-190.5290147589813
 30
0.0
 11
97.50727694801026
 21
-190.5290147589813
 31
0.0
  0
LINE
  5
5B
102
{ACAD_REACTORS
330
1AF
330
1AF
102
}
330
34
100
AcDbEntity
  8
0
  6
Continuous
 62
   250
100
AcDbLine
 10
96.13144528132398
 20
-191.1530682213825
 30
0.0
 11
96.13144528132398
 21
-190.5290147589813
 31
0.0
  0
LINE
  5
5C
102
{ACAD_REACTORS
330
1AF
330
1AF
102
}
330
34
100
AcDbEntity
  8
0
  6
Continuous
 62
   250
100
AcDbLine
 10
97.39990911731002
 20
-191.833247690598
 30
0.0
 11
97.39990911731002
 21
-191.1530682213825
 31
0.0
  0
LINE
  5
5D
102
{ACAD_REACTORS
330
1AF
330
1AF
102
}
330
34
100
AcDbEntity
  8
0
  6
Continuous
 62
   250
100
AcDbLine
 10
97.39990911731002
 20
-191.1530682213825
 30
0.0
 11
96.13144528132398
 21
-191.1530682213825
 31
0.0
  0
LINE
  5
5E
102
{ACAD_REACTORS
330
1BA
330
1BA
102
}
330
34
100
AcDbEntity
  8
0
  6
Continuous
 62
   250
100
AcDbLine
 10
80.94142825214658
 20
-193.255028327505
 30
0.0
 11
80.79820997006027
 21
-189.8488343437693
 31
0.0
  0
LINE
  5
5F
102
{ACAD_REACTORS
330
1BA
330
1BA
102
}
330
34
100
AcDbEntity
  8
0
  6
Continuous
 62
   250
100
AcDbLine
 10
80.79820997006027
 20
-189.8488343437693
 30
0.0
 11
80.03093822559458
 21
-189.8488343437693
 31
0.0
  0
LINE
  5
60
102
{ACAD_REACTORS
330
1AB
330
1AB
102
}
330
34
100
AcDbEntity
  8
0
  6
Continuous
 62
   250
100
AcDbLine
 10
70.26355052814324
 20
-191.0462292030479
 30
0.0
 11
70.26355052814324
 21
-191.6224208891326
 31
0.0
  0
LINE
  5
61
102
{ACAD_REACTORS
330
1AB
330
1AB
102
}
330
34
100
AcDbEntity
  8
0
  6
Continuous
 62
   250
100
AcDbLine
 10
72.18432475934969
 20
-191.0462292030479
 30
0.0
 11
70.26355052814324
 21
-191.0462292030479
 31
0.0
  0
LINE
  5
62
102
{ACAD_REACTORS
330
1AB
330
1AB
102
}
330
34
100
AcDbEntity
  8
0
  6
Continuous
 62
   250
100
AcDbLine
 10
72.18432475934969
 20
-189.7977363114396
 30
0.0
 11
72.18432475934969
 21
-191.0462292030479
 31
0.0
  0
LINE
  5
63
102
{ACAD_REACTORS
330
1AB
330
1AB
102
}
330
34
100
AcDbEntity
  8
0
  6
Continuous
 62
   250
100
AcDbLine
 10
68.72695138753625
 20
-189.7977363114396
 30
0.0
 11
72.18432475934969
 21
-189.7977363114396
 31
0.0
  0
LINE
  5
64
102
{ACAD_REACTORS
330
1AB
330
1AB
102
}
330
34
100
AcDbEntity
  8
0
  6
Continuous
 62
   250
100
AcDbLine
 10
68.72695138753625
 20
-191.6224208891326
 30
0.0
 11
68.72695138753625
 21
-189.7977363114396
 31
0.0
  0
LINE
  5
65
102
{ACAD_REACTORS
330
1AB
330
1AB
102
}
330
34
100
AcDbEntity
  8
0
  6
Continuous
 62
   250
100
AcDbLine
 10
70.26355052814324
 20
-191.6224208891326
 30
0.0
 11
68.72695138753625
 21
-191.6224208891326
 31
0.0
  0
LINE
  5
66
102
{ACAD_REACTORS
330
1AC
330
1AC
102
}
330
34
100
AcDbEntity
  8
0
  6
Continuous
 62
   250
100
AcDbLine
 10
72.18432475934969
 20
-193.255028327505
 30
0.0
 11
68.72695138753625
 21
-193.255028327505
 31
0.0
  0
LINE
  5
67
102
{ACAD_REACTORS
330
1AC
330
1AC
102
}
330
34
100
AcDbEntity
  8
0
  6
Continuous
 62
   250
100
AcDbLine
 10
72.18432475934969
 20
-191.430343749812
 30
0.0
 11
72.18432475934969
 21
-193.255028327505
 31
0.0
  0
LINE
  5
68
102
{ACAD_REACTORS
330
1AC
330
1AC
102
}
330
34
100
AcDbEntity
  8
0
  6
Continuous
 62
   250
100
AcDbLine
 10
70.6477256187136
 20
-191.430343749812
 30
0.0
 11
72.18432475934969
 21
-191.430343749812
 31
0.0
  0
LINE
  5
69
102
{ACAD_REACTORS
330
1AC
330
1AC
102
}
330
34
100
AcDbEntity
  8
0
  6
Continuous
 62
   250
100
AcDbLine
 10
70.6477256187136
 20
-192.0065553018339
 30
0.0
 11
70.6477256187136
 21
-191.430343749812
 31
0.0
  0
LINE
  5
6A
102
{ACAD_REACTORS
330
1AC
330
1AC
102
}
330
34
100
AcDbEntity
  8
0
  6
Continuous
 62
   250
100
AcDbLine
 10
68.72695138753625
 20
-192.0065553018339
 30
0.0
 11
70.6477256187136
 21
-192.0065553018339
 31
0.0
  0
LINE
  5
6B
102
{ACAD_REACTORS
330
1AC
330
1AC
102
}
330
34
100
AcDbEntity
  8
0
  6
Continuous
 62
   250
100
AcDbLine
 10
68.72695138753625
 20
-193.255028327505
 30
0.0
 11
68.72695138753625
 21
-192.0065553018339
 31
0.0
  0
LINE
  5
6C
102
{ACAD_REACTORS
330
1BA
330
1BA
102
}
330
34
100
AcDbEntity
  8
0
  6
Continuous
 62
   250
100
AcDbLine
 10
79.55535522106948
 20
-192.8151737407352
 30
0.0
 11
80.14864769637643
 21
-191.3627144184902
 31
0.0
  0
LINE
  5
6D
102
{ACAD_REACTORS
330
1BA
330
1BA
102
}
330
34
100
AcDbEntity
  8
0
  6
Continuous
 62
   250
100
AcDbLine
 10
80.03093822559458
 20
-189.8488343437693
 30
0.0
 11
79.21266967044357
 21
-192.0173245326032
 31
0.0
  0
LINE
  5
6E
102
{ACAD_REACTORS
330
1BA
330
1BA
102
}
330
34
100
AcDbEntity
  8
0
  6
Continuous
 62
   250
100
AcDbLine
 10
79.21266967044357
 20
-192.0173245326032
 30
0.0
 11
78.39431975959451
 21
-189.8488343437693
 31
0.0
  0
LINE
  5
6F
102
{ACAD_REACTORS
330
1BA
330
1BA
102
}
330
34
100
AcDbEntity
  8
0
  6
Continuous
 62
   250
100
AcDbLine
 10
78.39431975959451
 20
-189.8488343437693
 30
0.0
 11
77.62708963897603
 21
-189.8488343437693
 31
0.0
  0
LINE
  5
70
102
{ACAD_REACTORS
330
1BA
330
1BA
102
}
330
34
100
AcDbEntity
  8
0
  6
Continuous
 62
   250
100
AcDbLine
 10
77.62708963897603
 20
-189.8488343437693
 30
0.0
 11
77.48387135690427
 21
-193.255028327505
 31
0.0
  0
LINE
  5
71
102
{ACAD_REACTORS
330
1BA
330
1BA
102
}
330
34
100
AcDbEntity
  8
0
  6
Continuous
 62
   250
100
AcDbLine
 10
77.48387135690427
 20
-193.255028327505
 30
0.0
 11
78.22551225646748
 21
-193.255028327505
 31
0.0
  0
LINE
  5
72
102
{ACAD_REACTORS
330
1BA
330
1BA
102
}
330
34
100
AcDbEntity
  8
0
  6
Continuous
 62
   250
100
AcDbLine
 10
78.22551225646748
 20
-193.255028327505
 30
0.0
 11
78.27671245646343
 21
-191.3627144184902
 31
0.0
  0
LINE
  5
73
102
{ACAD_REACTORS
330
1BA
330
1BA
102
}
330
34
100
AcDbEntity
  8
0
  6
Continuous
 62
   250
100
AcDbLine
 10
78.27671245646343
 20
-191.3627144184902
 30
0.0
 11
78.86998411985405
 21
-192.8151737407352
 31
0.0
  0
LINE
  5
74
102
{ACAD_REACTORS
330
1BA
330
1BA
102
}
330
34
100
AcDbEntity
  8
0
  6
Continuous
 62
   250
100
AcDbLine
 10
78.86998411985405
 20
-192.8151737407352
 30
0.0
 11
79.55535522106948
 21
-192.8151737407352
 31
0.0
  0
LINE
  5
75
102
{ACAD_REACTORS
330
1BA
330
1BA
102
}
330
34
100
AcDbEntity
  8
0
  6
Continuous
 62
   250
100
AcDbLine
 10
80.14864769637643
 20
-191.3627144184902
 30
0.0
 11
80.19976654063794
 21
-193.255028327505
 31
0.0
  0
LINE
  5
76
102
{ACAD_REACTORS
330
1AD
330
1AD
102
}
330
34
100
AcDbEntity
  8
0
  6
Continuous
 62
   250
100
AcDbLine
 10
86.34744587514433
 20
-193.255028327505
 30
0.0
 11
87.2936435075244
 21
-193.255028327505
 31
0.0
  0
LINE
  5
77
102
{ACAD_REACTORS
330
1AD
330
1AD
102
}
330
34
100
AcDbEntity
  8
0
  6
Continuous
 62
   250
100
AcDbLine
 10
87.2936435075244
 20
-193.255028327505
 30
0.0
 11
87.2936435075244
 21
-189.8488343437693
 31
0.0
  0
LINE
  5
78
102
{ACAD_REACTORS
330
1AD
330
1AD
102
}
330
34
100
AcDbEntity
  8
0
  6
Continuous
 62
   250
100
AcDbLine
 10
87.2936435075244
 20
-189.8488343437693
 30
0.0
 11
86.56230357018649
 21
-189.8488343437693
 31
0.0
  0
LINE
  5
79
102
{ACAD_REACTORS
330
1AD
330
1AD
102
}
330
34
100
AcDbEntity
  8
0
  6
Continuous
 62
   250
100
AcDbLine
 10
86.56230357018649
 20
-189.8488343437693
 30
0.0
 11
86.56230357018649
 21
-192.1963525881893
 31
0.0
  0
LINE
  5
7A
102
{ACAD_REACTORS
330
1AD
330
1AD
102
}
330
34
100
AcDbEntity
  8
0
  6
Continuous
 62
   250
100
AcDbLine
 10
86.56230357018649
 20
-192.1963525881893
 30
0.0
 11
85.44212666863314
 21
-189.8488343437693
 31
0.0
  0
LINE
  5
7B
102
{ACAD_REACTORS
330
1AD
330
1AD
102
}
330
34
100
AcDbEntity
  8
0
  6
Continuous
 62
   250
100
AcDbLine
 10
85.44212666863314
 20
-189.8488343437693
 30
0.0
 11
84.5010799903539
 21
-189.8488343437693
 31
0.0
  0
LINE
  5
7C
102
{ACAD_REACTORS
330
1AD
330
1AD
102
}
330
34
100
AcDbEntity
  8
0
  6
Continuous
 62
   250
100
AcDbLine
 10
84.5010799903539
 20
-189.8488343437693
 30
0.0
 11
84.5010799903539
 21
-193.255028327505
 31
0.0
  0
LINE
  5
7D
102
{ACAD_REACTORS
330
1AD
330
1AD
102
}
330
34
100
AcDbEntity
  8
0
  6
Continuous
 62
   250
100
AcDbLine
 10
84.5010799903539
 20
-193.255028327505
 30
0.0
 11
85.23243979364634
 21
-193.255028327505
 31
0.0
  0
LINE
  5
7E
102
{ACAD_REACTORS
330
1AD
330
1AD
102
}
330
34
100
AcDbEntity
  8
0
  6
Continuous
 62
   250
100
AcDbLine
 10
85.23243979364634
 20
-193.255028327505
 30
0.0
 11
85.23243979364634
 21
-191.0148987257235
 31
0.0
  0
LINE
  5
7F
102
{ACAD_REACTORS
330
1AD
330
1AD
102
}
330
34
100
AcDbEntity
  8
0
  6
Continuous
 62
   250
100
AcDbLine
 10
85.23243979364634
 20
-191.0148987257235
 30
0.0
 11
86.34744587514433
 21
-193.255028327505
 31
0.0
  0
LINE
  5
80
102
{ACAD_REACTORS
330
1AE
330
1AE
102
}
330
34
100
AcDbEntity
  8
0
  6
Continuous
 62
   250
100
AcDbLine
 10
92.62303442097618
 20
-190.6671435767676
 30
0.0
 11
93.19586687143601
 21
-193.255028327505
 31
0.0
  0
LINE
  5
81
102
{ACAD_REACTORS
330
1AE
330
1AE
102
}
330
34
100
AcDbEntity
  8
0
  6
Continuous
 62
   250
100
AcDbLine
 10
93.19586687143601
 20
-193.255028327505
 30
0.0
 11
94.17268264532322
 21
-193.255028327505
 31
0.0
  0
LINE
  5
82
102
{ACAD_REACTORS
330
1AE
330
1AE
102
}
330
34
100
AcDbEntity
  8
0
  6
Continuous
 62
   250
100
AcDbLine
 10
94.17268264532322
 20
-193.255028327505
 30
0.0
 11
95.00638230485492
 21
-189.8488343437693
 31
0.0
  0
LINE
  5
83
102
{ACAD_REACTORS
330
1AE
330
1AE
102
}
330
34
100
AcDbEntity
  8
0
  6
Continuous
 62
   250
100
AcDbLine
 10
95.00638230485492
 20
-189.8488343437693
 30
0.0
 11
94.249473012409
 21
-189.8488343437693
 31
0.0
  0
LINE
  5
84
102
{ACAD_REACTORS
330
1AE
330
1AE
102
}
330
34
100
AcDbEntity
  8
0
  6
Continuous
 62
   250
100
AcDbLine
 10
94.249473012409
 20
-189.8488343437693
 30
0.0
 11
93.67659988406376
 21
-192.2832812059596
 31
0.0
  0
LINE
  5
85
102
{ACAD_REACTORS
330
1AE
330
1AE
102
}
330
34
100
AcDbEntity
  8
0
  6
Continuous
 62
   250
100
AcDbLine
 10
93.67659988406376
 20
-192.2832812059596
 30
0.0
 11
93.09354782715673
 21
-189.8488343437693
 31
0.0
  0
LINE
  5
86
102
{ACAD_REACTORS
330
1AE
330
1AE
102
}
330
34
100
AcDbEntity
  8
0
  6
Continuous
 62
   250
100
AcDbLine
 10
93.09354782715673
 20
-189.8488343437693
 30
0.0
 11
92.15756980122387
 21
-189.8488343437693
 31
0.0
  0
LINE
  5
87
102
{ACAD_REACTORS
330
1AE
330
1AE
102
}
330
34
100
AcDbEntity
  8
0
  6
Continuous
 62
   250
100
AcDbLine
 10
92.15756980122387
 20
-189.8488343437693
 30
0.0
 11
91.5642971918569
 21
-192.2832812059596
 31
0.0
  0
LINE
  5
88
102
{ACAD_REACTORS
330
1AE
330
1AE
102
}
330
34
100
AcDbEntity
  8
0
  6
Continuous
 62
   250
100
AcDbLine
 10
91.5642971918569
 20
-192.2832812059596
 30
0.0
 11
90.9863345992344
 21
-189.8488343437693
 31
0.0
  0
LINE
  5
89
102
{ACAD_REACTORS
330
1AE
330
1AE
102
}
330
34
100
AcDbEntity
  8
0
  6
Continuous
 62
   250
100
AcDbLine
 10
90.9863345992344
 20
-189.8488343437693
 30
0.0
 11
90.22938462891034
 21
-189.8488343437693
 31
0.0
  0
LINE
  5
8A
102
{ACAD_REACTORS
330
1AE
330
1AE
102
}
330
34
100
AcDbEntity
  8
0
  6
Continuous
 62
   250
100
AcDbLine
 10
90.22938462891034
 20
-189.8488343437693
 30
0.0
 11
91.06821443059016
 21
-193.255028327505
 31
0.0
  0
LINE
  5
8B
102
{ACAD_REACTORS
330
1AE
330
1AE
102
}
330
34
100
AcDbEntity
  8
0
  6
Continuous
 62
   250
100
AcDbLine
 10
91.06821443059016
 20
-193.255028327505
 30
0.0
 11
92.04503115049738
 21
-193.255028327505
 31
0.0
  0
LINE
  5
8C
102
{ACAD_REACTORS
330
1AE
330
1AE
102
}
330
34
100
AcDbEntity
  8
0
  6
Continuous
 62
   250
100
AcDbLine
 10
92.04503115049738
 20
-193.255028327505
 30
0.0
 11
92.62303442097618
 21
-190.6671435767676
 31
0.0
  0
LINE
  5
8D
102
{ACAD_REACTORS
330
1AF
330
1AF
102
}
330
34
100
AcDbEntity
  8
0
  6
Continuous
 62
   250
100
AcDbLine
 10
97.50727694801026
 20
-192.5748479122913
 30
0.0
 11
96.13144528132398
 21
-192.5748479122913
 31
0.0
  0
LINE
  5
8E
102
{ACAD_REACTORS
330
1AF
330
1AF
102
}
330
34
100
AcDbEntity
  8
0
  6
Continuous
 62
   250
100
AcDbLine
 10
96.13144528132398
 20
-192.5748479122913
 30
0.0
 11
96.13144528132398
 21
-191.833247690598
 31
0.0
  0
LINE
  5
8F
102
{ACAD_REACTORS
330
1AF
330
1AF
102
}
330
34
100
AcDbEntity
  8
0
  6
Continuous
 62
   250
100
AcDbLine
 10
96.13144528132398
 20
-191.833247690598
 30
0.0
 11
97.39990911731002
 21
-191.833247690598
 31
0.0
  0
LINE
  5
90
102
{ACAD_REACTORS
330
1AF
330
1AF
102
}
330
34
100
AcDbEntity
  8
0
  6
Continuous
 62
   250
100
AcDbLine
 10
95.36427570451633
 20
-189.8488343437693
 30
0.0
 11
95.36427570451633
 21
-193.255028327505
 31
0.0
  0
LINE
  5
91
102
{ACAD_REACTORS
330
1B0
330
1B0
102
}
330
34
100
AcDbEntity
  8
0
  6
Continuous
 62
   250
100
AcDbLine
 10
101.0772920842574
 20
-189.8488343437693
 30
0.0
 11
101.0772920842574
 21
-193.255028327505
 31
0.0
  0
LINE
  5
92
102
{ACAD_REACTORS
330
1B0
330
1B0
102
}
330
34
100
AcDbEntity
  8
0
  6
Continuous
 62
   250
100
AcDbLine
 10
101.0772920842574
 20
-193.255028327505
 30
0.0
 11
101.844420983165
 21
-193.255028327505
 31
0.0
  0
LINE
  5
93
102
{ACAD_REACTORS
330
1B0
330
1B0
102
}
330
34
100
AcDbEntity
  8
0
  6
Continuous
 62
   250
100
AcDbLine
 10
101.844420983165
 20
-193.255028327505
 30
0.0
 11
101.844420983165
 21
-189.8488343437693
 31
0.0
  0
LINE
  5
94
102
{ACAD_REACTORS
330
1B0
330
1B0
102
}
330
34
100
AcDbEntity
  8
0
  6
Continuous
 62
   250
100
AcDbLine
 10
101.844420983165
 20
-189.8488343437693
 30
0.0
 11
101.0772920842574
 21
-189.8488343437693
 31
0.0
  0
LINE
  5
95
102
{ACAD_REACTORS
330
1B1
330
1B1
102
}
330
34
100
AcDbEntity
  8
0
  6
Continuous
 62
   250
100
AcDbLine
 10
102.9338567635568
 20
-193.255028327505
 30
0.0
 11
103.7982152424738
 21
-193.255028327505
 31
0.0
  0
LINE
  5
96
102
{ACAD_REACTORS
330
1B1
330
1B1
102
}
330
34
100
AcDbEntity
  8
0
  6
Continuous
 62
   250
100
AcDbLine
 10
101.9416098852889
 20
-191.5161721729764
 30
0.0
 11
102.9338567635568
 21
-193.255028327505
 31
0.0
  0
LINE
  5
97
102
{ACAD_REACTORS
330
1B1
330
1B1
102
}
330
34
100
AcDbEntity
  8
0
  6
Continuous
 62
   250
100
AcDbLine
 10
103.7982152424738
 20
-193.255028327505
 30
0.0
 11
102.7701377787453
 21
-191.5161721729764
 31
0.0
  0
LINE
  5
98
102
{ACAD_REACTORS
330
1B1
330
1B1
102
}
330
34
100
AcDbEntity
  8
0
  6
Continuous
 62
   250
100
AcDbLine
 10
102.7701377787453
 20
-191.5161721729764
 30
0.0
 11
103.7265966414634
 21
-189.8488343437693
 31
0.0
  0
LINE
  5
99
102
{ACAD_REACTORS
330
1B1
330
1B1
102
}
330
34
100
AcDbEntity
  8
0
  6
Continuous
 62
   250
100
AcDbLine
 10
103.7265966414634
 20
-189.8488343437693
 30
0.0
 11
102.8622778944264
 21
-189.8488343437693
 31
0.0
  0
LINE
  5
9A
102
{ACAD_REACTORS
330
1B1
330
1B1
102
}
330
34
100
AcDbEntity
  8
0
  6
Continuous
 62
   250
100
AcDbLine
 10
102.8622778944264
 20
-189.8488343437693
 30
0.0
 11
101.9416098852889
 21
-191.5161721729764
 31
0.0
  0
LINE
  5
9B
102
{ACAD_REACTORS
330
1B2
330
1B2
102
}
330
34
100
AcDbEntity
  8
0
  6
Continuous
 62
   250
100
AcDbLine
 10
75.0412605399033
 20
-195.8312886661097
 30
0.0
 11
75.88096633486566
 21
-195.8312886661097
 31
0.0
  0
LINE
  5
9C
102
{ACAD_REACTORS
330
1B2
330
1B2
102
}
330
34
100
AcDbEntity
  8
0
  6
Continuous
 62
   250
100
AcDbLine
 10
75.83219497310347
 20
-195.6931390363898
 30
0.0
 11
75.09005271206843
 21
-195.6931390363898
 31
0.0
  0
LINE
  5
9D
102
{ACAD_REACTORS
330
1B2
330
1B2
102
}
330
34
100
AcDbEntity
  8
0
  6
Continuous
 62
   250
100
AcDbLine
 10
75.46110350440722
 20
-194.5934013477763
 30
0.0
 11
75.83219497310347
 21
-195.6931390363898
 31
0.0
  0
LINE
  5
9E
102
{ACAD_REACTORS
330
1B2
330
1B2
102
}
330
34
100
AcDbEntity
  8
0
  6
Continuous
 62
   250
100
AcDbLine
 10
75.09005271206843
 20
-195.6931390363898
 30
0.0
 11
75.46110350440722
 21
-194.5934013477763
 31
0.0
  0
LINE
  5
9F
102
{ACAD_REACTORS
330
1B2
330
1B2
102
}
330
34
100
AcDbEntity
  8
0
  6
Continuous
 62
   250
100
AcDbLine
 10
75.34461531584384
 20
-194.5013019099615
 30
0.0
 11
74.71622540283715
 21
-196.3053438853494
 31
0.0
  0
LINE
  5
A0
102
{ACAD_REACTORS
330
1B2
330
1B2
102
}
330
34
100
AcDbEntity
  8
0
  6
Continuous
 62
   250
100
AcDbLine
 10
75.58029913660721
 20
-194.5013019099615
 30
0.0
 11
75.34461531584384
 21
-194.5013019099615
 31
0.0
  0
LINE
  5
A1
102
{ACAD_REACTORS
330
1B2
330
1B2
102
}
330
34
100
AcDbEntity
  8
0
  6
Continuous
 62
   250
100
AcDbLine
 10
76.20872972751386
 20
-196.3053438853494
 30
0.0
 11
75.58029913660721
 21
-194.5013019099615
 31
0.0
  0
LINE
  5
A2
102
{ACAD_REACTORS
330
1B2
330
1B2
102
}
330
34
100
AcDbEntity
  8
0
  6
Continuous
 62
   250
100
AcDbLine
 10
76.0516270462831
 20
-196.3053438853494
 30
0.0
 11
76.20872972751386
 21
-196.3053438853494
 31
0.0
  0
LINE
  5
A3
102
{ACAD_REACTORS
330
1B2
330
1B2
102
}
330
34
100
AcDbEntity
  8
0
  6
Continuous
 62
   250
100
AcDbLine
 10
75.88096633486566
 20
-195.8312886661097
 30
0.0
 11
76.0516270462831
 21
-196.3053438853494
 31
0.0
  0
LINE
  5
A4
102
{ACAD_REACTORS
330
1B2
330
1B2
102
}
330
34
100
AcDbEntity
  8
0
  6
Continuous
 62
   250
100
AcDbLine
 10
74.87328740619705
 20
-196.3053438853494
 30
0.0
 11
75.0412605399033
 21
-195.8312886661097
 31
0.0
  0
LINE
  5
A5
102
{ACAD_REACTORS
330
1B2
330
1B2
102
}
330
34
100
AcDbEntity
  8
0
  6
Continuous
 62
   250
100
AcDbLine
 10
74.71622540283715
 20
-196.3053438853494
 30
0.0
 11
74.87328740619705
 21
-196.3053438853494
 31
0.0
  0
LINE
  5
A6
102
{ACAD_REACTORS
330
1B3
330
1B3
102
}
330
34
100
AcDbEntity
  8
0
  6
Continuous
 62
   250
100
AcDbLine
 10
77.58203747398511
 20
-196.1508682380045
 30
0.0
 11
76.72602552734315
 21
-194.5013019099615
 31
0.0
  0
LINE
  5
A7
102
{ACAD_REACTORS
330
1B3
330
1B3
102
}
330
34
100
AcDbEntity
  8
0
  6
Continuous
 62
   250
100
AcDbLine
 10
77.58203747398511
 20
-194.5013019099615
 30
0.0
 11
77.58203747398511
 21
-196.1508682380045
 31
0.0
  0
LINE
  5
A8
102
{ACAD_REACTORS
330
1B3
330
1B3
102
}
330
34
100
AcDbEntity
  8
0
  6
Continuous
 62
   250
100
AcDbLine
 10
76.72602552734315
 20
-194.5013019099615
 30
0.0
 11
76.49308982807997
 21
-194.5013019099615
 31
0.0
  0
LINE
  5
A9
102
{ACAD_REACTORS
330
1B3
330
1B3
102
}
330
34
100
AcDbEntity
  8
0
  6
Continuous
 62
   250
100
AcDbLine
 10
76.49308982807997
 20
-194.5013019099615
 30
0.0
 11
76.49308982807997
 21
-196.3053438853494
 31
0.0
  0
LINE
  5
AA
102
{ACAD_REACTORS
330
1B3
330
1B3
102
}
330
34
100
AcDbEntity
  8
0
  6
Continuous
 62
   250
100
AcDbLine
 10
76.49308982807997
 20
-196.3053438853494
 30
0.0
 11
76.64477667602478
 21
-196.3053438853494
 31
0.0
  0
LINE
  5
AB
102
{ACAD_REACTORS
330
1B3
330
1B3
102
}
330
34
100
AcDbEntity
  8
0
  6
Continuous
 62
   250
100
AcDbLine
 10
76.64477667602478
 20
-196.3053438853494
 30
0.0
 11
76.64477667602478
 21
-194.6584254031359
 31
0.0
  0
LINE
  5
AC
102
{ACAD_REACTORS
330
1B3
330
1B3
102
}
330
34
100
AcDbEntity
  8
0
  6
Continuous
 62
   250
100
AcDbLine
 10
76.64477667602478
 20
-194.6584254031359
 30
0.0
 11
77.50074666830915
 21
-196.3053032074749
 31
0.0
  0
LINE
  5
AD
102
{ACAD_REACTORS
330
1B3
330
1B3
102
}
330
34
100
AcDbEntity
  8
0
  6
Continuous
 62
   250
100
AcDbLine
 10
77.50074666830915
 20
-196.3053032074749
 30
0.0
 11
77.73372432193719
 21
-196.3053032074749
 31
0.0
  0
LINE
  5
AE
102
{ACAD_REACTORS
330
1B3
330
1B3
102
}
330
34
100
AcDbEntity
  8
0
  6
Continuous
 62
   250
100
AcDbLine
 10
77.73372432193719
 20
-196.3053032074749
 30
0.0
 11
77.73372432193719
 21
-194.5013019099615
 31
0.0
  0
LINE
  5
AF
102
{ACAD_REACTORS
330
1B3
330
1B3
102
}
330
34
100
AcDbEntity
  8
0
  6
Continuous
 62
   250
100
AcDbLine
 10
77.73372432193719
 20
-194.5013019099615
 30
0.0
 11
77.58203747398511
 21
-194.5013019099615
 31
0.0
  0
LINE
  5
B0
102
{ACAD_REACTORS
330
1B4
330
1B4
102
}
330
34
100
AcDbEntity
  8
0
  6
Continuous
 62
   250
100
AcDbLine
 10
80.25007088141865
 20
-196.3053438853494
 30
0.0
 11
80.25007088141865
 21
-194.6448257490993
 31
0.0
  0
LINE
  5
B1
102
{ACAD_REACTORS
330
1B4
330
1B4
102
}
330
34
100
AcDbEntity
  8
0
  6
Continuous
 62
   250
100
AcDbLine
 10
80.80535508601315
 20
-194.6448257490993
 30
0.0
 11
80.80535508601315
 21
-194.5013019099615
 31
0.0
  0
LINE
  5
B2
102
{ACAD_REACTORS
330
1B4
330
1B4
102
}
330
34
100
AcDbEntity
  8
0
  6
Continuous
 62
   250
100
AcDbLine
 10
80.25007088141865
 20
-194.6448257490993
 30
0.0
 11
80.80535508601315
 21
-194.6448257490993
 31
0.0
  0
LINE
  5
B3
102
{ACAD_REACTORS
330
1B4
330
1B4
102
}
330
34
100
AcDbEntity
  8
0
  6
Continuous
 62
   250
100
AcDbLine
 10
80.80535508601315
 20
-194.5013019099615
 30
0.0
 11
79.53493682005501
 21
-194.5013019099615
 31
0.0
  0
LINE
  5
B4
102
{ACAD_REACTORS
330
1B4
330
1B4
102
}
330
34
100
AcDbEntity
  8
0
  6
Continuous
 62
   250
100
AcDbLine
 10
79.53493682005501
 20
-194.5013019099615
 30
0.0
 11
79.53493682005501
 21
-194.6448664269738
 31
0.0
  0
LINE
  5
B5
102
{ACAD_REACTORS
330
1B4
330
1B4
102
}
330
34
100
AcDbEntity
  8
0
  6
Continuous
 62
   250
100
AcDbLine
 10
79.53493682005501
 20
-194.6448664269738
 30
0.0
 11
80.09026075653674
 21
-194.6448664269738
 31
0.0
  0
LINE
  5
B6
102
{ACAD_REACTORS
330
1B4
330
1B4
102
}
330
34
100
AcDbEntity
  8
0
  6
Continuous
 62
   250
100
AcDbLine
 10
80.09026075653674
 20
-194.6448664269738
 30
0.0
 11
80.09026075653674
 21
-196.3053438853494
 31
0.0
  0
LINE
  5
B7
102
{ACAD_REACTORS
330
1B4
330
1B4
102
}
330
34
100
AcDbEntity
  8
0
  6
Continuous
 62
   250
100
AcDbLine
 10
80.09026075653674
 20
-196.3053438853494
 30
0.0
 11
80.25007088141865
 21
-196.3053438853494
 31
0.0
  0
LINE
  5
B8
102
{ACAD_REACTORS
330
1B5
330
1B5
102
}
330
34
100
AcDbEntity
  8
0
  6
Continuous
 62
   250
100
AcDbLine
 10
81.06265967007494
 20
-196.3053438853494
 30
0.0
 11
82.08118918526452
 21
-196.3053438853494
 31
0.0
  0
LINE
  5
B9
102
{ACAD_REACTORS
330
1B5
330
1B5
102
}
330
34
100
AcDbEntity
  8
0
  6
Continuous
 62
   250
100
AcDbLine
 10
82.08118918526452
 20
-196.3053438853494
 30
0.0
 11
82.08118918526452
 21
-196.1617386904627
 31
0.0
  0
LINE
  5
BA
102
{ACAD_REACTORS
330
1B5
330
1B5
102
}
330
34
100
AcDbEntity
  8
0
  6
Continuous
 62
   250
100
AcDbLine
 10
82.08118918526452
 20
-196.1617386904627
 30
0.0
 11
81.22248966088955
 21
-196.1617386904627
 31
0.0
  0
LINE
  5
BB
102
{ACAD_REACTORS
330
1B5
330
1B5
102
}
330
34
100
AcDbEntity
  8
0
  6
Continuous
 62
   250
100
AcDbLine
 10
81.22248966088955
 20
-196.1617386904627
 30
0.0
 11
81.22248966088955
 21
-195.4574750815618
 31
0.0
  0
LINE
  5
BC
102
{ACAD_REACTORS
330
1B5
330
1B5
102
}
330
34
100
AcDbEntity
  8
0
  6
Continuous
 62
   250
100
AcDbLine
 10
81.22248966088955
 20
-195.4574750815618
 30
0.0
 11
82.01883284165524
 21
-195.4574750815618
 31
0.0
  0
LINE
  5
BD
102
{ACAD_REACTORS
330
1B5
330
1B5
102
}
330
34
100
AcDbEntity
  8
0
  6
Continuous
 62
   250
100
AcDbLine
 10
82.01883284165524
 20
-195.4574750815618
 30
0.0
 11
82.01883284165524
 21
-195.313911510546
 31
0.0
  0
LINE
  5
BE
102
{ACAD_REACTORS
330
1B5
330
1B5
102
}
330
34
100
AcDbEntity
  8
0
  6
Continuous
 62
   250
100
AcDbLine
 10
82.01883284165524
 20
-195.313911510546
 30
0.0
 11
81.22248966088955
 21
-195.313911510546
 31
0.0
  0
LINE
  5
BF
102
{ACAD_REACTORS
330
1B5
330
1B5
102
}
330
34
100
AcDbEntity
  8
0
  6
Continuous
 62
   250
100
AcDbLine
 10
81.22248966088955
 20
-195.313911510546
 30
0.0
 11
81.22248966088955
 21
-194.6448257490993
 31
0.0
  0
LINE
  5
C0
102
{ACAD_REACTORS
330
1B5
330
1B5
102
}
330
34
100
AcDbEntity
  8
0
  6
Continuous
 62
   250
100
AcDbLine
 10
82.07846092968975
 20
-194.6448257490993
 30
0.0
 11
82.07846092968975
 21
-194.5013019099615
 31
0.0
  0
LINE
  5
C1
102
{ACAD_REACTORS
330
1B5
330
1B5
102
}
330
34
100
AcDbEntity
  8
0
  6
Continuous
 62
   250
100
AcDbLine
 10
81.22248966088955
 20
-194.6448257490993
 30
0.0
 11
82.07846092968975
 21
-194.6448257490993
 31
0.0
  0
LINE
  5
C2
102
{ACAD_REACTORS
330
1B5
330
1B5
102
}
330
34
100
AcDbEntity
  8
0
  6
Continuous
 62
   250
100
AcDbLine
 10
82.07846092968975
 20
-194.5013019099615
 30
0.0
 11
81.06265967007494
 21
-194.5013019099615
 31
0.0
  0
LINE
  5
C3
102
{ACAD_REACTORS
330
1B5
330
1B5
102
}
330
34
100
AcDbEntity
  8
0
  6
Continuous
 62
   250
100
AcDbLine
 10
81.06265967007494
 20
-194.5013019099615
 30
0.0
 11
81.06265967007494
 21
-196.3053438853494
 31
0.0
  0
LINE
  5
C4
102
{ACAD_REACTORS
330
1B6
330
1B6
102
}
330
34
100
AcDbEntity
  8
0
  6
Continuous
 62
   250
100
AcDbLine
 10
84.82232830111025
 20
-195.4493726165629
 30
0.0
 11
84.82232830111025
 21
-196.3053032074749
 31
0.0
  0
LINE
  5
C5
102
{ACAD_REACTORS
330
1B6
330
1B6
102
}
330
34
100
AcDbEntity
  8
0
  6
Continuous
 62
   250
100
AcDbLine
 10
84.82232830111025
 20
-196.3053032074749
 30
0.0
 11
84.98215923793032
 21
-196.3053032074749
 31
0.0
  0
LINE
  5
C6
102
{ACAD_REACTORS
330
1B6
330
1B6
102
}
330
34
100
AcDbEntity
  8
0
  6
Continuous
 62
   250
100
AcDbLine
 10
84.98215923793032
 20
-196.3053032074749
 30
0.0
 11
84.98215923793032
 21
-194.5013019099615
 31
0.0
  0
LINE
  5
C7
102
{ACAD_REACTORS
330
1B6
330
1B6
102
}
330
34
100
AcDbEntity
  8
0
  6
Continuous
 62
   250
100
AcDbLine
 10
84.98215923793032
 20
-194.5013019099615
 30
0.0
 11
84.82232830111025
 21
-194.5013019099615
 31
0.0
  0
LINE
  5
C8
102
{ACAD_REACTORS
330
1B6
330
1B6
102
}
330
34
100
AcDbEntity
  8
0
  6
Continuous
 62
   250
100
AcDbLine
 10
84.82232830111025
 20
-194.5013019099615
 30
0.0
 11
84.82232830111025
 21
-195.3057674216752
 31
0.0
  0
LINE
  5
C9
102
{ACAD_REACTORS
330
1B6
330
1B6
102
}
330
34
100
AcDbEntity
  8
0
  6
Continuous
 62
   250
100
AcDbLine
 10
84.82232830111025
 20
-195.3057674216752
 30
0.0
 11
83.95015210233396
 21
-195.3057674216752
 31
0.0
  0
LINE
  5
CA
102
{ACAD_REACTORS
330
1B6
330
1B6
102
}
330
34
100
AcDbEntity
  8
0
  6
Continuous
 62
   250
100
AcDbLine
 10
83.95015210233396
 20
-195.3057674216752
 30
0.0
 11
83.95015210233396
 21
-194.5013019099615
 31
0.0
  0
LINE
  5
CB
102
{ACAD_REACTORS
330
1B6
330
1B6
102
}
330
34
100
AcDbEntity
  8
0
  6
Continuous
 62
   250
100
AcDbLine
 10
83.95015210233396
 20
-194.5013019099615
 30
0.0
 11
83.79032211149752
 21
-194.5013019099615
 31
0.0
  0
LINE
  5
CC
102
{ACAD_REACTORS
330
1B6
330
1B6
102
}
330
34
100
AcDbEntity
  8
0
  6
Continuous
 62
   250
100
AcDbLine
 10
83.79032211149752
 20
-194.5013019099615
 30
0.0
 11
83.79032211149752
 21
-196.3053438853494
 31
0.0
  0
LINE
  5
CD
102
{ACAD_REACTORS
330
1B6
330
1B6
102
}
330
34
100
AcDbEntity
  8
0
  6
Continuous
 62
   250
100
AcDbLine
 10
83.79032211149752
 20
-196.3053438853494
 30
0.0
 11
83.95015210233396
 21
-196.3053438853494
 31
0.0
  0
LINE
  5
CE
102
{ACAD_REACTORS
330
1B6
330
1B6
102
}
330
34
100
AcDbEntity
  8
0
  6
Continuous
 62
   250
100
AcDbLine
 10
83.95015210233396
 20
-196.3053438853494
 30
0.0
 11
83.95015210233396
 21
-195.4493726165629
 31
0.0
  0
LINE
  5
CF
102
{ACAD_REACTORS
330
1B6
330
1B6
102
}
330
34
100
AcDbEntity
  8
0
  6
Continuous
 62
   250
100
AcDbLine
 10
83.95015210233396
 20
-195.4493726165629
 30
0.0
 11
84.82232830111025
 21
-195.4493726165629
 31
0.0
  0
LINE
  5
D0
102
{ACAD_REACTORS
330
1B7
330
1B7
102
}
330
34
100
AcDbEntity
  8
0
  6
Continuous
 62
   250
100
AcDbLine
 10
86.5044870665879
 20
-194.5013019099615
 30
0.0
 11
86.5044870665879
 21
-196.1508682380045
 31
0.0
  0
LINE
  5
D1
102
{ACAD_REACTORS
330
1B7
330
1B7
102
}
330
34
100
AcDbEntity
  8
0
  6
Continuous
 62
   250
100
AcDbLine
 10
86.42328017121326
 20
-196.3053438853494
 30
0.0
 11
86.65615404858545
 21
-196.3053438853494
 31
0.0
  0
LINE
  5
D2
102
{ACAD_REACTORS
330
1B7
330
1B7
102
}
330
34
100
AcDbEntity
  8
0
  6
Continuous
 62
   250
100
AcDbLine
 10
85.41553942067549
 20
-196.3053032074749
 30
0.0
 11
85.56724708055845
 21
-196.3053032074749
 31
0.0
  0
LINE
  5
D3
102
{ACAD_REACTORS
330
1B7
330
1B7
102
}
330
34
100
AcDbEntity
  8
0
  6
Continuous
 62
   250
100
AcDbLine
 10
85.56724708055845
 20
-196.3053032074749
 30
0.0
 11
85.56724708055845
 21
-194.658465442164
 31
0.0
  0
LINE
  5
D4
102
{ACAD_REACTORS
330
1B7
330
1B7
102
}
330
34
100
AcDbEntity
  8
0
  6
Continuous
 62
   250
100
AcDbLine
 10
85.41553942067549
 20
-194.5013019099615
 30
0.0
 11
85.41553942067549
 21
-196.3053032074749
 31
0.0
  0
LINE
  5
D5
102
{ACAD_REACTORS
330
1B7
330
1B7
102
}
330
34
100
AcDbEntity
  8
0
  6
Continuous
 62
   250
100
AcDbLine
 10
85.64849593184772
 20
-194.5013019099615
 30
0.0
 11
85.41553942067549
 21
-194.5013019099615
 31
0.0
  0
LINE
  5
D6
102
{ACAD_REACTORS
330
1B7
330
1B7
102
}
330
34
100
AcDbEntity
  8
0
  6
Continuous
 62
   250
100
AcDbLine
 10
86.65615404858545
 20
-196.3053438853494
 30
0.0
 11
86.65615404858545
 21
-194.5013019099615
 31
0.0
  0
LINE
  5
D7
102
{ACAD_REACTORS
330
1B7
330
1B7
102
}
330
34
100
AcDbEntity
  8
0
  6
Continuous
 62
   250
100
AcDbLine
 10
86.65615404858545
 20
-194.5013019099615
 30
0.0
 11
86.5044870665879
 21
-194.5013019099615
 31
0.0
  0
LINE
  5
D8
102
{ACAD_REACTORS
330
1B7
330
1B7
102
}
330
34
100
AcDbEntity
  8
0
  6
Continuous
 62
   250
100
AcDbLine
 10
86.5044870665879
 20
-196.1508682380045
 30
0.0
 11
85.64849593184772
 21
-194.5013019099615
 31
0.0
  0
LINE
  5
D9
102
{ACAD_REACTORS
330
1B7
330
1B7
102
}
330
34
100
AcDbEntity
  8
0
  6
Continuous
 62
   250
100
AcDbLine
 10
85.56724708055845
 20
-194.658465442164
 30
0.0
 11
86.42328017121326
 21
-196.3053438853494
 31
0.0
  0
LINE
  5
DA
102
{ACAD_REACTORS
330
1B8
330
1B8
102
}
330
34
100
AcDbEntity
  8
0
  6
Continuous
 62
   250
100
AcDbLine
 10
87.10305252963008
 20
-196.3053438853494
 30
0.0
 11
87.26290333239012
 21
-196.3053438853494
 31
0.0
  0
LINE
  5
DB
102
{ACAD_REACTORS
330
1B8
330
1B8
102
}
330
34
100
AcDbEntity
  8
0
  6
Continuous
 62
   250
100
AcDbLine
 10
87.26290333239012
 20
-194.5013019099615
 30
0.0
 11
87.10305252963008
 21
-194.5013019099615
 31
0.0
  0
LINE
  5
DC
102
{ACAD_REACTORS
330
1B8
330
1B8
102
}
330
34
100
AcDbEntity
  8
0
  6
Continuous
 62
   250
100
AcDbLine
 10
87.26290333239012
 20
-196.3053438853494
 30
0.0
 11
87.26290333239012
 21
-194.5013019099615
 31
0.0
  0
LINE
  5
DD
102
{ACAD_REACTORS
330
1B8
330
1B8
102
}
330
34
100
AcDbEntity
  8
0
  6
Continuous
 62
   250
100
AcDbLine
 10
87.10305252963008
 20
-194.5013019099615
 30
0.0
 11
87.10305252963008
 21
-196.3053438853494
 31
0.0
  0
LINE
  5
DE
102
{ACAD_REACTORS
330
1B9
330
1B9
102
}
330
34
100
AcDbEntity
  8
0
  6
Continuous
 62
   250
100
AcDbLine
 10
87.86961099231848
 20
-194.5013019099615
 30
0.0
 11
87.70976018954389
 21
-194.5013019099615
 31
0.0
  0
LINE
  5
DF
102
{ACAD_REACTORS
330
1B9
330
1B9
102
}
330
34
100
AcDbEntity
  8
0
  6
Continuous
 62
   250
100
AcDbLine
 10
87.70976018954389
 20
-196.3053438853494
 30
0.0
 11
87.86961099231848
 21
-196.3053438853494
 31
0.0
  0
LINE
  5
E0
102
{ACAD_REACTORS
330
1B9
330
1B9
102
}
330
34
100
AcDbEntity
  8
0
  6
Continuous
 62
   250
100
AcDbLine
 10
87.86961099231848
 20
-196.3053438853494
 30
0.0
 11
87.86961099231848
 21
-194.5013019099615
 31
0.0
  0
LINE
  5
E1
102
{ACAD_REACTORS
330
1B9
330
1B9
102
}
330
34
100
AcDbEntity
  8
0
  6
Continuous
 62
   250
100
AcDbLine
 10
87.70976018954389
 20
-194.5013019099615
 30
0.0
 11
87.70976018954389
 21
-196.3053438853494
 31
0.0
  0
LINE
  5
E2
330
34
100
AcDbEntity
  8
0
  6
PHANTOM
 62
   250
100
AcDbLine
 10
76.94693003568682
 20
-193.255028327505
 30
0.0
 11
76.94693003568682
 21
-189.8488343437693
 31
0.0
  0
LINE
  5
E3
330
34
100
AcDbEntity
  8
0
  6
PHANTOM
 62
   250
100
AcDbLine
 10
76.94693003568682
 20
-189.8488343437693
 30
0.0
 11
76.1797803248337
 21
-189.8488343437693
 31
0.0
  0
LINE
  5
E4
330
34
100
AcDbEntity
  8
0
  6
Continuous
 62
   250
100
AcDbLine
 10
80.19976654063794
 20
-193.255028327505
 30
0.0
 11
80.94142825214658
 21
-193.255028327505
 31
0.0
  0
LINE
  5
E5
330
34
100
AcDbEntity
  8
0
  6
Continuous
 62
   250
100
AcDbLine
 10
76.94693003568682
 20
-193.255028327505
 30
0.0
 11
76.94693003568682
 21
-189.8488343437693
 31
0.0
  0
LINE
  5
E6
330
34
100
AcDbEntity
  8
0
  6
Continuous
 62
   250
100
AcDbLine
 10
76.94693003568682
 20
-189.8488343437693
 30
0.0
 11
76.1797803248337
 21
-189.8488343437693
 31
0.0
  0
LINE
  5
E7
330
34
100
AcDbEntity
  8
0
  6
Continuous
 62
   250
100
AcDbLine
 10
76.94693003568682
 20
-193.255028327505
 30
0.0
 11
76.94693003568682
 21
-189.8488343437693
 31
0.0
  0
LINE
  5
E8
102
{ACAD_REACTORS
330
1BA
330
1BA
102
}
330
34
100
AcDbEntity
  8
0
  6
Continuous
 62
   250
100
AcDbLine
 10
80.19976654063794
 20
-193.255028327505
 30
0.0
 11
80.94142825214658
 21
-193.255028327505
 31
0.0
  0
LINE
  5
E9
330
34
100
AcDbEntity
  8
0
  6
Continuous
 62
   250
100
AcDbLine
 10
76.94693003568682
 20
-193.255028327505
 30
0.0
 11
76.94693003568682
 21
-189.8488343437693
 31
0.0
  0
LINE
  5
EA
102
{ACAD_REACTORS
330
1BB
330
1BB
102
}
330
34
100
AcDbEntity
  8
0
  6
Continuous
 62
   250
100
AcDbLine
 10
76.94693003568682
 20
-189.8488343437693
 30
0.0
 11
76.1797803248337
 21
-189.8488343437693
 31
0.0
  0
LINE
  5
EB
102
{ACAD_REACTORS
330
1BB
330
1BB
102
}
330
34
100
AcDbEntity
  8
0
  6
Continuous
 62
   250
100
AcDbLine
 10
76.94693003568682
 20
-193.255028327505
 30
0.0
 11
76.94693003568682
 21
-189.8488343437693
 31
0.0
  0
LINE
  5
EC
330
34
100
AcDbEntity
  8
0
  6
Continuous
 62
     2
100
AcDbLine
 10
-219.4005880125551
 20
72.15627714767743
 30
0.0
 11
-212.4005926546524
 21
72.15627714767743
 31
0.0
  0
LINE
  5
ED
330
34
100
AcDbEntity
  8
0
  6
Continuous
 62
     2
100
AcDbLine
 10
-212.4005926546524
 20
86.75626454767735
 30
0.0
 11
-219.4005880125551
 21
86.75626454767735
 31
0.0
  0
LINE
  5
EE
330
34
100
AcDbEntity
  8
0
  6
Continuous
 62
     2
100
AcDbLine
 10
-219.4005880125551
 20
86.75626454767735
 30
0.0
 11
-219.4005880125551
 21
72.15627714767743
 31
0.0
  0
LINE
  5
EF
330
34
100
AcDbEntity
  8
1
  6
Continuous
 62
     7
100
AcDbLine
 10
182.5994073453476
 20
86.75626454767735
 30
0.0
 11
182.5994073453476
 21
-199.2437354523227
 31
0.0
  0
LINE
  5
F0
330
34
100
AcDbEntity
  8
1
  6
Continuous
 62
     7
100
AcDbLine
 10
-227.4005926546524
 20
-56.24373545232265
 30
0.0
 11
-212.4005926546524
 21
-56.24373545232265
 31
0.0
  0
LINE
  5
F1
330
34
100
AcDbEntity
  8
1
  6
Continuous
 62
     7
100
AcDbLine
 10
-212.4005926546524
 20
86.75626454767735
 30
0.0
 11
-212.4005926546524
 21
-199.2437354523227
 31
0.0
  0
LINE
  5
F2
330
34
100
AcDbEntity
  8
1
  6
Continuous
 62
     7
100
AcDbLine
 10
-212.4005926546524
 20
86.75626454767735
 30
0.0
 11
182.5994073453476
 21
86.75626454767735
 31
0.0
  0
LINE
  5
F3
330
34
100
AcDbEntity
  8
1
  6
Continuous
 62
     7
100
AcDbLine
 10
-212.4005926546524
 20
-199.2437354523227
 30
0.0
 11
59.52932247955323
 21
-199.2437354523227
 31
0.0
  0
LINE
  5
F4
330
34
100
AcDbEntity
  8
1
  6
Continuous
 62
     7
100
AcDbLine
 10
169.5994073453476
 20
-186.9104020989225
 30
0.0
 11
182.5994073453476
 21
-186.9104020989225
 31
0.0
  0
LINE
  5
F5
330
34
100
AcDbEntity
  8
1
  6
Continuous
 62
     2
100
AcDbLine
 10
169.5994073453476
 20
-186.9104020989225
 30
0.0
 11
169.5994073453476
 21
-186.9110354523227
 31
0.0
  0
LINE
  5
F6
330
34
100
AcDbEntity
  8
1
  6
Continuous
 62
     7
100
AcDbLine
 10
67.59940734534757
 20
-186.9104020989225
 30
0.0
 11
169.5994073453476
 21
-186.9104020989225
 31
0.0
  0
LINE
  5
F7
330
34
100
AcDbEntity
  8
1
  6
Continuous
 62
     7
100
AcDbLine
 10
67.59940734534757
 20
-178.2437354523227
 30
0.0
 11
104.5994073453476
 21
-178.2437354523227
 31
0.0
  0
LINE
  5
F8
330
34
100
AcDbEntity
  8
1
  6
Continuous
 62
     7
100
AcDbLine
 10
-0.40059265465243
 20
-144.2437354523227
 30
0.0
 11
7.59940734534757
 21
-144.2437354523227
 31
0.0
  0
LINE
  5
F9
330
34
100
AcDbEntity
  8
1
  6
Continuous
 62
     7
100
AcDbLine
 10
67.59940734534757
 20
-152.2437354523227
 30
0.0
 11
182.5994073453476
 21
-152.2437354523227
 31
0.0
  0
LINE
  5
FA
330
34
100
AcDbEntity
  8
1
  6
Continuous
 62
     7
100
AcDbLine
 10
182.5994073453476
 20
-199.2437354523227
 30
0.0
 11
169.5994073453476
 21
-199.2437354523227
 31
0.0
  0
LINE
  5
FB
330
34
100
AcDbEntity
  8
1
  6
Continuous
 62
     7
100
AcDbLine
 10
162.5994073453476
 20
-144.2437354523227
 30
0.0
 11
162.5994073453476
 21
-152.2437354523227
 31
0.0
  0
LINE
  5
FC
330
34
100
AcDbEntity
  8
1
  6
Continuous
 62
     7
100
AcDbLine
 10
67.59940734534757
 20
-144.2437354523227
 30
0.0
 11
182.5994073453476
 21
-144.2437354523227
 31
0.0
  0
LINE
  5
FD
330
34
100
AcDbEntity
  8
1
  6
Continuous
 62
     7
100
AcDbLine
 10
104.5994073453476
 20
-178.2450354523226
 30
0.0
 11
182.5994073453476
 21
-178.2450354523226
 31
0.0
  0
LINE
  5
FE
330
34
100
AcDbEntity
  8
1
  6
Continuous
 62
     7
100
AcDbLine
 10
67.59940734534757
 20
-169.5767354523223
 30
0.0
 11
104.5994073453476
 21
-169.5767354523223
 31
0.0
  0
LINE
  5
FF
330
34
100
AcDbEntity
  8
1
  6
Continuous
 62
     7
100
AcDbLine
 10
104.5994073453476
 20
-144.2437354523227
 30
0.0
 11
104.5994073453476
 21
-199.2437354523227
 31
0.0
  0
LINE
  5
100
330
34
100
AcDbEntity
  8
1
  6
Continuous
 62
     2
100
AcDbLine
 10
67.59940734534757
 20
-156.577068785622
 30
0.0
 11
104.5994073453476
 21
-156.577068785622
 31
0.0
  0
LINE
  5
101
330
34
100
AcDbEntity
  8
1
  6
Continuous
 62
     2
100
AcDbLine
 10
67.59940734534757
 20
-160.9104021189223
 30
0.0
 11
104.5994073453476
 21
-160.9104021189223
 31
0.0
  0
LINE
  5
102
330
34
100
AcDbEntity
  8
1
  6
Continuous
 62
     2
100
AcDbLine
 10
76.59940734534757
 20
-152.2437354523227
 30
0.0
 11
76.59940734534757
 21
-165.2437354523227
 31
0.0
  0
LINE
  5
103
330
34
100
AcDbEntity
  8
1
  6
Continuous
 62
     2
100
AcDbLine
 10
91.59940734534757
 20
-152.2437354523227
 30
0.0
 11
91.59940734534757
 21
-165.2437354523227
 31
0.0
  0
LINE
  5
104
330
34
100
AcDbEntity
  8
1
  6
Continuous
 62
     2
100
AcDbLine
 10
-0.40059265465243
 20
-147.9104021256226
 30
0.0
 11
67.59940734534757
 21
-147.9104021256226
 31
0.0
  0
LINE
  5
105
330
34
100
AcDbEntity
  8
1
  6
Continuous
 62
     2
100
AcDbLine
 10
-0.40059265465243
 20
-152.2437354556223
 30
0.0
 11
67.59940734534757
 21
-152.2437354523227
 31
0.0
  0
LINE
  5
106
330
34
100
AcDbEntity
  8
1
  6
Continuous
 62
     2
100
AcDbLine
 10
-0.40059265465243
 20
-156.577068785622
 30
0.0
 11
67.59940734534757
 21
-156.577068785622
 31
0.0
  0
LINE
  5
107
330
34
100
AcDbEntity
  8
1
  6
Continuous
 62
     2
100
AcDbLine
 10
-0.40059265465243
 20
-160.9104021189223
 30
0.0
 11
67.59940734534757
 21
-160.9104021189223
 31
0.0
  0
LINE
  5
108
330
34
100
AcDbEntity
  8
1
  6
Continuous
 62
     2
100
AcDbLine
 10
-0.40059265465243
 20
-165.2437354489221
 30
0.0
 11
67.59940734534757
 21
-165.2437354523227
 31
0.0
  0
LINE
  5
109
330
34
100
AcDbEntity
  8
1
  6
Continuous
 62
     2
100
AcDbLine
 10
-0.40059265465243
 20
-169.5770687789227
 30
0.0
 11
67.59940734534757
 21
-169.5770687789227
 31
0.0
  0
LINE
  5
10A
330
34
100
AcDbEntity
  8
1
  6
Continuous
 62
     2
100
AcDbLine
 10
-0.40059265465243
 20
-173.9104021089224
 30
0.0
 11
67.59940734534757
 21
-173.9104021089224
 31
0.0
  0
LINE
  5
10B
330
34
100
AcDbEntity
  8
1
  6
Continuous
 62
     2
100
AcDbLine
 10
-0.40059265465243
 20
-178.2437354389213
 30
0.0
 11
67.59940734534757
 21
-178.2437354389213
 31
0.0
  0
LINE
  5
10C
330
34
100
AcDbEntity
  8
1
  6
Continuous
 62
     2
100
AcDbLine
 10
-0.40059265465243
 20
-182.5770687689228
 30
0.0
 11
67.59940734534757
 21
-182.5770687689228
 31
0.0
  0
LINE
  5
10D
330
34
100
AcDbEntity
  8
1
  6
Continuous
 62
     2
100
AcDbLine
 10
-0.40059265465243
 20
-186.9104020989225
 30
0.0
 11
67.59940734534757
 21
-186.9104020989225
 31
0.0
  0
LINE
  5
10E
330
34
100
AcDbEntity
  8
1
  6
Continuous
 62
     2
100
AcDbLine
 10
-0.40059265465243
 20
-191.2437354289223
 30
0.0
 11
67.59940734534757
 21
-191.2437354289223
 31
0.0
  0
LINE
  5
10F
330
34
100
AcDbEntity
  8
1
  6
Continuous
 62
     2
100
AcDbLine
 10
-0.40059265465243
 20
-195.577068758922
 30
0.0
 11
59.52932247955323
 21
-195.577068758922
 31
0.0
  0
LINE
  5
110
330
34
100
AcDbEntity
  8
1
  6
Continuous
 62
     7
100
AcDbLine
 10
67.59940734534757
 20
-199.2437354523227
 30
0.0
 11
67.59940734534757
 21
-144.2437354523227
 31
0.0
  0
LINE
  5
111
330
34
100
AcDbEntity
  8
1
  6
Continuous
 62
     2
100
AcDbLine
 10
7.59940734534757
 20
-144.2437354523227
 30
0.0
 11
7.59940734534757
 21
-199.2437354523227
 31
0.0
  0
LINE
  5
112
330
34
100
AcDbEntity
  8
1
  6
Continuous
 62
     2
100
AcDbLine
 10
47.59940734534757
 20
-144.2437354523227
 30
0.0
 11
47.59940734534757
 21
-199.2437354523227
 31
0.0
  0
LINE
  5
113
330
34
100
AcDbEntity
  8
1
  6
Continuous
 62
     7
100
AcDbLine
 10
-0.40059265465243
 20
-144.2437354523227
 30
0.0
 11
-0.40059265465243
 21
-199.2437354523227
 31
0.0
  0
LINE
  5
114
330
34
100
AcDbEntity
  8
1
  6
Continuous
 62
     7
100
AcDbLine
 10
7.59940734534757
 20
-144.2437354523227
 30
0.0
 11
59.52932247955323
 21
-144.2437354523227
 31
0.0
  0
LINE
  5
115
330
34
100
AcDbEntity
  8
1
  6
Continuous
 62
     7
100
AcDbLine
 10
169.5994073453476
 20
-199.2437354523227
 30
0.0
 11
59.52932247955323
 21
-199.2437354523227
 31
0.0
  0
LINE
  5
116
330
34
100
AcDbEntity
  8
1
  6
Continuous
 62
     2
100
AcDbLine
 10
156.5994073453476
 20
-178.2450354523226
 30
0.0
 11
156.5994073453476
 21
-186.9110354523227
 31
0.0
  0
LINE
  5
117
330
34
100
AcDbEntity
  8
1
  6
Continuous
 62
     2
100
AcDbLine
 10
169.5994073453476
 20
-178.2450354523226
 30
0.0
 11
169.5994073453476
 21
-186.9110354523227
 31
0.0
  0
LINE
  5
118
330
34
100
AcDbEntity
  8
1
  6
Continuous
 62
     2
100
AcDbLine
 10
169.5994073453476
 20
-186.9110354523227
 30
0.0
 11
169.5994073453476
 21
-199.2437354523227
 31
0.0
  0
LINE
  5
119
330
34
100
AcDbEntity
  8
0
  6
Continuous
 62
     2
100
AcDbLine
 10
161.1449639169587
 20
-182.7438145362212
 30
0.0
 11
159.0088896414454
 21
-183.526238122523
 31
0.0
  0
LINE
  5
11A
330
34
100
AcDbEntity
  8
DEFAULT_1
  6
CENTER
 62
     2
100
AcDbLine
 10
164.7020344931589
 20
-182.5074648663212
 30
0.0
 11
164.7020344931589
 21
-186.0769014663229
 31
0.0
  0
LINE
  5
11B
330
34
100
AcDbEntity
  8
0
  6
Continuous
 62
     2
100
AcDbLine
 10
161.1449639169587
 20
-185.8610874118213
 30
0.0
 11
161.1449639169587
 21
-182.7438145362212
 31
0.0
  0
LINE
  5
11C
330
34
100
AcDbEntity
  8
0
  6
Continuous
 62
     2
100
AcDbLine
 10
159.0088896414454
 20
-183.526238122523
 30
0.0
 11
159.0088896414454
 21
-185.0786645755225
 31
0.0
  0
LINE
  5
11D
330
34
100
AcDbEntity
  8
0
  6
Continuous
 62
     2
100
AcDbLine
 10
159.0088896414454
 20
-185.0786645755225
 30
0.0
 11
161.1449639169587
 21
-185.8610874118213
 31
0.0
  0
LINE
  5
11E
330
34
100
AcDbEntity
  8
DEFAULT_1
  6
CENTER
 62
     2
100
AcDbLine
 10
162.8190994603501
 20
-184.3019357253224
 30
0.0
 11
166.6135360603439
 21
-184.3019357253224
 31
0.0
  0
LINE
  5
11F
330
34
100
AcDbEntity
  8
DEFAULT_1
  6
CENTER
 62
     2
100
AcDbLine
 10
161.6918107901438
 20
-184.3019357253224
 30
0.0
 11
158.3787563593432
 21
-184.3019357253224
 31
0.0
  0
LINE
  5
120
330
34
100
AcDbEntity
  8
0
  6
Continuous
 62
     2
100
AcDbLine
 10
159.0088896414454
 20
-183.526238122523
 30
0.0
 11
159.0088896414454
 21
-185.0786645755225
 31
0.0
  0
LINE
  5
121
330
34
100
AcDbEntity
  8
0
  6
Continuous
 62
     2
100
AcDbLine
 10
159.0088896414454
 20
-185.0786645755225
 30
0.0
 11
161.1449639169587
 21
-185.8610874118213
 31
0.0
  0
LINE
  5
122
330
34
100
AcDbEntity
  8
1
  6
Continuous
 62
     2
100
AcDbLine
 10
67.59940734534757
 20
-165.2437354523227
 30
0.0
 11
104.5994073453476
 21
-165.2437354523227
 31
0.0
  0
LINE
  5
123
330
34
100
AcDbEntity
  8
1
  6
Continuous
 62
     2
100
AcDbLine
 10
91.59940734534757
 20
-156.5770687857221
 30
0.0
 11
91.59940734534757
 21
-169.5770687857221
 31
0.0
  0
LINE
  5
124
330
34
100
AcDbEntity
  8
1
  6
Continuous
 62
     2
100
AcDbLine
 10
76.59940734534757
 20
-156.5770687857221
 30
0.0
 11
76.59940734534757
 21
-169.5770687857221
 31
0.0
  0
LINE
  5
125
330
34
100
AcDbEntity
  8
1
  6
Continuous
 62
     2
100
AcDbLine
 10
59.52932247955323
 20
-195.577068758922
 30
0.0
 11
59.52932247955323
 21
-144.2437354523227
 31
0.0
  0
LINE
  5
126
330
34
100
AcDbEntity
  8
1
  6
Continuous
 62
     2
100
AcDbLine
 10
59.52932247955323
 20
-195.577068758922
 30
0.0
 11
67.59940734534757
 21
-195.577068758922
 31
0.0
  0
LINE
  5
127
330
34
100
AcDbEntity
  8
1
  6
Continuous
 62
     7
100
AcDbLine
 10
59.52932247955323
 20
-144.2437354523227
 30
0.0
 11
67.59940734534757
 21
-144.2437354523227
 31
0.0
  0
CIRCLE
  5
128
330
34
100
AcDbEntity
  8
0
  6
Continuous
 62
     2
100
AcDbCircle
 10
164.7020344931589
 20
-184.3019357253224
 30
0.0
 40
0.7762481014869991
  0
CIRCLE
  5
129
330
34
100
AcDbEntity
  8
0
  6
Continuous
 62
     2
100
AcDbCircle
 10
164.7020344931589
 20
-184.3019357253224
 30
0.0
 40
1.558121189089405
  0
SPLINE
  5
12A
102
{ACAD_REACTORS
330
1BC
330
1BC
102
}
330
34
100
AcDbEntity
  8
0
  6
Continuous
 62
   250
100
AcDbSpline
210
0.0
220
0.0
230
1.0
 70
    11
 71
     3
 72
    99
 73
    95
 74
    93
 42
0.0000000001
 43
0.0000000001
 44
0.00000001
 40
0.0
 40
0.0
 40
0.0
 40
0.0
 40
0.205886578014739
 40
0.3802558940280118
 40
0.5295924281102353
 40
0.6639497481639882
 40
0.7981974139382951
 40
0.9497668026613064
 40
1.134316501007217
 40
1.364156598964878
 40
1.649145981489632
 40
1.854658565368003
 40
2.005118304764475
 40
2.112155837278241
 40
2.191303161446569
 40
2.265236695307825
 40
2.356357153045459
 40
2.478213504442011
 40
2.607364319186772
 40
2.704600041413773
 40
2.798194798014033
 40
2.922158715440784
 40
3.097569675892018
 40
3.320278193146795
 40
3.540760712029539
 40
3.777817256889256
 40
4.049964076873861
 40
4.077851712666463
 40
4.151373661574297
 40
4.255318485892213
 40
4.374474747915168
 40
4.493631009938151
 40
4.597575834256067
 40
4.671097783163845
 40
4.698985418956475
 40
5.07489380798194
 40
5.424148807298384
 40
5.739911003193814
 40
6.026947052101471
 40
6.268079625838891
 40
6.470402581445125
 40
6.643379948261113
 40
6.799454196879379
 40
6.953060992112208
 40
7.117582259697379
 40
7.30280160008077
 40
7.514778803621002
 40
7.739947017534158
 40
7.928433879635411
 40
8.087733113002914
 40
8.228542352421927
 40
8.36542348075367
 40
8.514542539083598
 40
8.689860884778247
 40
8.901809334336383
 40
9.158237616688643
 40
9.347768156407138
 40
9.493039108210553
 40
9.601795667949741
 40
9.683502780258204
 40
9.751054056304556
 40
9.819893170325646
 40
9.902273957924388
 40
10.00534777548811
 40
10.13191876994668
 40
10.23076108064025
 40
10.31667665043286
 40
10.41307294214297
 40
10.54070016440409
 40
10.71247660285179
 40
11.05520966766493
 40
11.38523983025175
 40
11.71146710544383
 40
11.73754500712031
 40
11.80629583881273
 40
11.90349529051593
 40
12.01491905222442
 40
12.12634281393291
 40
12.22354226563608
 40
12.29229309732855
 40
12.31837099900501
 40
12.5743262462182
 40
12.85505772327697
 40
13.14962999357011
 40
13.44700399602036
 40
13.76080182827821
 40
14.02197667869465
 40
14.23931234709329
 40
14.42395217001395
 40
14.58972154951988
 40
14.75169157294845
 40
14.9229619773092
 40
15.11242230479244
 40
15.32497318704243
 40
15.32497318704243
 40
15.32497318704243
 40
15.32497318704243
 10
75.71946620513336
 20
-192.2986515131943
 30
0.0
 10
75.71924999144242
 20
-192.2300178866764
 30
0.0
 10
75.71885066220429
 20
-192.1032571174044
 30
0.0
 10
75.70787433807676
 20
-191.9268751803795
 30
0.0
 10
75.67983275938415
 20
-191.7761106483597
 30
0.0
 10
75.62509005380844
 20
-191.64630349294
 30
0.0
 10
75.53484094069182
 20
-191.5366592907018
 30
0.0
 10
75.4055180463693
 20
-191.4456206315743
 30
0.0
 10
75.23337682669082
 20
-191.3669635408208
 30
0.0
 10
75.01157014926324
 20
-191.2942943838441
 30
0.0
 10
74.7787424346136
 20
-191.2352383171384
 30
0.0
 10
74.57070106808858
 20
-191.1866918774688
 30
0.0
 10
74.4216384637375
 20
-191.1463090468509
 30
0.0
 10
74.31638672548101
 20
-191.1065983199896
 30
0.0
 10
74.24478710301567
 20
-191.0532571939845
 30
0.0
 10
74.20987045645882
 20
-190.9767776210409
 30
0.0
 10
74.20076428527149
 20
-190.8810359680168
 30
0.0
 10
74.19968471304777
 20
-190.7670690576269
 30
0.0
 10
74.20287283439836
 20
-190.6509713600237
 30
0.0
 10
74.24051201420755
 20
-190.5462347255709
 30
0.0
 10
74.33114193747006
 20
-190.4833853621992
 30
0.0
 10
74.46163128672612
 20
-190.4601875545872
 30
0.0
 10
74.6359359812539
 20
-190.4561863260273
 30
0.0
 10
74.84011008104049
 20
-190.4588728741778
 30
0.0
 10
75.07458875321048
 20
-190.4887172550374
 30
0.0
 10
75.28056874829323
 20
-190.4735484092045
 30
0.0
 10
75.5621022149335
 20
-190.6430656647511
 30
0.0
 10
75.5701302996314
 20
-190.5104985821361
 30
0.0
 10
75.57976664334075
 20
-190.4445843310433
 30
0.0
 10
75.59071821715813
 20
-190.3454519535406
 30
0.0
 10
75.60450736325551
 20
-190.2324441189081
 30
0.0
 10
75.61769678748492
 20
-190.1192359591157
 30
0.0
 10
75.63007493374568
 20
-190.0205800997595
 30
0.0
 10
75.63671217016238
 20
-189.9536640565356
 30
0.0
 10
75.66354953382165
 20
-189.789812238824
 30
0.0
 10
75.2270995421299
 20
-189.8807379214381
 30
0.0
 10
74.9493786051573
 20
-189.7965712197799
 30
0.0
 10
74.61626394702508
 20
-189.7965935155539
 30
0.0
 10
74.33842085752937
 20
-189.8023355196095
 30
0.0
 10
74.09543872116829
 20
-189.8321064795289
 30
0.0
 10
73.89591514583586
 20
-189.8840168801541
 30
0.0
 10
73.73486482275072
 20
-189.9613599477563
 30
0.0
 10
73.61069383130557
 20
-190.0668477777037
 30
0.0
 10
73.52266121558996
 20
-190.2004787189954
 30
0.0
 10
73.46710259212395
 20
-190.3601196303837
 30
0.0
 10
73.43779937737771
 20
-190.5457522375344
 30
0.0
 10
73.4314048946602
 20
-190.7533677295422
 30
0.0
 10
73.435605028026
 20
-190.9619180268745
 30
0.0
 10
73.45240948868337
 20
-191.152446989501
 30
0.0
 10
73.48845450789388
 20
-191.3120633710931
 30
0.0
 10
73.55052851660588
 20
-191.4455398151845
 30
0.0
 10
73.64495407269708
 20
-191.5544291842927
 30
0.0
 10
73.77351477605376
 20
-191.6411797331237
 30
0.0
 10
73.9382177139399
 20
-191.7122650031309
 30
0.0
 10
74.14377754551998
 20
-191.7747144698916
 30
0.0
 10
74.35767639535007
 20
-191.8233772493486
 30
0.0
 10
74.55004849032281
 20
-191.8661123170585
 30
0.0
 10
74.6930565444775
 20
-191.9040618281623
 30
0.0
 10
74.79856286585918
 20
-191.9418941107634
 30
0.0
 10
74.87396764701585
 20
-191.9852637978081
 30
0.0
 10
74.92226929057605
 20
-192.0419983767582
 30
0.0
 10
74.94499377921241
 20
-192.1126582243944
 30
0.0
 10
74.95205091224132
 20
-192.1973131704619
 30
0.0
 10
74.9529518845913
 20
-192.301337031453
 30
0.0
 10
74.94987320650722
 20
-192.4108308559053
 30
0.0
 10
74.9259187620533
 20
-192.5136223816903
 30
0.0
 10
74.86662141989879
 20
-192.5907672298125
 30
0.0
 10
74.76980829220508
 20
-192.6343056485186
 30
0.0
 10
74.63872175344835
 20
-192.6537598968995
 30
0.0
 10
74.42594836592534
 20
-192.6620464483465
 30
0.0
 10
74.13295008405989
 20
-192.6256114640712
 30
0.0
 10
73.84964529764923
 20
-192.6438813669617
 30
0.0
 10
73.51636634136545
 20
-192.3876266337506
 30
0.0
 10
73.49192724288254
 20
-192.5334474810031
 30
0.0
 10
73.4774497113481
 20
-192.594369789332
 30
0.0
 10
73.4584407980391
 20
-192.6855123136007
 30
0.0
 10
73.43572221145347
 20
-192.7895809288738
 30
0.0
 10
73.41357223470409
 20
-192.8937837990353
 30
0.0
 10
73.39321075586972
 20
-192.984606968059
 30
0.0
 10
73.38157674563678
 20
-193.0462006623022
 30
0.0
 10
73.3488625394043
 20
-193.1647678988746
 30
0.0
 10
73.6617907193924
 20
-193.1618298320121
 30
0.0
 10
73.87405954797917
 20
-193.2577968410843
 30
0.0
 10
74.17852624989823
 20
-193.2938457947825
 30
0.0
 10
74.47594478752234
 20
-193.3110966819322
 30
0.0
 10
74.7681279877367
 20
-193.2996332783734
 30
0.0
 10
75.03028601871428
 20
-193.2654493089416
 30
0.0
 10
75.24414188678654
 20
-193.2052882816834
 30
0.0
 10
75.41403071918988
 20
-193.1182049584732
 30
0.0
 10
75.54259068996018
 20
-193.0025108586594
 30
0.0
 10
75.63183469450846
 20
-192.8598230740147
 30
0.0
 10
75.68681415329503
 20
-192.6932621811
 30
0.0
 10
75.71559249378981
 20
-192.5036171682587
 30
0.0
 10
75.71812645317925
 20
-192.3695404134099
 30
0.0
 10
75.71946620513336
 20
-192.2986515131943
 30
0.0
 11
75.71946620513336
 21
-192.2986515131943
 31
0.0
 11
75.71662418819871
 21
-192.0927845514293
 31
0.0
 11
75.70355225023684
 21
-191.9189059075283
 31
0.0
 11
75.67343156051086
 21
-191.7726385343307
 31
0.0
 11
75.61944328828393
 21
-191.6496053846759
 31
0.0
 11
75.53476860281916
 21
-191.5454294114033
 31
0.0
 11
75.41258867337967
 21
-191.4557335673522
 31
0.0
 11
75.2460846692286
 21
-191.3761408053621
 31
0.0
 11
75.02843775962907
 21
-191.3022740782722
 31
0.0
 11
74.7528291138442
 21
-191.229756338922
 31
0.0
 11
74.55314473941544
 21
-191.1811603232277
 31
0.0
 11
74.408476025461
 21
-191.1398191043049
 31
0.0
 11
74.30996778962638
 21
-191.0979483407653
 31
0.0
 11
74.2487648495572
 21
-191.0477636912209
 31
0.0
 11
74.216012022899
 21
-190.9814808142834
 31
0.0
 11
74.20285412729731
 21
-190.8913153685647
 31
0.0
 11
74.20043598039774
 21
-190.7694830126766
 31
0.0
 11
74.21115730072744
 21
-190.6407779768791
 31
0.0
 11
74.24937653666316
 21
-190.55136838186
 31
0.0
 11
74.32417660062481
 21
-190.4951106811036
 31
0.0
 11
74.44464040503232
 21
-190.4658613280944
 31
0.0
 11
74.61985086230561
 21
-190.457476776317
 31
0.0
 11
74.84248306642291
 21
-190.4633064716515
 31
0.0
 11
75.06224479849789
 21
-190.4811200128011
 31
0.0
 11
75.29735898476531
 21
-190.5114040824852
 31
0.0
 11
75.56604855145997
 21
-190.5546453634233
 31
0.0
 11
75.56934463406492
 21
-190.5269531972104
 31
0.0
 11
75.57803430638705
 21
-190.4539465771946
 31
0.0
 11
75.59031970518731
 21
-190.3507303213101
 31
0.0
 11
75.60440296722663
 21
-190.2324092474914
 31
0.0
 11
75.61848622926595
 21
-190.1140881736727
 31
0.0
 11
75.63077162806621
 21
-190.0108719177882
 31
0.0
 11
75.63946130038835
 21
-189.9378652977724
 31
0.0
 11
75.6427573829933
 21
-189.9101731315595
 31
0.0
 11
75.27259973416437
 21
-189.8446717426188
 31
0.0
 11
74.9252022999914
 21
-189.808698457009
 31
0.0
 11
74.60963116123457
 21
-189.7977157096102
 31
0.0
 11
74.32277740394231
 21
-189.8079438717046
 31
0.0
 11
74.08370354929194
 21
-189.8393860430648
 31
0.0
 11
73.88866272560296
 21
-189.8931787513064
 31
0.0
 11
73.73390806119478
 21
-189.9704585240449
 31
0.0
 11
73.61569268438689
 21
-190.0723618888957
 31
0.0
 11
73.53026972349876
 21
-190.2000253734745
 31
0.0
 11
73.47389230684979
 21
-190.3545855053968
 31
0.0
 11
73.4428135627595
 21
-190.537178812278
 31
0.0
 11
73.43328661954729
 21
-190.7489418217338
 31
0.0
 11
73.43862328405312
 21
-190.9740467851815
 31
0.0
 11
73.45780554618658
 21
-191.1615550196786
 31
0.0
 11
73.4955918088715
 21
-191.3163078681299
 31
0.0
 11
73.5567404750318
 21
-191.4431466734403
 31
0.0
 11
73.64600994759137
 21
-191.5469127785147
 31
0.0
 11
73.76815862947412
 21
-191.632447526258
 31
0.0
 11
73.9279449236039
 21
-191.704592259575
 31
0.0
 11
74.13012723290464
 21
-191.7681883213706
 31
0.0
 11
74.3794639603002
 21
-191.8280770545498
 31
0.0
 11
74.56413137649642
 21
-191.8707358271692
 31
0.0
 11
74.70415161933056
 21
-191.9094395871227
 31
0.0
 11
74.8056967319815
 21
-191.9483828713064
 31
0.0
 11
74.87493875762812
 21
-191.9917602166164
 31
0.0
 11
74.91804973944929
 21
-192.0437661599489
 31
0.0
 11
74.9412017206239
 21
-192.1085952382001
 31
0.0
 11
74.95056674433081
 21
-192.1904419882661
 31
0.0
 11
74.95231685374893
 21
-192.293500947043
 31
0.0
 11
74.94481107759107
 21
-192.4198491957942
 31
0.0
 11
74.91784025500938
 21
-192.5149406102989
 31
0.0
 11
74.8647241448416
 21
-192.582469596471
 31
0.0
 11
74.7787825059255
 21
-192.6261305602245
 31
0.0
 11
74.65333509709886
 21
-192.6496179074729
 31
0.0
 11
74.48170167719945
 21
-192.6566260441305
 31
0.0
 11
74.13960259329016
 21
-192.6357892856343
 31
0.0
 11
73.81456801016046
 21
-192.5785841461206
 31
0.0
 11
73.49977575003868
 21
-192.4929683295522
 31
0.0
 11
73.4942796551801
 21
-192.5184604831912
 31
0.0
 11
73.47978995055291
 21
-192.5856670700575
 31
0.0
 11
73.45930450608
 21
-192.6806832790755
 31
0.0
 11
73.43582119168423
 21
-192.7896042991692
 31
0.0
 11
73.41233787728845
 21
-192.8985253192629
 31
0.0
 11
73.39185243281554
 21
-192.9935415282809
 31
0.0
 11
73.37736272818836
 21
-193.0607481151472
 31
0.0
 11
73.37186663332977
 21
-193.0862402687862
 31
0.0
 11
73.61130783920908
 21
-193.1766891355731
 31
0.0
 11
73.88333770207828
 21
-193.2460426929365
 31
0.0
 11
74.17454095573976
 21
-193.2904666446138
 31
0.0
 11
74.47150233399589
 21
-193.3061266943423
 31
0.0
 11
74.785058093619
 21
-193.2938033369711
 31
0.0
 11
75.0435948916083
 21
-193.2567759609435
 31
0.0
 11
75.25195373574172
 21
-193.1949586103883
 31
0.0
 11
75.41497563379721
 21
-193.1082653294343
 31
0.0
 11
75.53750159355272
 21
-192.9966101622105
 31
0.0
 11
75.62437262278615
 21
-192.8599071528458
 31
0.0
 11
75.68042972927543
 21
-192.6980703454689
 31
0.0
 11
75.71051392079855
 21
-192.5110137842088
 31
0.0
 11
75.71946620513336
 21
-192.2986515131943
 31
0.0
  0
SPLINE
  5
12B
102
{ACAD_REACTORS
330
1BD
330
1BD
102
}
330
34
100
AcDbEntity
  8
0
  6
Continuous
 62
   250
100
AcDbSpline
210
0.0
220
0.0
230
1.0
 70
    11
 71
     3
 72
    21
 73
    17
 74
    15
 42
0.0000000001
 43
0.0000000001
 44
0.00000001
 40
0.0
 40
0.0
 40
0.0
 40
0.0
 40
0.3412552453428896
 40
0.7767617679045864
 40
1.212268290469792
 40
1.553523535814092
 40
1.887662654731712
 40
2.508206732721645
 40
2.842345851639293
 40
3.183601097059461
 40
3.619107619627888
 40
4.054614142192806
 40
4.395869387611564
 40
4.730008506529211
 40
5.350552584519145
 40
5.684691703436764
 40
5.684691703436764
 40
5.684691703436764
 40
5.684691703436764
 10
83.24802644681768
 20
-192.1963527178859
 30
0.0
 10
83.21846959300838
 20
-192.3165042091985
 30
0.0
 10
83.15119257871511
 20
-192.5899918290432
 30
0.0
 10
82.69307234054558
 20
-192.6456243442037
 30
0.0
 10
82.24932279564938
 20
-192.5918208643145
 30
0.0
 10
82.11929816140588
 20
-192.1933949819185
 30
0.0
 10
82.1541286939434
 20
-191.7700175512186
 30
0.0
 10
82.15405168006279
 20
-191.3338537237222
 30
0.0
 10
82.1194236805708
 20
-190.9105143499193
 30
0.0
 10
82.24878589739274
 20
-190.5119463472243
 30
0.0
 10
82.69569944679351
 20
-190.4588275030812
 30
0.0
 10
83.14235815604823
 20
-190.5119784546516
 30
0.0
 10
83.27231988525541
 20
-190.9104184467509
 30
0.0
 10
83.23508376507186
 20
-191.3343354530893
 30
0.0
 10
83.2499959853442
 20
-191.7671717295613
 30
0.0
 10
83.24853706791716
 20
-192.0850835727647
 30
0.0
 10
83.24802644681768
 20
-192.1963527178859
 30
0.0
 11
83.24802644681768
 21
-192.1963527178859
 31
0.0
 11
83.115684379507
 21
-192.5109011556407
 31
0.0
 11
82.69565367122414
 21
-192.6259669424462
 31
0.0
 11
82.27562296293763
 21
-192.5109011556407
 31
0.0
 11
82.14328089562332
 21
-192.1963527178859
 31
0.0
 11
82.14328089562332
 21
-191.8622135989683
 31
0.0
 11
82.14328089562332
 21
-191.2416695209783
 31
0.0
 11
82.14328089562332
 21
-190.9075304020607
 31
0.0
 11
82.27562296293763
 21
-190.5929819642236
 31
0.0
 11
82.69565367122414
 21
-190.4779161774059
 31
0.0
 11
83.115684379507
 21
-190.5929819642236
 31
0.0
 11
83.24802644681768
 21
-190.9075304020607
 31
0.0
 11
83.24802644681769
 21
-191.2416695209783
 31
0.0
 11
83.24802644681768
 21
-191.8622135989683
 31
0.0
 11
83.24802644681768
 21
-192.1963527178859
 31
0.0
  0
SPLINE
  5
12C
102
{ACAD_REACTORS
330
1BD
330
1BD
102
}
330
34
100
AcDbEntity
  8
0
  6
Continuous
 62
   250
100
AcDbSpline
210
0.0
220
0.0
230
1.0
 70
    11
 71
     3
 72
    21
 73
    17
 74
    15
 42
0.0000000001
 43
0.0000000001
 44
0.00000001
 40
0.0
 40
0.0
 40
0.0
 40
0.0
 40
0.775404439407058
 40
1.847167968754805
 40
2.918946034233409
 40
3.694344582237207
 40
4.062970101028569
 40
4.747560350212538
 40
5.1161858690039
 40
5.891546854204392
 40
6.963331148768684
 40
8.035100907286605
 40
8.810467784175767
 40
9.179093302967129
 40
9.863683552151098
 40
10.23230907094246
 40
10.23230907094246
 40
10.23230907094246
 40
10.23230907094246
 10
84.01521652337397
 20
-190.8410209165413
 30
0.0
 10
83.94665961272344
 20
-190.5730880695646
 30
0.0
 10
83.78334338321199
 20
-189.9348186097058
 30
0.0
 10
82.68652448719305
 20
-189.7193458249785
 30
0.0
 10
81.63940492212706
 20
-189.9308610319367
 30
0.0
 10
81.35117297468176
 20
-190.7090182891904
 30
0.0
 10
81.38411335237188
 20
-191.3134487507421
 30
0.0
 10
81.38403989151153
 20
-191.7904412609561
 30
0.0
 10
81.35134727960664
 20
-192.3948309857349
 30
0.0
 10
81.6376501467584
 20
-193.1732236460538
 30
0.0
 10
82.69575719220771
 20
-193.3832573586208
 30
0.0
 10
83.75327381360836
 20
-193.1731699505553
 30
0.0
 10
84.04066652442312
 20
-192.3949313510217
 30
0.0
 10
84.00571918775012
 20
-191.7902254433007
 30
0.0
 10
84.01666177009938
 20
-191.3147686132374
 30
0.0
 10
84.01559121696943
 20
-190.9638443934625
 30
0.0
 10
84.01521652337397
 20
-190.8410209165413
 30
0.0
 11
84.01521652337397
 21
-190.8410209165413
 31
0.0
 11
83.71601544677105
 21
-190.1256673253629
 31
0.0
 11
82.69565367122414
 21
-189.7977360675623
 31
0.0
 11
81.6752766272848
 21
-190.1256673253629
 31
0.0
 11
81.3760908190743
 21
-190.8410209165413
 31
0.0
 11
81.3760908190743
 21
-191.2096464353327
 31
0.0
 11
81.3760908190743
 21
-191.8942366845166
 31
0.0
 11
81.3760908190743
 21
-192.262862203308
 31
0.0
 11
81.6752766272848
 21
-192.9781750785846
 31
0.0
 11
82.69565367122414
 21
-193.3061266943396
 31
0.0
 11
83.71601544677105
 21
-192.9781750785846
 31
0.0
 11
84.01521652337397
 21
-192.262862203308
 31
0.0
 11
84.01521652337397
 21
-191.8942366845166
 31
0.0
 11
84.01521652337397
 21
-191.2096464353327
 31
0.0
 11
84.01521652337397
 21
-190.8410209165413
 31
0.0
  0
SPLINE
  5
12D
102
{ACAD_REACTORS
330
1BE
330
1BE
102
}
330
34
100
AcDbEntity
  8
0
  6
Continuous
 62
   250
100
AcDbSpline
210
0.0
220
0.0
230
1.0
 70
    11
 71
     3
 72
   100
 73
    96
 74
    94
 42
0.0000000001
 43
0.0000000001
 44
0.00000001
 40
0.0
 40
0.0
 40
0.0
 40
0.0
 40
0.1867995174892391
 40
0.3476296850620902
 40
0.4869324351436052
 40
0.6112224347066836
 40
0.7301389440908254
 40
0.8559981854519499
 40
1.001296096493256
 40
1.176591637421245
 40
1.390310174631794
 40
1.649435668550112
 40
1.854960965008789
 40
2.00542618547525
 40
2.112464178547632
 40
2.19160955393289
 40
2.265540883322654
 40
2.356658154582227
 40
2.478508054744343
 40
2.607650889827001
 40
2.70488328183204
 40
2.798472513061135
 40
2.922426590498485
 40
3.097825602678794
 40
3.320545631082219
 40
3.541031983084749
 40
3.778083321099207
 40
4.050213732335643
 40
4.078098969102705
 40
4.15161459330675
 40
4.255550475802156
 40
4.374696487443215
 40
4.493842499084273
 40
4.59777838157968
 40
4.671294005783725
 40
4.699179242550787
 40
5.075100995887359
 40
5.424355995209894
 40
5.740104627403113
 40
6.02714132426707
 40
6.26827526514978
 40
6.470599391733628
 40
6.643576762308512
 40
6.799649158021682
 40
6.953252401170668
 40
7.117769507451319
 40
7.302985472787408
 40
7.514961312823168
 40
7.740135613518247
 40
7.928627384867229
 40
8.087930704665913
 40
8.228743612216496
 40
8.365628433716823
 40
8.51475162375794
 40
8.690074879970666
 40
8.902029307551306
 40
9.158464906469034
 40
9.347997264482144
 40
9.493265947446327
 40
9.602017205947893
 40
9.683717463645225
 40
9.751262642785724
 40
9.820098395033714
 40
9.902478136999697
 40
10.00555184603496
 40
10.13213845283845
 40
10.23098801874637
 40
10.31690411123259
 40
10.41329669627946
 40
10.54091781656118
 40
10.7126856316249
 40
11.05541935737164
 40
11.38546625508887
 40
11.71168673955347
 40
11.73776274674538
 40
11.80650858388761
 40
11.90370097433018
 40
12.01511664142282
 40
12.12653230851548
 40
12.22372469895799
 40
12.29247053610025
 40
12.31854654329216
 40
12.5745014980484
 40
12.85523082020365
 40
13.14979711690451
 40
13.44715936644986
 40
13.7609578974046
 40
14.02213462765634
 40
14.23947304388135
 40
14.42411618739821
 40
14.58988921184234
 40
14.75186310253246
 40
14.92313774472987
 40
15.11260302890612
 40
15.32515999509536
 40
15.32515999509536
 40
15.32515999509536
 40
15.32515999509536
 10
89.99929906750913
 20
-192.2986311552422
 30
0.0
 10
89.99911091547717
 20
-192.2363616316104
 30
0.0
 10
89.99876076879328
 20
-192.1204794538616
 30
0.0
 10
89.99028782428181
 20
-191.9582681130666
 30
0.0
 10
89.96927091239814
 20
-191.8179912245026
 30
0.0
 10
89.92938490605934
 20
-191.6959509591784
 30
0.0
 10
89.86386712592578
 20
-191.5902258661665
 30
0.0
 10
89.76829508908077
 20
-191.5002007168522
 30
0.0
 10
89.64021806572957
 20
-191.4229208196647
 30
0.0
 10
89.47566532749855
 20
-191.3538022695808
 30
0.0
 10
89.26948681049751
 20
-191.2886392013637
 30
0.0
 10
89.05017648760276
 20
-191.2332843951879
 30
0.0
 10
88.85052329026985
 20
-191.1866908993422
 30
0.0
 10
88.70145492970153
 20
-191.1463067532653
 30
0.0
 10
88.59620264878973
 20
-191.1065930082559
 30
0.0
 10
88.52460667833991
 20
-191.0532484980695
 30
0.0
 10
88.48969710901233
 20
-190.9767684500492
 30
0.0
 10
88.48059616310212
 20
-190.881030626612
 30
0.0
 10
88.47951794505026
 20
-190.7670695112689
 30
0.0
 10
88.48270539283408
 20
-190.6509779729882
 30
0.0
 10
88.52033644667243
 20
-190.5462456151159
 30
0.0
 10
88.61095463934747
 20
-190.4833910027345
 30
0.0
 10
88.7414347603676
 20
-190.4601883404644
 30
0.0
 10
88.91573587618328
 20
-190.456185443548
 30
0.0
 10
89.11991109333918
 20
-190.4588752975438
 30
0.0
 10
89.35439286019015
 20
-190.4887204231508
 30
0.0
 10
89.56037037091778
 20
-190.4735470967416
 30
0.0
 10
89.84188812476106
 20
-190.6430180598041
 30
0.0
 10
89.84992532453478
 20
-190.5104622272044
 30
0.0
 10
89.85956569613205
 20
-190.4445539521429
 30
0.0
 10
89.87052359872709
 20
-190.3454310942622
 30
0.0
 10
89.88431985202091
 20
-190.2324339310319
 30
0.0
 10
89.89751647409372
 20
-190.1192364940584
 30
0.0
 10
89.90990073350804
 20
-190.0205900320176
 30
0.0
 10
89.91654245112285
 20
-189.9536802219525
 30
0.0
 10
89.94339133392927
 20
-189.7898288448887
 30
0.0
 10
89.5069189368406
 20
-189.8807597052518
 30
0.0
 10
89.22920257186217
 20
-189.7965924354183
 30
0.0
 10
88.89609193601183
 20
-189.7966139642949
 30
0.0
 10
88.61825290364709
 20
-189.8023552356686
 30
0.0
 10
88.37526930946977
 20
-189.8321223986261
 30
0.0
 10
88.17574356343702
 20
-189.8840272038053
 30
0.0
 10
88.0146902856851
 20
-189.9613632166509
 30
0.0
 10
87.89051542320328
 20
-190.0668436731181
 30
0.0
 10
87.80247882150226
 20
-190.2004683490591
 30
0.0
 10
87.74691720544911
 20
-190.3601044781265
 30
0.0
 10
87.71761215203968
 20
-190.5457338924852
 30
0.0
 10
87.7112172805119
 20
-190.7533498636169
 30
0.0
 10
87.71541756126501
 20
-190.9619033608901
 30
0.0
 10
87.73222211922386
 20
-191.1524373602751
 30
0.0
 10
87.76826763825314
 20
-191.3120579690244
 30
0.0
 10
87.83034270177399
 20
-191.4455381441151
 30
0.0
 10
87.92477004821993
 20
-191.5544310632959
 30
0.0
 10
88.05333342539106
 20
-191.6411851746504
 30
0.0
 10
88.21803993184845
 20
-191.7122749984626
 30
0.0
 10
88.4236050600058
 20
-191.7747273203108
 30
0.0
 10
88.63750597433511
 20
-191.82340390099
 30
0.0
 10
88.82988489685178
 20
-191.8661188614751
 30
0.0
 10
88.97289354559051
 20
-191.9040590045022
 30
0.0
 10
89.07839754540625
 20
-191.9418834174559
 30
0.0
 10
89.15379858970962
 20
-191.9852482278239
 30
0.0
 10
89.20209432474945
 20
-192.0419812357983
 30
0.0
 10
89.22481172026818
 20
-192.1126396602364
 30
0.0
 10
89.23186428912078
 20
-192.1972932313377
 30
0.0
 10
89.23276398965697
 20
-192.3013219288345
 30
0.0
 10
89.22968589118355
 20
-192.410823262951
 30
0.0
 10
89.20573312746771
 20
-192.5136230252934
 30
0.0
 10
89.14643811363425
 20
-192.5907717779497
 30
0.0
 10
89.04962748053106
 20
-192.6343092506188
 30
0.0
 10
88.91854681031904
 20
-192.6537605894773
 30
0.0
 10
88.705778139058
 20
-192.6620459270283
 30
0.0
 10
88.41277617912957
 20
-192.6256105802085
 30
0.0
 10
88.12947157975512
 20
-192.6438917623739
 30
0.0
 10
87.79617676831387
 20
-192.387669673759
 30
0.0
 10
87.7717410562324
 20
-192.533485282418
 30
0.0
 10
87.75726573596023
 20
-192.5944036176997
 30
0.0
 10
87.73825988968261
 20
-192.685539790343
 30
0.0
 10
87.71554490232612
 20
-192.7896012935714
 30
0.0
 10
87.693398455097
 20
-192.8937970129348
 30
0.0
 10
87.67304020911214
 20
-192.9846139225166
 30
0.0
 10
87.66140806153915
 20
-193.0462034499135
 30
0.0
 10
87.6286973019034
 20
-193.1647684718119
 30
0.0
 10
87.9416219572202
 20
-193.1618293996528
 30
0.0
 10
88.15388904831427
 20
-193.2577963922108
 30
0.0
 10
88.4583483780626
 20
-193.2938456011697
 30
0.0
 10
88.75576146490818
 20
-193.3110968098651
 30
0.0
 10
89.04794158526343
 20
-193.2996331664402
 30
0.0
 10
89.31010137762604
 20
-193.2654490565149
 30
0.0
 10
89.52395984384346
 20
-193.205287469779
 30
0.0
 10
89.69385178792933
 20
-193.1182031477868
 30
0.0
 10
89.82241514159058
 20
-193.0025074175832
 30
0.0
 10
89.91166248663905
 20
-192.8598170690695
 30
0.0
 10
89.96664473357627
 20
-192.6932524637488
 30
0.0
 10
89.9954250048217
 20
-192.5036025310355
 30
0.0
 10
89.99795919302348
 20
-192.3695220878033
 30
0.0
 10
89.99929906750913
 20
-192.2986311552422
 30
0.0
 11
89.99929906750913
 21
-192.2986311552422
 31
0.0
 11
89.99708908775202
 21
-192.1118447110775
 31
0.0
 11
89.98714519685602
 21
-191.9513222458729
 31
0.0
 11
89.96449646738392
 21
-191.8138730143961
 31
0.0
 11
89.92417197189876
 21
-191.6963062714147
 31
0.0
 11
89.86120078296335
 21
-191.5954312716964
 31
0.0
 11
89.77061197314063
 21
-191.5080572700088
 31
0.0
 11
89.64743461499347
 21
-191.4309935211196
 31
0.0
 11
89.4866977810848
 21
-191.3610492797966
 31
0.0
 11
89.28343054397753
 21
-191.2950338008072
 31
0.0
 11
89.03266197623452
 21
-191.2297563389193
 31
0.0
 11
88.83296477819025
 21
-191.1811592548741
 31
0.0
 11
88.68829107612495
 21
-191.1398155431305
 31
0.0
 11
88.58978355083379
 21
-191.0979419306523
 31
0.0
 11
88.52858488311203
 21
-191.0477551444037
 31
0.0
 11
88.49583775375478
 21
-190.9814719113489
 31
0.0
 11
88.48268484355731
 21
-190.8913089584518
 31
0.0
 11
88.48026883331477
 21
-190.7694830126766
 31
0.0
 11
88.49098787447437
 21
-190.6407857943314
 31
0.0
 11
88.52920092344168
 21
-190.5513771764937
 31
0.0
 11
88.60399186844938
 21
-190.4951165441927
 31
0.0
 11
88.72444459773018
 21
-190.4658632824574
 31
0.0
 11
88.8996429995168
 21
-190.457476776317
 31
0.0
 11
89.12228666041426
 21
-190.4633086983157
 31
0.0
 11
89.34205221239517
 21
-190.4811225575806
 31
0.0
 11
89.577162582592
 21
-190.5113954940149
 31
0.0
 11
89.84584069813718
 21
-190.554604647522
 31
0.0
 11
89.84913853024636
 21
-190.5269151055804
 31
0.0
 11
89.85783281489785
 21
-190.4539154040981
 31
0.0
 11
89.87012473457753
 21
-190.3507089295886
 31
0.0
 11
89.88421547177131
 21
-190.2323990685655
 31
0.0
 11
89.8983062089651
 21
-190.1140892075423
 31
0.0
 11
89.91059812864478
 21
-190.0108827330328
 31
0.0
 11
89.91929241329626
 21
-189.9378830315505
 31
0.0
 11
89.92259024540544
 21
-189.9101934896089
 31
0.0
 11
89.55241902465814
 21
-189.8446921006
 31
0.0
 11
89.20502159048166
 21
-189.8087188149649
 31
0.0
 11
88.88946402363945
 21
-189.7977360675623
 31
0.0
 11
88.6026095681959
 21
-189.8079628333638
 31
0.0
 11
88.3635338425166
 21
-189.8394012626589
 31
0.0
 11
88.16849031002924
 21
-189.8931885532838
 31
0.0
 11
88.01373243416145
 21
-189.9704619030746
 31
0.0
 11
87.89551367834093
 21
-190.0723585098674
 31
0.0
 11
87.81008750599534
 21
-190.2000155714985
 31
0.0
 11
87.7537073805523
 21
-190.3545702858037
 31
0.0
 11
87.72262676543954
 21
-190.5371598506194
 31
0.0
 11
87.71309912408469
 21
-190.7489214637817
 31
0.0
 11
87.71843581620483
 21
-190.9740325150669
 31
0.0
 11
87.7376182730397
 21
-191.1615456645153
 31
0.0
 11
87.77540506530097
 21
-191.3163025901422
 31
0.0
 11
87.83655476370026
 21
-191.4431449699627
 31
0.0
 11
87.9258259389493
 21
-191.5469144819921
 31
0.0
 11
88.04797716175973
 21
-191.6324528042457
 31
0.0
 11
88.20776700284321
 21
-191.7046016147387
 31
0.0
 11
88.4099540329114
 21
-191.7682025914862
 31
0.0
 11
88.65929682267597
 21
-191.8280974125037
 31
0.0
 11
88.84396920905562
 21
-191.8707427456933
 31
0.0
 11
88.98398988926829
 21
-191.9094364061939
 31
0.0
 11
89.08553209933615
 21
-191.9483724537617
 31
0.0
 11
89.15476907528137
 21
-191.9917449481536
 31
0.0
 11
89.1978740531261
 21
-192.0437479491259
 31
0.0
 11
89.22102026889252
 21
-192.1085755164352
 31
0.0
 11
89.23038095860278
 21
-192.190421709838
 31
0.0
 11
89.23212935827905
 21
-192.2934805890909
 31
0.0
 11
89.22462367637111
 21
-192.4198444833057
 31
0.0
 11
89.1976535135365
 21
-192.5149436262926
 31
0.0
 11
89.1445391941088
 21
-192.5824746859603
 31
0.0
 11
89.05860104242176
 21
-192.6261343302171
 31
0.0
 11
88.93315938280904
 21
-192.6496192269716
 31
0.0
 11
88.76153453960433
 21
-192.6566260441323
 31
0.0
 11
88.41943470169026
 21
-192.635790793632
 31
0.0
 11
88.0943812686881
 21
-192.5785962100924
 31
0.0
 11
87.77958825457608
 21
-192.4930090454554
 31
0.0
 11
87.77409303406287
 21
-192.5184994495829
 31
0.0
 11
87.75960563452804
 21
-192.5857014241008
 31
0.0
 11
87.7391234489788
 21
-192.6807111122124
 31
0.0
 11
87.71564387042235
 21
-192.7896246571208
 31
0.0
 11
87.69216429186591
 21
-192.8985382020292
 31
0.0
 11
87.67168210631667
 21
-192.9935478901408
 31
0.0
 11
87.65719470678184
 21
-193.0607498646587
 31
0.0
 11
87.65169948626863
 21
-193.0862402687862
 31
0.0
 11
87.8911403795206
 21
-193.1766891355727
 31
0.0
 11
88.16316801855555
 21
-193.2460426929351
 31
0.0
 11
88.4543652295132
 21
-193.2904666446115
 31
0.0
 11
88.75131483853329
 21
-193.3061266943396
 31
0.0
 11
89.06487129629517
 21
-193.2938033090427
 31
0.0
 11
89.32340996530462
 21
-193.2567757375342
 31
0.0
 11
89.53177151823076
 21
-193.194957856388
 31
0.0
 11
89.69479662774272
 21
-193.1082635421777
 31
0.0
 11
89.81732596650963
 21
-192.9966066714769
 31
0.0
 11
89.90420020720059
 21
-192.8599011208593
 31
0.0
 11
89.96026002248475
 21
-192.6980607668985
 31
0.0
 11
89.99034608503122
 21
-192.5109994861683
 31
0.0
 11
89.99929906750913
 21
-192.2986311552422
 31
0.0
  0
SPLINE
  5
12E
102
{ACAD_REACTORS
330
1BF
330
1BF
102
}
330
34
100
AcDbEntity
  8
0
  6
Continuous
 62
   250
100
AcDbSpline
210
0.0
220
0.0
230
1.0
 70
    11
 71
     3
 72
    23
 73
    19
 74
    17
 42
0.0000000001
 43
0.0000000001
 44
0.00000001
 40
0.0
 40
0.0
 40
0.0
 40
0.0
 40
0.2941947040900034
 40
0.6338731501450892
 40
0.7916639994090358
 40
1.084704148042104
 40
1.242494997306065
 40
1.399124123048776
 40
1.743708199682768
 40
2.088292276316761
 40
2.244921402059472
 40
2.402712251323433
 40
2.695752399956487
 40
2.853543249220448
 40
3.185715271569981
 40
3.47427139553501
 40
3.609774038673789
 40
3.745276681812596
 40
3.745276681812596
 40
3.745276681812596
 40
3.745276681812596
 10
99.7781681517663
 20
-191.1580962872522
 30
0.0
 10
99.76762268174005
 20
-191.2674978034401
 30
0.0
 10
99.74490136754793
 20
-191.5032147715997
 30
0.0
 10
99.42527526679284
 20
-191.5330442570878
 30
0.0
 10
99.16450940490078
 20
-191.5340076339883
 30
0.0
 10
98.98642229229009
 20
-191.5082813736395
 30
0.0
 10
98.71712877047734
 20
-191.5746967102541
 30
0.0
 10
98.78897333032708
 20
-191.285711446708
 30
0.0
 10
98.74067190216627
 20
-191.0302244440213
 30
0.0
 10
98.7889775617995
 20
-190.7747543214258
 30
0.0
 10
98.71712191218452
 20
-190.485743949239
 30
0.0
 10
98.98645845420441
 20
-190.552253400322
 30
0.0
 10
99.16429570733399
 20
-190.5259816499076
 30
0.0
 10
99.42337068035907
 20
-190.5286499994129
 30
0.0
 10
99.73152537316938
 20
-190.5459944284133
 30
0.0
 10
99.78318617282912
 20
-190.8401615649442
 30
0.0
 10
99.7773151153003
 20
-191.0218986397499
 30
0.0
 10
99.77788380627763
 20
-191.1126970714181
 30
0.0
 10
99.7781681517663
 20
-191.1580962872522
 30
0.0
 11
99.7781681517663
 21
-191.1580962872522
 31
0.0
 11
99.69629858093504
 21
-191.4406699896495
 31
0.0
 11
99.36897297091491
 21
-191.5314410849351
 31
0.0
 11
99.21118212165096
 21
-191.5314410849351
 31
0.0
 11
98.9181419730179
 21
-191.5314410849351
 31
0.0
 11
98.76035112375394
 21
-191.5314410849351
 31
0.0
 11
98.76035112375394
 21
-191.3748119591924
 31
0.0
 11
98.76035112375394
 21
-191.0302278825584
 31
0.0
 11
98.76035112375394
 21
-190.6856438059244
 31
0.0
 11
98.76035112375394
 21
-190.5290146801817
 31
0.0
 11
98.9181419730179
 21
-190.5290146801817
 31
0.0
 11
99.21118212165095
 21
-190.5290146801817
 31
0.0
 11
99.36897297091491
 21
-190.5290146801817
 31
0.0
 11
99.69057290167802
 21
-190.6121515370199
 31
0.0
 11
99.7781681517663
 21
-190.8870910009746
 31
0.0
 11
99.7781681517663
 21
-191.0225936441134
 31
0.0
 11
99.7781681517663
 21
-191.1580962872522
 31
0.0
  0
SPLINE
  5
12F
102
{ACAD_REACTORS
330
1BF
330
1BF
102
}
330
34
100
AcDbEntity
  8
0
  6
Continuous
 62
   250
100
AcDbSpline
210
0.0
220
0.0
230
1.0
 70
    11
 71
     3
 72
    36
 73
    32
 74
    30
 42
0.0000000001
 43
0.0000000001
 44
0.00000001
 40
0.0
 40
0.0
 40
0.0
 40
0.0
 40
0.2360423575133836
 40
0.6744067357525125
 40
0.9104490932658962
 40
1.280549595046205
 40
1.967879098352505
 40
2.337979600132813
 40
2.833164458054385
 40
3.378972243102492
 40
3.588679684157408
 40
3.798387125212297
 40
4.565745079498983
 40
5.477334255196279
 40
5.844619163523273
 40
6.52671970755905
 40
6.894004615886029
 40
7.426222369203241
 40
8.59710142650108
 40
9.767980483798919
 40
10.30019823711613
 40
10.68378309174572
 40
11.06736794637531
 40
11.34183936547721
 40
11.85157200095211
 40
12.12604342005401
 40
12.35106005474703
 40
12.57607668944005
 40
12.91272952801077
 40
13.53794194249921
 40
13.87459478106993
 40
13.87459478106993
 40
13.87459478106993
 40
13.87459478106993
 10
99.9622856338101
 20
-193.2550281915646
 30
0.0
 10
100.0426940692973
 20
-193.2559147182806
 30
0.0
 10
100.2724324564036
 20
-193.258447651755
 30
0.0
 10
100.5254610660978
 20
-193.2325574531707
 30
0.0
 10
101.0173728470713
 20
-193.3063176310039
 30
0.0
 10
100.4796300516121
 20
-192.8091358344712
 30
0.0
 10
100.4120029885345
 20
-192.4990068685374
 30
0.0
 10
99.87188035027361
 20
-192.0268744917323
 30
0.0
 10
100.5738660067172
 20
-191.8123706328877
 30
0.0
 10
100.5434405472706
 20
-191.3426383041689
 30
0.0
 10
100.5445190630923
 20
-191.0252598722982
 30
0.0
 10
100.5546518601018
 20
-190.6336577323651
 30
0.0
 10
100.3780315604944
 20
-189.9166289135249
 30
0.0
 10
99.58447031297604
 20
-189.8457420280994
 30
0.0
 10
98.93403909250182
 20
-189.8440470885038
 30
0.0
 10
98.50941094345117
 20
-189.8925838920209
 30
0.0
 10
97.84063483077793
 20
-189.7522295172897
 30
0.0
 10
98.10833353116584
 20
-190.7001035250618
 30
0.0
 10
97.91706241582165
 20
-191.5552743527806
 30
0.0
 10
98.09946638487267
 20
-192.3940342278742
 30
0.0
 10
97.85131550376742
 20
-193.3721182604302
 30
0.0
 10
98.36703874654832
 20
-193.1965880039521
 30
0.0
 10
98.83329420125328
 20
-193.3732695801864
 30
0.0
 10
98.71996028264911
 20
-192.8571334696259
 30
0.0
 10
98.81072029465008
 20
-192.6034950292739
 30
0.0
 10
98.68238139847031
 20
-192.1292742751579
 30
0.0
 10
98.99499878652655
 20
-192.2226884664792
 30
0.0
 10
99.26710436788768
 20
-192.1399739371394
 30
0.0
 10
99.43924248306399
 20
-192.602932317474
 30
0.0
 10
99.71496557384964
 20
-192.8939664881964
 30
0.0
 10
99.89816561826481
 20
-193.1614196018025
 30
0.0
 10
99.9622856338101
 20
-193.2550281915646
 30
0.0
 11
99.9622856338101
 21
-193.2550281915646
 31
0.0
 11
100.1983279913235
 21
-193.2550281915646
 31
0.0
 11
100.6366923695626
 21
-193.2550281915646
 31
0.0
 11
100.872734727076
 21
-193.2550281915646
 31
0.0
 11
100.6592293940894
 21
-192.9527206425283
 31
0.0
 11
100.2627194899714
 21
-192.3912923371753
 31
0.0
 11
100.0492141569848
 21
-192.088984788139
 31
0.0
 11
100.4257704247466
 21
-191.7674052167665
 31
0.0
 11
100.5452971547493
 21
-191.2348458313136
 31
0.0
 11
100.5452971547493
 21
-191.0251383902587
 31
0.0
 11
100.5452971547493
 21
-190.8154309492038
 31
0.0
 11
100.2883032385071
 21
-190.0923871351638
 31
0.0
 11
99.4098517751845
 21
-189.8488345703345
 31
0.0
 11
99.04256686685751
 21
-189.8488345703345
 31
0.0
 11
98.36046632282174
 21
-189.8488345703345
 31
0.0
 11
97.99318141449476
 21
-189.8488345703345
 31
0.0
 11
97.99318141449476
 21
-190.3810523236517
 31
0.0
 11
97.99318141449476
 21
-191.5519313809496
 31
0.0
 11
97.99318141449476
 21
-192.7228104382474
 31
0.0
 11
97.99318141449476
 21
-193.2550281915646
 31
0.0
 11
98.37676626912435
 21
-193.2550281915646
 31
0.0
 11
98.76035112375394
 21
-193.2550281915646
 31
0.0
 11
98.76035112375394
 21
-192.9805567724627
 31
0.0
 11
98.76035112375394
 21
-192.4708241369878
 31
0.0
 11
98.76035112375394
 21
-192.1963527178859
 31
0.0
 11
98.98536775844696
 21
-192.1963527178859
 31
0.0
 11
99.21038439313998
 21
-192.1963527178859
 31
0.0
 11
99.40532175183222
 21
-192.4708241369878
 31
0.0
 11
99.76734827511784
 21
-192.9805567724627
 31
0.0
 11
99.9622856338101
 21
-193.2550281915646
 31
0.0
  0
SPLINE
  5
130
102
{ACAD_REACTORS
330
1C0
330
1C0
102
}
330
34
100
AcDbEntity
  8
0
  6
Continuous
 62
   250
100
AcDbSpline
210
0.0
220
0.0
230
1.0
 70
    11
 71
     3
 72
    32
 73
    28
 74
    26
 42
0.0000000001
 43
0.0000000001
 44
0.00000001
 40
0.0
 40
0.0
 40
0.0
 40
0.0
 40
0.3082471590678051
 40
0.6106913951277375
 40
0.7285233210320212
 40
0.8463552469363333
 40
1.095069087588637
 40
1.304598789875002
 40
1.498512538050571
 40
1.684645779952395
 40
1.792990892189143
 40
1.901336004425891
 40
2.187078671019227
 40
2.485446103334257
 40
2.591259829336255
 40
2.824050026540649
 40
3.056840223745044
 40
3.162653949747042
 40
3.350274297065257
 40
3.797676663747271
 40
4.331673036883788
 40
4.779075403565744
 40
4.96669575088396
 40
5.077163180930088
 40
5.320191527031571
 40
5.563219873133053
 40
5.673687303179181
 40
5.673687303179181
 40
5.673687303179181
 40
5.673687303179181
 10
74.11216381972918
 20
-196.3053441528782
 30
0.0
 10
74.22210815077194
 20
-196.2919947240318
 30
0.0
 10
74.43992705010564
 20
-196.2655471767094
 30
0.0
 10
74.5347167334935
 20
-195.9965405746274
 30
0.0
 10
74.52530452118914
 20
-195.8189413391474
 30
0.0
 10
74.52757626903455
 20
-195.6601636908951
 30
0.0
 10
74.52493885765548
 20
-195.443578014535
 30
0.0
 10
74.15142091091944
 20
-195.3742954771145
 30
0.0
 10
74.47144947989173
 20
-195.2723244907042
 30
0.0
 10
74.46990528670744
 20
-195.0973744493827
 30
0.0
 10
74.46887766394521
 20
-194.9644524179156
 30
0.0
 10
74.47551211894108
 20
-194.7989811876041
 30
0.0
 10
74.40472218650038
 20
-194.5415546433043
 30
0.0
 10
74.14394683859518
 20
-194.497683327395
 30
0.0
 10
73.93561724493462
 20
-194.5030551674759
 30
0.0
 10
73.73871089127397
 20
-194.4960895056339
 30
0.0
 10
73.56667055268463
 20
-194.5147141792282
 30
0.0
 10
73.35084343607502
 20
-194.4741597955287
 30
0.0
 10
73.45037974267763
 20
-194.8216461636005
 30
0.0
 10
73.39014600942552
 20
-195.1406560607438
 30
0.0
 10
73.39053346822666
 20
-195.6657530333277
 30
0.0
 10
73.44965337642395
 20
-195.9857181220696
 30
0.0
 10
73.35108477263424
 20
-196.3337968465447
 30
0.0
 10
73.57412238894612
 20
-196.2910066909483
 30
0.0
 10
73.75357998165484
 20
-196.3104470715834
 30
0.0
 10
73.95801533291299
 20
-196.3048367603933
 30
0.0
 10
74.07546179905864
 20
-196.3052233451437
 30
0.0
 10
74.11216381972918
 20
-196.3053441528782
 30
0.0
 11
74.11216381972918
 21
-196.3053441528782
 31
0.0
 11
74.4067461802706
 21
-196.2145832365584
 31
0.0
 11
74.52661135609378
 21
-195.9369056257383
 31
0.0
 11
74.52661135609378
 21
-195.819073699834
 31
0.0
 11
74.52661135609378
 21
-195.7012417739297
 31
0.0
 11
74.4480626760951
 21
-195.4652572841799
 31
0.0
 11
74.2638714039349
 21
-195.3653759976432
 31
0.0
 11
74.4216533039862
 21
-195.25264883256
 31
0.0
 11
74.46973119096947
 21
-195.0728319798345
 31
0.0
 11
74.46973119096947
 21
-194.9644868675977
 31
0.0
 11
74.46973119096947
 21
-194.856141755361
 31
0.0
 11
74.36746802436573
 21
-194.5893251211943
 31
0.0
 11
74.08238011384674
 21
-194.5013023517413
 31
0.0
 11
73.97656638784474
 21
-194.5013023517413
 31
0.0
 11
73.74377619064035
 21
-194.5013023517413
 31
0.0
 11
73.51098599343595
 21
-194.5013023517413
 31
0.0
 11
73.40517226743395
 21
-194.5013023517413
 31
0.0
 11
73.40517226743395
 21
-194.6889226990595
 31
0.0
 11
73.40517226743395
 21
-195.1363250657415
 31
0.0
 11
73.40517226743395
 21
-195.670321438878
 31
0.0
 11
73.40517226743395
 21
-196.11772380556
 31
0.0
 11
73.40517226743395
 21
-196.3053441528782
 31
0.0
 11
73.51563969748008
 21
-196.3053441528782
 31
0.0
 11
73.75866804358157
 21
-196.3053441528782
 31
0.0
 11
74.00169638968305
 21
-196.3053441528782
 31
0.0
 11
74.11216381972918
 21
-196.3053441528782
 31
0.0
  0
SPLINE
  5
131
102
{ACAD_REACTORS
330
1C0
330
1C0
102
}
330
34
100
AcDbEntity
  8
0
  6
Continuous
 62
   250
100
AcDbSpline
210
0.0
220
0.0
230
1.0
 70
    11
 71
     3
 72
    23
 73
    19
 74
    17
 42
0.0000000001
 43
0.0000000001
 44
0.00000001
 40
0.0
 40
0.0
 40
0.0
 40
0.0
 40
0.1887351725511638
 40
0.413365578100321
 40
0.534152425394505
 40
0.7584708560837282
 40
0.8792577033779264
 40
0.9837895134971814
 40
1.213759495759514
 40
1.443729478021875
 40
1.54826128814113
 40
1.683098148903237
 40
1.933509461747117
 40
2.068346322509224
 40
2.245657684461413
 40
2.398588164696737
 40
2.513712480696502
 40
2.628836796696238
 40
2.628836796696238
 40
2.628836796696238
 40
2.628836796696238
 10
74.30990077444585
 20
-195.0647295081226
 30
0.0
 10
74.29732195302562
 20
-195.1321533443587
 30
0.0
 10
74.26977196476473
 20
-195.2798242456894
 30
0.0
 10
74.06305945174903
 20
-195.3143902642707
 30
0.0
 10
73.87394263287679
 20
-195.3125418689526
 30
0.0
 10
73.73934858419167
 20
-195.29235438269
 30
0.0
 10
73.53658411894418
 20
-195.3447690521871
 30
0.0
 10
73.58277997382343
 20
-195.1483609323569
 30
0.0
 10
73.55314692920399
 20
-194.9770349062856
 30
0.0
 10
73.58181480094507
 20
-194.8039729514643
 30
0.0
 10
73.5368927057049
 20
-194.6042592745706
 30
0.0
 10
73.76071144972633
 20
-194.6643456898475
 30
0.0
 10
73.90981288375663
 20
-194.6401247789004
 30
0.0
 10
74.09640688323564
 20
-194.6396301818937
 30
0.0
 10
74.27294126436217
 20
-194.6592791744483
 30
0.0
 10
74.3166139796183
 20
-194.8244479389068
 30
0.0
 10
74.30842447640245
 20
-194.9490402185992
 30
0.0
 10
74.30940867509806
 20
-195.0261664116148
 30
0.0
 10
74.30990077444585
 20
-195.0647295081226
 30
0.0
 11
74.30990077444585
 21
-195.0647295081226
 31
0.0
 11
74.24455932877845
 21
-195.2417929454438
 31
0.0
 11
74.03091516707354
 21
-195.3111830835514
 31
0.0
 11
73.91012831977936
 21
-195.3111830835514
 31
0.0
 11
73.68580988909014
 21
-195.3111830835514
 31
0.0
 11
73.56502304179594
 21
-195.3111830835514
 31
0.0
 11
73.56502304179594
 21
-195.2066512734322
 31
0.0
 11
73.56502304179594
 21
-194.9766812911698
 31
0.0
 11
73.56502304179594
 21
-194.7467113089075
 31
0.0
 11
73.56502304179594
 21
-194.6421794987882
 31
0.0
 11
73.69985990255805
 21
-194.6421794987882
 31
0.0
 11
73.95027121540193
 21
-194.6421794987882
 31
0.0
 11
74.08510807616403
 21
-194.6421794987882
 31
0.0
 11
74.2553948562163
 21
-194.6915933795989
 31
0.0
 11
74.30990077444585
 21
-194.8344808761231
 31
0.0
 11
74.30990077444585
 21
-194.9496051921229
 31
0.0
 11
74.30990077444585
 21
-195.0647295081226
 31
0.0
  0
SPLINE
  5
132
102
{ACAD_REACTORS
330
1C0
330
1C0
102
}
330
34
100
AcDbEntity
  8
0
  6
Continuous
 62
   250
100
AcDbSpline
210
0.0
220
0.0
230
1.0
 70
    11
 71
     3
 72
    23
 73
    19
 74
    17
 42
0.0000000001
 43
0.0000000001
 44
0.00000001
 40
0.0
 40
0.0
 40
0.0
 40
0.0
 40
0.178722020060614
 40
0.3779063679094018
 40
0.5204649326526133
 40
0.7852165528900182
 40
0.9277751176332297
 40
1.039088676249191
 40
1.283978505204216
 40
1.528868334159297
 40
1.64018189277523
 40
1.770801639048072
 40
2.013381167840505
 40
2.144000914113361
 40
2.381868872480068
 40
2.579207094833134
 40
2.694311052833069
 40
2.809415010833032
 40
2.809415010833032
 40
2.809415010833032
 40
2.809415010833032
 10
74.36682165528327
 20
-195.9369056257383
 30
0.0
 10
74.35514957033972
 20
-196.0012301173081
 30
0.0
 10
74.33046903446927
 20
-196.1372437711854
 30
0.0
 10
74.13047550373285
 20
-196.1685243724466
 30
0.0
 10
73.92968488632401
 20
-196.1659998859476
 30
0.0
 10
73.77182213046959
 20
-196.1412129439421
 30
0.0
 10
73.53505025149357
 20
-196.2045153971834
 30
0.0
 10
73.58296609434888
 20
-195.9921114198241
 30
0.0
 10
73.55240447770574
 20
-195.8079598430771
 30
0.0
 10
73.58378853932356
 20
-195.6252995258602
 30
0.0
 10
73.53477915187737
 20
-195.4156741086544
 30
0.0
 10
73.75373161526558
 20
-195.4726215202992
 30
0.0
 10
73.89882226659682
 20
-195.4502644644542
 30
0.0
 10
74.10253764137276
 20
-195.4493617585204
 30
0.0
 10
74.31632576752352
 20
-195.4795663683558
 30
0.0
 10
74.37358550411443
 20
-195.6814673995756
 30
0.0
 10
74.36551859079177
 20
-195.8213814737418
 30
0.0
 10
74.36638730045277
 20
-195.8983975750729
 30
0.0
 10
74.36682165528327
 20
-195.9369056257383
 30
0.0
 11
74.36682165528327
 21
-195.9369056257383
 31
0.0
 11
74.30484690918547
 21
-196.104538233845
 31
0.0
 11
74.11489179151977
 21
-196.1644670057376
 31
0.0
 11
73.97233322677656
 21
-196.1644670057376
 31
0.0
 11
73.70758160653915
 21
-196.1644670057376
 31
0.0
 11
73.56502304179594
 21
-196.1644670057376
 31
0.0
 11
73.56502304179594
 21
-196.0531534471216
 31
0.0
 11
73.56502304179594
 21
-195.8082636181666
 31
0.0
 11
73.56502304179594
 21
-195.5633737892115
 31
0.0
 11
73.56502304179594
 21
-195.4520602305956
 31
0.0
 11
73.69564278806878
 21
-195.4520602305956
 31
0.0
 11
73.93822231686121
 21
-195.4520602305956
 31
0.0
 11
74.06884206313407
 21
-195.4520602305956
 31
0.0
 11
74.2960446310235
 21
-195.5224886251676
 31
0.0
 11
74.36682165528327
 21
-195.7066977097384
 31
0.0
 11
74.36682165528327
 21
-195.8218016677383
 31
0.0
 11
74.36682165528327
 21
-195.9369056257383
 31
0.0
  0
SPLINE
  5
133
102
{ACAD_REACTORS
330
1C1
330
1C1
102
}
330
34
100
AcDbEntity
  8
0
  6
Continuous
 62
   250
100
AcDbSpline
210
0.0
220
0.0
230
1.0
 70
    11
 71
     3
 72
    24
 73
    20
 74
    18
 42
0.0000000001
 43
0.0000000001
 44
0.00000001
 40
0.0
 40
0.0
 40
0.0
 40
0.0
 40
0.1137723977167298
 40
0.32506399347632
 40
0.4388363911930355
 40
0.7669367403624034
 40
1.067197304156703
 40
1.262419673045879
 40
1.624975500982937
 40
1.820197869872114
 40
2.120443815392929
 40
2.448548561667308
 40
2.562320959384009
 40
2.773612555143628
 40
2.887384952860343
 40
3.124402609585757
 40
3.645841454381695
 40
4.167280299177633
 40
4.404297955903046
 40
4.404297955903046
 40
4.404297955903046
 40
4.404297955903046
 10
78.32687418818387
 20
-194.6448667507884
 30
0.0
 10
78.3647551525715
 20
-194.6448301335139
 30
0.0
 10
78.47298647939331
 20
-194.6447255127296
 30
0.0
 10
78.62052596364461
 20
-194.6457948866034
 30
0.0
 10
78.83358771116652
 20
-194.6418423109606
 30
0.0
 10
79.12726381428533
 20
-194.6811147237433
 30
0.0
 10
79.17257924176157
 20
-194.9975615989034
 30
0.0
 10
79.16433960219551
 20
-195.2749150727569
 30
0.0
 10
79.16430741120868
 20
-195.5317534197026
 30
0.0
 10
79.17264284473025
 20
-195.8090221123518
 30
0.0
 10
79.12686487094643
 20
-196.1259035438813
 30
0.0
 10
78.8347321956017
 20
-196.1636630828999
 30
0.0
 10
78.61876742378635
 20
-196.1626098134037
 30
0.0
 10
78.48388413496968
 20
-196.1510215576021
 30
0.0
 10
78.25683676704186
 20
-196.1907474866048
 30
0.0
 10
78.38325810617987
 20
-195.7735614037351
 30
0.0
 10
78.30680630230462
 20
-195.4233945950797
 30
0.0
 10
78.3288695745639
 20
-194.974695740099
 30
0.0
 10
78.3273492801791
 20
-194.723397462529
 30
0.0
 10
78.32687418818387
 20
-194.6448667507884
 30
0.0
 11
78.32687418818387
 21
-194.6448667507884
 31
0.0
 11
78.4406465859006
 21
-194.6448667507884
 31
0.0
 11
78.65193818166019
 21
-194.6448667507884
 31
0.0
 11
78.7657105793769
 21
-194.6448667507884
 31
0.0
 11
79.079912928868
 21
-194.7393480859787
 31
0.0
 11
79.16659970721958
 21
-195.0268229694539
 31
0.0
 11
79.16659970721959
 21
-195.2220453383431
 31
0.0
 11
79.16659970721958
 21
-195.5846011662801
 31
0.0
 11
79.16659970721958
 21
-195.7798235351693
 31
0.0
 11
79.079912928868
 21
-196.0672831501776
 31
0.0
 11
78.7657105793769
 21
-196.1617797538311
 31
0.0
 11
78.6519381816602
 21
-196.1617797538311
 31
0.0
 11
78.44064658590058
 21
-196.1617797538311
 31
0.0
 11
78.32687418818387
 21
-196.1617797538311
 31
0.0
 11
78.32687418818387
 21
-195.9247620971057
 31
0.0
 11
78.32687418818387
 21
-195.4033232523097
 31
0.0
 11
78.32687418818387
 21
-194.8818844075138
 31
0.0
 11
78.32687418818387
 21
-194.6448667507884
 31
0.0
  0
SPLINE
  5
134
102
{ACAD_REACTORS
330
1C1
330
1C1
102
}
330
34
100
AcDbEntity
  8
0
  6
Continuous
 62
   250
100
AcDbSpline
210
0.0
220
0.0
230
1.0
 70
    11
 71
     3
 72
    22
 73
    18
 74
    16
 42
0.0000000001
 43
0.0000000001
 44
0.00000001
 40
0.0
 40
0.0
 40
0.0
 40
0.0
 40
0.2818751695529897
 40
0.9020005425695672
 40
1.522125915586116
 40
1.804001085139106
 40
2.101970503091223
 40
2.399939921043341
 40
2.87139254739472
 40
3.270572232803801
 40
3.461582764086614
 40
3.816316607897591
 40
4.007327139180404
 40
4.406492228614266
 40
4.8779497786235
 40
5.175919196575617
 40
5.473888614527735
 40
5.473888614527735
 40
5.473888614527735
 40
5.473888614527735
 10
78.16704377168935
 20
-194.5013023517413
 30
0.0
 10
78.16746227547233
 20
-194.5948414983291
 30
0.0
 10
78.1688014875779
 20
-194.8941667674102
 30
0.0
 10
78.14936617189582
 20
-195.4210117297466
 30
0.0
 10
78.21671180065466
 20
-195.8609224090347
 30
0.0
 10
78.0878851121523
 20
-196.3899667162055
 30
0.0
 10
78.48968175191338
 20
-196.280064785646
 30
0.0
 10
78.8015162216649
 20
-196.327248550128
 30
0.0
 10
79.26595241204889
 20
-196.234327551642
 30
0.0
 10
79.33264577373299
 20
-195.836773985213
 30
0.0
 10
79.32441240839383
 20
-195.5279347091162
 30
0.0
 10
79.32428326061533
 20
-195.2785786743505
 30
0.0
 10
79.33294969999223
 20
-194.9701228474968
 30
0.0
 10
79.26316289133509
 20
-194.5695160366162
 30
0.0
 10
78.81175952920046
 20
-194.4896117272672
 30
0.0
 10
78.46683446596933
 20
-194.5036544049533
 30
0.0
 10
78.26697400311602
 20
-194.5020863694786
 30
0.0
 10
78.16704377168935
 20
-194.5013023517413
 30
0.0
 11
78.16704377168935
 21
-194.5013023517413
 31
0.0
 11
78.16704377168935
 21
-194.7831775212943
 31
0.0
 11
78.16704377168935
 21
-195.4033028943109
 31
0.0
 11
78.16704377168935
 21
-196.0234282673274
 31
0.0
 11
78.16704377168935
 21
-196.3053034368804
 31
0.0
 11
78.46501318964147
 21
-196.3053034368804
 31
0.0
 11
78.76298260759359
 21
-196.3053034368804
 31
0.0
 11
79.20925219568653
 21
-196.1532803016773
 31
0.0
 11
79.32640976586845
 21
-195.7716803475469
 31
0.0
 11
79.32640976586845
 21
-195.5806698162641
 31
0.0
 11
79.32640976586845
 21
-195.2259359724531
 31
0.0
 11
79.32640976586845
 21
-195.0349254411703
 31
0.0
 11
79.20925219568653
 21
-194.6533407554558
 31
0.0
 11
78.76298260759359
 21
-194.5013023517413
 31
0.0
 11
78.46501318964147
 21
-194.5013023517413
 31
0.0
 11
78.16704377168935
 21
-194.5013023517413
 31
0.0
  0
SPLINE
  5
135
102
{ACAD_REACTORS
330
1C2
330
1C2
102
}
330
34
100
AcDbEntity
  8
0
  6
Continuous
 62
   250
100
AcDbSpline
210
0.0
220
0.0
230
1.0
 70
    11
 71
     3
 72
    35
 73
    31
 74
    29
 42
0.0000000001
 43
0.0000000001
 44
0.00000001
 40
0.0
 40
0.0
 40
0.0
 40
0.0
 40
0.3140822601743259
 40
0.6734494531747418
 40
0.8721103095636372
 40
1.07623439250029
 40
1.145933087417569
 40
1.215631782334877
 40
1.436444562818454
 40
1.651341053944819
 40
2.133622726378873
 40
2.544074393160303
 40
2.671044502476195
 40
2.950378742971156
 40
3.229712983466117
 40
3.356683092782009
 40
3.76712035078962
 40
4.249406310385328
 40
4.464303041799805
 40
4.685120738046597
 40
4.754819432965228
 40
4.82451812788386
 40
5.028639645437362
 40
5.22729953069722
 40
5.586666723698055
 40
5.900748983871468
 40
6.026866603231186
 40
6.304325365822566
 40
6.581784128413945
 40
6.707901747773663
 40
6.707901747773663
 40
6.707901747773663
 40
6.707901747773663
 10
82.57955216843402
 20
-194.9997061544091
 30
0.0
 10
82.59613812008085
 20
-194.8832155911896
 30
0.0
 10
82.63170141506203
 20
-194.6334386504076
 30
0.0
 10
82.99632774249106
 20
-194.6246408686014
 30
0.0
 10
83.21087478981808
 20
-194.5995979203584
 30
0.0
 10
83.44516086593168
 20
-194.7164842799596
 30
0.0
 10
83.43719701432295
 20
-194.5830047889557
 30
0.0
 10
83.48151296264064
 20
-194.45244873758
 30
0.0
 10
83.20599498555276
 20
-194.5002289092622
 30
0.0
 10
82.95392162676428
 20
-194.4526615481036
 30
0.0
 10
82.50003206400368
 20
-194.5248669329815
 30
0.0
 10
82.41448921585237
 20
-194.9049442849156
 30
0.0
 10
82.42156571599371
 20
-195.1739724843013
 30
0.0
 10
82.4184539325958
 20
-195.4033233039864
 30
0.0
 10
82.42156598943387
 20
-195.6326738699861
 30
0.0
 10
82.41448851851038
 20
-195.9016979002347
 30
0.0
 10
82.50004164099649
 20
-196.2817633206617
 30
0.0
 10
82.95391808154207
 20
-196.3539824396855
 30
0.0
 10
83.20599913274286
 20
-196.3064243663575
 30
0.0
 10
83.4815105432131
 20
-196.3541537057969
 30
0.0
 10
83.43719940898336
 20
-196.2236029544996
 30
0.0
 10
83.44514476403684
 20
-196.0901119445505
 30
0.0
 10
83.21107247987247
 20
-196.2071282252501
 30
0.0
 10
82.99539073261549
 20
-196.1812479062814
 30
0.0
 10
82.63806240016798
 20
-196.1776535479778
 30
0.0
 10
82.57442767392871
 20
-195.8658688276139
 30
0.0
 10
82.58162936078591
 20
-195.6317717249002
 30
0.0
 10
82.5788128643816
 20
-195.4027566812139
 30
0.0
 10
82.57962567878015
 20
-195.176323108246
 30
0.0
 10
82.5795696708974
 20
-195.0417578100846
 30
0.0
 10
82.57955216843402
 20
-194.9997061544091
 30
0.0
 11
82.57955216843402
 21
-194.9997061544091
 31
0.0
 11
82.6828179701406
 21
-194.7030854532534
 31
0.0
 11
83.03190625246498
 21
-194.6177499357427
 31
0.0
 11
83.23034046379871
 21
-194.6272367494084
 31
0.0
 11
83.43283609600621
 21
-194.652969222504
 31
0.0
 11
83.4422923726961
 21
-194.5839149908861
 31
0.0
 11
83.45174864938599
 21
-194.5148607592682
 31
0.0
 11
83.23304552826812
 21
-194.4844103267887
 31
0.0
 11
83.01838855963433
 21
-194.4742669685984
 31
0.0
 11
82.55550686428978
 21
-194.6096780009434
 31
0.0
 11
82.41972175190313
 21
-194.9970189024989
 31
0.0
 11
82.41972175190313
 21
-195.1239890118148
 31
0.0
 11
82.41972175190313
 21
-195.4033232523097
 31
0.0
 11
82.41972175190313
 21
-195.6826574928047
 31
0.0
 11
82.41972175190313
 21
-195.8096276021206
 31
0.0
 11
82.55550686428978
 21
-196.1969532351672
 31
0.0
 11
83.01838855963433
 21
-196.3323795359293
 31
0.0
 11
83.23304552826812
 21
-196.3222310882855
 31
0.0
 11
83.45174864938599
 21
-196.2917450293562
 31
0.0
 11
83.4422923726961
 21
-196.222690797737
 31
0.0
 11
83.43283609600621
 21
-196.1536365661177
 31
0.0
 11
83.23034046379871
 21
-196.1793486812627
 31
0.0
 11
83.03190625246498
 21
-196.1888151369785
 31
0.0
 11
82.6828179701406
 21
-196.103479619466
 31
0.0
 11
82.57955216843402
 21
-195.8068589183113
 31
0.0
 11
82.57955216843402
 21
-195.6807412989516
 31
0.0
 11
82.57955216843402
 21
-195.4032825363602
 31
0.0
 11
82.57955216843402
 21
-195.1258237737688
 31
0.0
 11
82.57955216843402
 21
-194.9997061544091
 31
0.0
  0
TEXT
  5
137
330
34
100
AcDbEntity
  8
1
 62
     2
100
AcDbText
 10
105.5508366015783
 20
-189.5622993640345
 30
0.0
 40
1.8
  1
Zeichnungs-Nr.:
 41
0.9
  7
CONVERTER_11
100
AcDbText
  0
MTEXT
  5
138
330
34
100
AcDbEntity
  8
1
 62
     2
100
AcDbMText
 10
-214.9492037657619
 20
75.07294381434622
 30
0.0
 40
2.5
 41
0.0
 71
     7
 72
     1
  1
ME10
  7
CONVERTER_11
 11
6.123031769111886E-17
 21
1.0
 31
0.0
 73
     1
 44
0.90036014405762
  0
MTEXT
  5
139
330
34
100
AcDbEntity
  8
1
 62
     2
100
AcDbMText
 10
-214.5760694938799
 20
-198.8336537084524
 30
0.0
 40
3.5
 41
0.0
 71
     7
 72
     1
  1
Schutzvermerk ISO 16016 beachten
  7
CONVERTER_11
 11
6.123031769111886E-17
 21
1.0
 31
0.0
 73
     1
 44
0.90036014405762
  0
TEXT
  5
13A
330
34
100
AcDbEntity
  8
1
 62
     2
100
AcDbText
 10
105.5508366015783
 20
-176.8351619948735
 30
0.0
 40
1.8
  1
Dokumenttype:
 41
0.9
  7
CONVERTER_11
100
AcDbText
  0
TEXT
  5
13C
330
34
100
AcDbEntity
  8
1
 62
     2
100
AcDbText
 10
92.69682286914758
 20
-164.223714562223
 30
0.0
 40
2.5
  1
Neuk.
 41
0.72
  7
CONVERTER_12
100
AcDbText
  0
TEXT
  5
13E
330
34
100
AcDbEntity
  8
1
 62
     2
100
AcDbText
 10
77.71377463387034
 20
-164.223714562223
 30
0.0
 40
2.5
  1
19.11.08
 41
0.81
  7
CONVERTER_13
100
AcDbText
  0
TEXT
  5
13F
330
34
100
AcDbEntity
  8
1
 62
     2
100
AcDbText
 10
48.3904172414841
 20
-194.6027533921179
 30
0.0
 40
1.5
  1
12.11.08
 41
0.81
  7
CONVERTER_13
100
AcDbText
  0
TEXT
  5
140
330
34
100
AcDbEntity
  8
1
 62
     2
100
AcDbText
 10
0.09940734534757
 20
-194.1972351616232
 30
0.0
 40
2.0
  1
-
 41
0.72
  7
CONVERTER_12
100
AcDbText
  0
TEXT
  5
141
330
34
100
AcDbEntity
  8
1
 62
     2
100
AcDbText
 10
68.98764152639342
 20
-184.70502009764
 30
0.0
 40
2.5
  1
 
 41
0.9
  7
CONVERTER_11
100
AcDbText
  0
MTEXT
  5
142
330
34
100
AcDbEntity
  8
1
 62
     2
100
AcDbMText
 10
178.3342210583433
 20
-140.2704295194817
 30
0.0
 40
2.5
 41
0.0
 71
     1
 72
     1
  1
-
  7
CONVERTER_11
 73
     1
 44
0.90036014405762
  0
TEXT
  5
143
330
34
100
AcDbEntity
  8
1
 62
     2
100
AcDbText
 10
69.00595820821036
 20
-159.5068220402727
 30
0.0
 40
1.8
  1
Gez.
 41
0.9
  7
CONVERTER_11
100
AcDbText
  0
TEXT
  5
144
330
34
100
AcDbEntity
  8
1
 62
     2
100
AcDbText
 10
69.03434906499751
 20
-163.8167145622228
 30
0.0
 40
1.8
  1
Gepr.
 41
0.9
  7
CONVERTER_11
100
AcDbText
  0
TEXT
  5
145
330
34
100
AcDbEntity
  8
1
 62
     2
100
AcDbText
 10
80.4474734973337
 20
-155.1914118071518
 30
0.0
 40
1.8
  1
Datum
 41
0.9
  7
CONVERTER_11
100
AcDbText
  0
TEXT
  5
146
330
34
100
AcDbEntity
  8
1
 62
     2
100
AcDbText
 10
94.31146078161692
 20
-155.2765843775414
 30
0.0
 40
1.8
  1
Name
 41
0.9
  7
CONVERTER_11
100
AcDbText
  0
TEXT
  5
147
330
34
100
AcDbEntity
  8
1
 62
     2
100
AcDbText
 10
68.98764152639342
 20
-167.9627181952837
 30
0.0
 40
1.8
  1
Freig:
 41
0.9
  7
CONVERTER_11
100
AcDbText
  0
TEXT
  5
148
330
34
100
AcDbEntity
  8
1
 62
     2
100
AcDbText
 10
68.98764152639342
 20
-180.650380926134
 30
0.0
 40
1.8
  1
Ersatz für/durch:
 41
0.9
  7
CONVERTER_11
100
AcDbText
  0
TEXT
  5
14A
330
34
100
AcDbEntity
  8
1
 62
     2
100
AcDbText
 10
68.98764152639342
 20
-146.5947824802743
 30
0.0
 40
1.8
  1
Zul. Abweichung nach DIN:
 41
0.855
  7
CONVERTER_14
100
AcDbText
  0
TEXT
  5
14B
330
34
100
AcDbEntity
  8
1
 62
     2
100
AcDbText
 10
106.0508366015783
 20
-146.6738494900656
 30
0.0
 40
1.8
  1
Werkstoff:
 41
0.9
  7
CONVERTER_11
100
AcDbText
  0
TEXT
  5
14C
330
34
100
AcDbEntity
  8
1
 62
     2
100
AcDbText
 10
106.0508366015783
 20
-154.8968185081303
 30
0.0
 40
1.8
  1
Benennung, Type:
 41
0.9
  7
CONVERTER_11
100
AcDbText
  0
TEXT
  5
14D
330
34
100
AcDbEntity
  8
1
 62
     2
100
AcDbText
 10
105.5508366015783
 20
-180.6927420826587
 30
0.0
 40
1.8
  1
Verkaufs-Nr.:
 41
0.9
  7
CONVERTER_11
100
AcDbText
  0
TEXT
  5
14E
330
34
100
AcDbEntity
  8
1
 62
     2
100
AcDbText
 10
163.0969209693285
 20
-146.6738494900656
 30
0.0
 40
1.8
  1
Maßstab:
 41
0.9
  7
CONVERTER_11
100
AcDbText
  0
TEXT
  5
14F
330
34
100
AcDbEntity
  8
1
 62
     2
100
AcDbText
 10
0.59223583459971
 20
-198.2740790793287
 30
0.0
 40
1.8
  1
Zust.
 41
0.9
  7
CONVERTER_11
100
AcDbText
  0
TEXT
  5
150
330
34
100
AcDbEntity
  8
1
 62
     2
100
AcDbText
 10
20.72501663993899
 20
-198.3555883133577
 30
0.0
 40
1.8
  1
Änderung
 41
0.9
  7
CONVERTER_11
100
AcDbText
  0
TEXT
  5
151
330
34
100
AcDbEntity
  8
1
 62
     2
100
AcDbText
 10
50.47588706076931
 20
-198.3555883133577
 30
0.0
 40
1.8
  1
Datum
 41
0.9
  7
CONVERTER_11
100
AcDbText
  0
TEXT
  5
152
330
34
100
AcDbEntity
  8
1
 62
     2
100
AcDbText
 10
60.50152284640353
 20
-198.3555883133577
 30
0.0
 40
1.8
  1
Name
 41
0.9
  7
CONVERTER_11
100
AcDbText
  0
MTEXT
  5
153
330
34
100
AcDbEntity
  8
1
 62
     3
100
AcDbMText
 10
130.6510619166947
 20
-183.6893497396504
 30
0.0
 40
3.5
 41
0.0
 71
     5
 72
     1
  1
 
  7
CONVERTER_11
 73
     1
 44
1.32052821128451
  0
MTEXT
  5
154
330
34
100
AcDbEntity
  8
1
 62
     7
100
AcDbMText
 10
137.2428552845668
 20
-194.4389949619772
 30
0.0
 40
5.0
 41
0.0
 71
     5
 72
     1
  1
5 400576 0 00000
  7
CONVERTER_13
 73
     1
 44
1.32052821128451
  0
TEXT
  5
155
330
34
100
AcDbEntity
  8
1
 62
     7
100
AcDbText
 10
106.2893343360775
 20
-162.4177279993883
 30
0.0
 40
5.0
  1
Fräsbild Futterzarge
 41
0.855
  7
CONVERTER_14
100
AcDbText
  0
TEXT
  5
156
330
34
100
AcDbEntity
  8
1
 62
     2
100
AcDbText
 10
106.0731771460778
 20
-150.8067844988818
 30
0.0
 40
2.5
  1
 
 41
0.9
  7
CONVERTER_11
100
AcDbText
  0
TEXT
  5
157
330
34
100
AcDbEntity
  8
1
 62
     2
100
AcDbText
 10
60.3696978036387
 20
-194.6027533921179
 30
0.0
 40
1.5
  1
Kerst.
 41
0.72
  7
CONVERTER_12
100
AcDbText
  0
TEXT
  5
158
330
34
100
AcDbEntity
  8
1
 62
     2
100
AcDbText
 10
92.69682286914758
 20
-160.0905684950239
 30
0.0
 40
2.5
  1
Kerst.
 41
0.72
  7
CONVERTER_12
100
AcDbText
  0
TEXT
  5
159
330
34
100
AcDbEntity
  8
1
 62
     2
100
AcDbText
 10
77.71377463387034
 20
-160.0905684950239
 30
0.0
 40
2.5
  1
12.11.08
 41
0.81
  7
CONVERTER_13
100
AcDbText
  0
TEXT
  5
15A
330
34
100
AcDbEntity
  8
1
 62
     2
100
AcDbText
 10
2.59940734534757
 20
-194.1972351616232
 30
0.0
 40
2.0
  1
x
 41
0.72
  7
CONVERTER_12
100
AcDbText
  0
TEXT
  5
15B
330
34
100
AcDbEntity
  8
1
 62
     2
100
AcDbText
 10
4.84940734534757
 20
-194.1972351616232
 30
0.0
 40
2.0
  1
 
 41
0.72
  7
CONVERTER_12
100
AcDbText
  0
MTEXT
  5
15C
330
34
100
AcDbEntity
  8
1
 62
     2
100
AcDbMText
 10
170.3437066997358
 20
-188.5104020989229
 30
0.0
 40
2.0
 41
0.0
 71
     4
 72
     1
  1
Blatt:
  7
CONVERTER_11
 73
     1
 44
1.32052821128451
  0
MTEXT
  5
15D
330
34
100
AcDbEntity
  8
1
 62
     2
100
AcDbMText
 10
170.3437066997358
 20
-179.7950354523227
 30
0.0
 40
2.0
 41
0.0
 71
     4
 72
     1
  1
Format:
  7
CONVERTER_11
 73
     1
 44
1.32052821128451
  0
MTEXT
  5
15E
330
34
100
AcDbEntity
  8
1
 62
     2
100
AcDbMText
 10
157.8437066997358
 20
-179.8450354523229
 30
0.0
 40
2.0
 41
0.0
 71
     4
 72
     1
  1
Proj.-M.
  7
CONVERTER_11
 73
     1
 44
1.32052821128451
  0
MTEXT
  5
15F
330
34
100
AcDbEntity
  8
1
 62
     2
100
AcDbMText
 10
175.5945691862435
 20
-183.691184066166
 30
0.0
 40
2.5
 41
0.0
 71
     5
 72
     1
  1
A3
  7
CONVERTER_11
 73
     1
 44
1.32052821128451
  0
TEXT
  5
160
330
34
100
AcDbEntity
  8
1
 62
     2
100
AcDbText
 10
126.2308100441587
 20
-176.8319873411692
 30
0.0
 40
2.0
  1
Bohr-/Fräsbild
 41
0.9
  7
CONVERTER_11
100
AcDbText
  0
TEXT
  5
161
330
34
100
AcDbEntity
  8
1
 62
     2
100
AcDbText
 10
77.71377463387034
 20
-168.5570478956224
 30
0.0
 40
2.5
  1
 
 41
0.81
  7
CONVERTER_13
100
AcDbText
  0
TEXT
  5
162
330
34
100
AcDbEntity
  8
1
 62
     2
100
AcDbText
 10
92.69682286914758
 20
-168.5590145622227
 30
0.0
 40
2.5
  1
 
 41
0.72
  7
CONVERTER_12
100
AcDbText
  0
TEXT
  5
163
330
34
100
AcDbEntity
  8
1
 62
     2
100
AcDbText
 10
68.98764152639342
 20
-172.2957181952834
 30
0.0
 40
1.8
  1
Lebenszyklusphase:
 41
0.9
  7
CONVERTER_11
100
AcDbText
  0
TEXT
  5
164
330
34
100
AcDbEntity
  8
1
 62
     2
100
AcDbText
 10
68.98764152639342
 20
-176.0383534510393
 30
0.0
 40
2.5
  1
Serie
 41
0.9
  7
CONVERTER_11
100
AcDbText
  0
TEXT
  5
165
330
34
100
AcDbEntity
  8
1
 62
     2
100
AcDbText
 10
0.09940734534757
 20
-189.8639018316244
 30
0.0
 40
2.0
  1
 
 41
0.72
  7
CONVERTER_12
100
AcDbText
  0
TEXT
  5
166
330
34
100
AcDbEntity
  8
1
 62
     2
100
AcDbText
 10
0.09940734534757
 20
-185.5305685016247
 30
0.0
 40
2.0
  1
 
 41
0.72
  7
CONVERTER_12
100
AcDbText
  0
TEXT
  5
167
330
34
100
AcDbEntity
  8
1
 62
     2
100
AcDbText
 10
0.09940734534757
 20
-181.1972351716249
 30
0.0
 40
2.0
  1
 
 41
0.72
  7
CONVERTER_12
100
AcDbText
  0
TEXT
  5
168
330
34
100
AcDbEntity
  8
1
 62
     2
100
AcDbText
 10
0.09940734534757
 20
-176.8639018416243
 30
0.0
 40
2.0
  1
 
 41
0.72
  7
CONVERTER_12
100
AcDbText
  0
TEXT
  5
169
330
34
100
AcDbEntity
  8
1
 62
     2
100
AcDbText
 10
0.09940734534757
 20
-172.5305685116246
 30
0.0
 40
2.0
  1
 
 41
0.72
  7
CONVERTER_12
100
AcDbText
  0
TEXT
  5
16A
330
34
100
AcDbEntity
  8
1
 62
     2
100
AcDbText
 10
0.09940734534757
 20
-168.1972351816248
 30
0.0
 40
2.0
  1
 
 41
0.72
  7
CONVERTER_12
100
AcDbText
  0
TEXT
  5
16B
330
34
100
AcDbEntity
  8
1
 62
     2
100
AcDbText
 10
0.09940734534757
 20
-163.8639018516242
 30
0.0
 40
2.0
  1
 
 41
0.72
  7
CONVERTER_12
100
AcDbText
  0
TEXT
  5
16C
330
34
100
AcDbEntity
  8
1
 62
     2
100
AcDbText
 10
0.09940734534757
 20
-159.5305685216245
 30
0.0
 40
2.0
  1
 
 41
0.72
  7
CONVERTER_12
100
AcDbText
  0
TEXT
  5
16D
330
34
100
AcDbEntity
  8
1
 62
     2
100
AcDbText
 10
0.09940734534757
 20
-155.1972351916247
 30
0.0
 40
2.0
  1
 
 41
0.72
  7
CONVERTER_12
100
AcDbText
  0
TEXT
  5
16E
330
34
100
AcDbEntity
  8
1
 62
     2
100
AcDbText
 10
0.09940734534757
 20
-150.863901861625
 30
0.0
 40
2.0
  1
 
 41
0.72
  7
CONVERTER_12
100
AcDbText
  0
TEXT
  5
16F
330
34
100
AcDbEntity
  8
1
 62
     2
100
AcDbText
 10
0.09940734534757
 20
-146.5305685316243
 30
0.0
 40
2.0
  1
 
 41
0.72
  7
CONVERTER_12
100
AcDbText
  0
TEXT
  5
170
330
34
100
AcDbEntity
  8
1
 62
     2
100
AcDbText
 10
2.59940734534757
 20
-189.8639018316244
 30
0.0
 40
2.0
  1
x
 41
0.72
  7
CONVERTER_12
100
AcDbText
  0
TEXT
  5
171
330
34
100
AcDbEntity
  8
1
 62
     2
100
AcDbText
 10
2.59940734534757
 20
-185.5305685016247
 30
0.0
 40
2.0
  1
x
 41
0.72
  7
CONVERTER_12
100
AcDbText
  0
TEXT
  5
172
330
34
100
AcDbEntity
  8
1
 62
     2
100
AcDbText
 10
2.59940734534757
 20
-181.1972351716249
 30
0.0
 40
2.0
  1
x
 41
0.72
  7
CONVERTER_12
100
AcDbText
  0
TEXT
  5
173
330
34
100
AcDbEntity
  8
1
 62
     2
100
AcDbText
 10
2.59940734534757
 20
-176.8639018416243
 30
0.0
 40
2.0
  1
x
 41
0.72
  7
CONVERTER_12
100
AcDbText
  0
TEXT
  5
174
330
34
100
AcDbEntity
  8
1
 62
     2
100
AcDbText
 10
2.59940734534757
 20
-172.5305685116246
 30
0.0
 40
2.0
  1
x
 41
0.72
  7
CONVERTER_12
100
AcDbText
  0
TEXT
  5
175
330
34
100
AcDbEntity
  8
1
 62
     2
100
AcDbText
 10
2.59940734534757
 20
-168.1972351816248
 30
0.0
 40
2.0
  1
x
 41
0.72
  7
CONVERTER_12
100
AcDbText
  0
TEXT
  5
176
330
34
100
AcDbEntity
  8
1
 62
     2
100
AcDbText
 10
2.59940734534757
 20
-163.8639018516242
 30
0.0
 40
2.0
  1
x
 41
0.72
  7
CONVERTER_12
100
AcDbText
  0
TEXT
  5
177
330
34
100
AcDbEntity
  8
1
 62
     2
100
AcDbText
 10
2.59940734534757
 20
-159.5305685216245
 30
0.0
 40
2.0
  1
x
 41
0.72
  7
CONVERTER_12
100
AcDbText
  0
TEXT
  5
178
330
34
100
AcDbEntity
  8
1
 62
     2
100
AcDbText
 10
2.59940734534757
 20
-155.1972351916247
 30
0.0
 40
2.0
  1
x
 41
0.72
  7
CONVERTER_12
100
AcDbText
  0
TEXT
  5
179
330
34
100
AcDbEntity
  8
1
 62
     2
100
AcDbText
 10
2.59940734534757
 20
-150.863901861625
 30
0.0
 40
2.0
  1
x
 41
0.72
  7
CONVERTER_12
100
AcDbText
  0
TEXT
  5
17A
330
34
100
AcDbEntity
  8
1
 62
     2
100
AcDbText
 10
2.59940734534757
 20
-146.5305685316243
 30
0.0
 40
2.0
  1
x
 41
0.72
  7
CONVERTER_12
100
AcDbText
  0
TEXT
  5
17B
330
34
100
AcDbEntity
  8
1
 62
     2
100
AcDbText
 10
4.84940734534757
 20
-189.8639018316244
 30
0.0
 40
2.0
  1
 
 41
0.72
  7
CONVERTER_12
100
AcDbText
  0
TEXT
  5
17C
330
34
100
AcDbEntity
  8
1
 62
     2
100
AcDbText
 10
4.84940734534757
 20
-185.5305685016247
 30
0.0
 40
2.0
  1
 
 41
0.72
  7
CONVERTER_12
100
AcDbText
  0
TEXT
  5
17D
330
34
100
AcDbEntity
  8
1
 62
     2
100
AcDbText
 10
4.84940734534757
 20
-181.1972351716249
 30
0.0
 40
2.0
  1
 
 41
0.72
  7
CONVERTER_12
100
AcDbText
  0
TEXT
  5
17E
330
34
100
AcDbEntity
  8
1
 62
     2
100
AcDbText
 10
4.84940734534757
 20
-176.8639018416243
 30
0.0
 40
2.0
  1
 
 41
0.72
  7
CONVERTER_12
100
AcDbText
  0
TEXT
  5
17F
330
34
100
AcDbEntity
  8
1
 62
     2
100
AcDbText
 10
4.84940734534757
 20
-172.5305685116246
 30
0.0
 40
2.0
  1
 
 41
0.72
  7
CONVERTER_12
100
AcDbText
  0
TEXT
  5
180
330
34
100
AcDbEntity
  8
1
 62
     2
100
AcDbText
 10
4.84940734534757
 20
-168.1972351816248
 30
0.0
 40
2.0
  1
 
 41
0.72
  7
CONVERTER_12
100
AcDbText
  0
TEXT
  5
181
330
34
100
AcDbEntity
  8
1
 62
     2
100
AcDbText
 10
4.84940734534757
 20
-163.8639018516242
 30
0.0
 40
2.0
  1
 
 41
0.72
  7
CONVERTER_12
100
AcDbText
  0
TEXT
  5
182
330
34
100
AcDbEntity
  8
1
 62
     2
100
AcDbText
 10
4.84940734534757
 20
-159.5305685216245
 30
0.0
 40
2.0
  1
 
 41
0.72
  7
CONVERTER_12
100
AcDbText
  0
TEXT
  5
183
330
34
100
AcDbEntity
  8
1
 62
     2
100
AcDbText
 10
4.84940734534757
 20
-155.1972351916247
 30
0.0
 40
2.0
  1
 
 41
0.72
  7
CONVERTER_12
100
AcDbText
  0
TEXT
  5
184
330
34
100
AcDbEntity
  8
1
 62
     2
100
AcDbText
 10
4.84940734534757
 20
-150.863901861625
 30
0.0
 40
2.0
  1
 
 41
0.72
  7
CONVERTER_12
100
AcDbText
  0
TEXT
  5
185
330
34
100
AcDbEntity
  8
1
 62
     2
100
AcDbText
 10
4.84940734534757
 20
-146.5305685316243
 30
0.0
 40
2.0
  1
 
 41
0.72
  7
CONVERTER_12
100
AcDbText
  0
TEXT
  5
186
330
34
100
AcDbEntity
  8
1
 62
     2
100
AcDbText
 10
8.59940734534757
 20
-189.8639018316244
 30
0.0
 40
2.0
  1
 
 41
0.72
  7
CONVERTER_12
100
AcDbText
  0
TEXT
  5
187
330
34
100
AcDbEntity
  8
1
 62
     2
100
AcDbText
 10
8.59940734534757
 20
-185.5305685016247
 30
0.0
 40
2.0
  1
 
 41
0.72
  7
CONVERTER_12
100
AcDbText
  0
TEXT
  5
188
330
34
100
AcDbEntity
  8
1
 62
     2
100
AcDbText
 10
8.59940734534757
 20
-181.1972351716249
 30
0.0
 40
2.0
  1
 
 41
0.72
  7
CONVERTER_12
100
AcDbText
  0
TEXT
  5
189
330
34
100
AcDbEntity
  8
1
 62
     2
100
AcDbText
 10
8.59940734534757
 20
-176.8639018416243
 30
0.0
 40
2.0
  1
 
 41
0.72
  7
CONVERTER_12
100
AcDbText
  0
TEXT
  5
18A
330
34
100
AcDbEntity
  8
1
 62
     2
100
AcDbText
 10
8.59940734534757
 20
-172.5305685116246
 30
0.0
 40
2.0
  1
 
 41
0.72
  7
CONVERTER_12
100
AcDbText
  0
TEXT
  5
18B
330
34
100
AcDbEntity
  8
1
 62
     2
100
AcDbText
 10
8.59940734534757
 20
-168.1972351816248
 30
0.0
 40
2.0
  1
 
 41
0.72
  7
CONVERTER_12
100
AcDbText
  0
TEXT
  5
18C
330
34
100
AcDbEntity
  8
1
 62
     2
100
AcDbText
 10
8.59940734534757
 20
-163.8639018516242
 30
0.0
 40
2.0
  1
 
 41
0.72
  7
CONVERTER_12
100
AcDbText
  0
TEXT
  5
18D
330
34
100
AcDbEntity
  8
1
 62
     2
100
AcDbText
 10
8.59940734534757
 20
-159.5305685216245
 30
0.0
 40
2.0
  1
 
 41
0.72
  7
CONVERTER_12
100
AcDbText
  0
TEXT
  5
18E
330
34
100
AcDbEntity
  8
1
 62
     2
100
AcDbText
 10
8.59940734534757
 20
-155.1972351916247
 30
0.0
 40
2.0
  1
 
 41
0.72
  7
CONVERTER_12
100
AcDbText
  0
TEXT
  5
18F
330
34
100
AcDbEntity
  8
1
 62
     2
100
AcDbText
 10
8.59940734534757
 20
-150.863901861625
 30
0.0
 40
2.0
  1
 
 41
0.72
  7
CONVERTER_12
100
AcDbText
  0
TEXT
  5
190
330
34
100
AcDbEntity
  8
1
 62
     2
100
AcDbText
 10
8.59940734534757
 20
-146.5305685316243
 30
0.0
 40
2.0
  1
 
 41
0.72
  7
CONVERTER_12
100
AcDbText
  0
TEXT
  5
191
330
34
100
AcDbEntity
  8
1
 62
     2
100
AcDbText
 10
48.3904172414841
 20
-190.2694200621172
 30
0.0
 40
1.5
  1
 
 41
0.81
  7
CONVERTER_13
100
AcDbText
  0
TEXT
  5
192
330
34
100
AcDbEntity
  8
1
 62
     2
100
AcDbText
 10
48.3904172414841
 20
-185.9360867321175
 30
0.0
 40
1.5
  1
 
 41
0.81
  7
CONVERTER_13
100
AcDbText
  0
TEXT
  5
193
330
34
100
AcDbEntity
  8
1
 62
     2
100
AcDbText
 10
48.3904172414841
 20
-181.6027534021177
 30
0.0
 40
1.5
  1
 
 41
0.81
  7
CONVERTER_13
100
AcDbText
  0
TEXT
  5
194
330
34
100
AcDbEntity
  8
1
 62
     2
100
AcDbText
 10
48.3904172414841
 20
-177.2694200721162
 30
0.0
 40
1.5
  1
 
 41
0.81
  7
CONVERTER_13
100
AcDbText
  0
TEXT
  5
195
330
34
100
AcDbEntity
  8
1
 62
     2
100
AcDbText
 10
48.3904172414841
 20
-172.9360867421174
 30
0.0
 40
1.5
  1
 
 41
0.81
  7
CONVERTER_13
100
AcDbText
  0
TEXT
  5
196
330
34
100
AcDbEntity
  8
1
 62
     2
100
AcDbText
 10
48.3904172414841
 20
-168.6027534121176
 30
0.0
 40
1.5
  1
 
 41
0.81
  7
CONVERTER_13
100
AcDbText
  0
TEXT
  5
197
330
34
100
AcDbEntity
  8
1
 62
     2
100
AcDbText
 10
48.3904172414841
 20
-164.2694200821179
 30
0.0
 40
1.5
  1
 
 41
0.81
  7
CONVERTER_13
100
AcDbText
  0
TEXT
  5
198
330
34
100
AcDbEntity
  8
1
 62
     2
100
AcDbText
 10
48.3904172414841
 20
-159.9360867521173
 30
0.0
 40
1.5
  1
 
 41
0.81
  7
CONVERTER_13
100
AcDbText
  0
TEXT
  5
199
330
34
100
AcDbEntity
  8
1
 62
     2
100
AcDbText
 10
48.3904172414841
 20
-155.6027534221175
 30
0.0
 40
1.5
  1
 
 41
0.81
  7
CONVERTER_13
100
AcDbText
  0
TEXT
  5
19A
330
34
100
AcDbEntity
  8
1
 62
     2
100
AcDbText
 10
48.3904172414841
 20
-151.2694200921178
 30
0.0
 40
1.5
  1
 
 41
0.81
  7
CONVERTER_13
100
AcDbText
  0
TEXT
  5
19B
330
34
100
AcDbEntity
  8
1
 62
     2
100
AcDbText
 10
47.8904172414841
 20
-146.9360867621181
 30
0.0
 40
1.5
  1
 
 41
0.81
  7
CONVERTER_13
100
AcDbText
  0
TEXT
  5
19C
330
34
100
AcDbEntity
  8
1
 62
     2
100
AcDbText
 10
60.3696978036387
 20
-190.2694200621172
 30
0.0
 40
1.5
  1
 
 41
0.72
  7
CONVERTER_12
100
AcDbText
  0
TEXT
  5
19D
330
34
100
AcDbEntity
  8
1
 62
     2
100
AcDbText
 10
60.3696978036387
 20
-185.9360867321175
 30
0.0
 40
1.5
  1
 
 41
0.72
  7
CONVERTER_12
100
AcDbText
  0
TEXT
  5
19E
330
34
100
AcDbEntity
  8
1
 62
     2
100
AcDbText
 10
60.3696978036387
 20
-181.6027534021177
 30
0.0
 40
1.5
  1
 
 41
0.72
  7
CONVERTER_12
100
AcDbText
  0
TEXT
  5
19F
330
34
100
AcDbEntity
  8
1
 62
     2
100
AcDbText
 10
60.3696978036387
 20
-177.2694200721162
 30
0.0
 40
1.5
  1
 
 41
0.72
  7
CONVERTER_12
100
AcDbText
  0
TEXT
  5
1A0
330
34
100
AcDbEntity
  8
1
 62
     2
100
AcDbText
 10
60.3696978036387
 20
-172.9360867421174
 30
0.0
 40
1.5
  1
 
 41
0.72
  7
CONVERTER_12
100
AcDbText
  0
TEXT
  5
1A1
330
34
100
AcDbEntity
  8
1
 62
     2
100
AcDbText
 10
60.3696978036387
 20
-168.6027534121176
 30
0.0
 40
1.5
  1
 
 41
0.72
  7
CONVERTER_12
100
AcDbText
  0
TEXT
  5
1A2
330
34
100
AcDbEntity
  8
1
 62
     2
100
AcDbText
 10
60.3696978036387
 20
-164.2694200821179
 30
0.0
 40
1.5
  1
 
 41
0.72
  7
CONVERTER_12
100
AcDbText
  0
TEXT
  5
1A3
330
34
100
AcDbEntity
  8
1
 62
     2
100
AcDbText
 10
60.3696978036387
 20
-159.9360867521173
 30
0.0
 40
1.5
  1
 
 41
0.72
  7
CONVERTER_12
100
AcDbText
  0
TEXT
  5
1A4
330
34
100
AcDbEntity
  8
1
 62
     2
100
AcDbText
 10
60.3696978036387
 20
-155.6027534221175
 30
0.0
 40
1.5
  1
 
 41
0.72
  7
CONVERTER_12
100
AcDbText
  0
TEXT
  5
1A5
330
34
100
AcDbEntity
  8
1
 62
     2
100
AcDbText
 10
60.3696978036387
 20
-151.2694200921178
 30
0.0
 40
1.5
  1
 
 41
0.72
  7
CONVERTER_12
100
AcDbText
  0
TEXT
  5
1A6
330
34
100
AcDbEntity
  8
1
 62
     2
100
AcDbText
 10
59.8696978036387
 20
-146.9360867621181
 30
0.0
 40
1.5
  1
 
 41
0.72
  7
CONVERTER_12
100
AcDbText
  0
TEXT
  5
1A7
330
34
100
AcDbEntity
  8
1
 62
     2
100
AcDbText
 10
0.33422105834325
 20
-142.2704295194817
 30
0.0
 40
2.5
  1
 
 41
0.9
  7
CONVERTER_11
100
AcDbText
  0
TEXT
  5
1A8
330
34
100
AcDbEntity
  8
1
 62
     3
100
AcDbText
 10
106.2893343360775
 20
-171.1487279993908
 30
0.0
 40
3.5
  1
TECTUS TE540-3D A8
 41
0.9
  7
CONVERTER_11
100
AcDbText
  0
TEXT
  5
1A9
330
34
100
AcDbEntity
  8
1
 62
     2
100
AcDbText
 10
8.59940734534757
 20
-194.1972351616232
 30
0.0
 40
2.0
  1
 
 41
0.72
  7
CONVERTER_12
100
AcDbText
  0
HATCH
  5
1AA
330
34
100
AcDbEntity
  8
1
  6
Continuous
 62
     2
100
AcDbHatch
 10
0.0
 20
0.0
 30
0.0
210
0.0
220
0.0
230
1.0
  2
SOLID
 70
     1
 71
     1
 91
        1
 92
        1
 93
        6
 72
     1
 10
87.93190679207328
 20
-195.3870370849072
 11
88.69850593263982
 21
-196.3053438853494
 72
     1
 10
88.69850593263982
 20
-196.3053438853494
 11
88.89895041612908
 21
-196.3053438853494
 72
     1
 10
88.89895041612908
 20
-196.3053438853494
 11
88.12420813270728
 21
-195.3870370849072
 72
     1
 10
88.12420813270728
 20
-195.3870370849072
 11
88.84744560505351
 21
-194.5013019099615
 72
     1
 10
88.84744560505351
 20
-194.5013019099615
 11
88.64968775327725
 21
-194.5013019099615
 72
     1
 10
88.64968775327725
 20
-194.5013019099615
 11
87.93190679207328
 21
-195.3870370849072
 97
        6
330
52
330
53
330
4E
330
4F
330
50
330
51
 75
     0
 76
     1
 98
        1
 10
0.0
 20
0.0
  0
HATCH
  5
1AB
330
34
100
AcDbEntity
  8
1
  6
Continuous
 62
     2
100
AcDbHatch
 10
0.0
 20
0.0
 30
0.0
210
0.0
220
0.0
230
1.0
  2
SOLID
 70
     1
 71
     1
 91
        1
 92
        1
 93
        6
 72
     1
 10
72.18432475934969
 20
-189.7977363114396
 11
72.18432475934969
 21
-191.0462292030479
 72
     1
 10
72.18432475934969
 20
-191.0462292030479
 11
70.26355052814324
 21
-191.0462292030479
 72
     1
 10
70.26355052814324
 20
-191.0462292030479
 11
70.26355052814324
 21
-191.6224208891326
 72
     1
 10
70.26355052814324
 20
-191.6224208891326
 11
68.72695138753625
 21
-191.6224208891326
 72
     1
 10
68.72695138753625
 20
-191.6224208891326
 11
68.72695138753625
 21
-189.7977363114396
 72
     1
 10
68.72695138753625
 20
-189.7977363114396
 11
72.18432475934969
 21
-189.7977363114396
 97
        6
330
62
330
61
330
60
330
65
330
64
330
63
 75
     0
 76
     1
 98
        1
 10
0.0
 20
0.0
  0
HATCH
  5
1AC
330
34
100
AcDbEntity
  8
1
  6
Continuous
 62
     2
100
AcDbHatch
 10
0.0
 20
0.0
 30
0.0
210
0.0
220
0.0
230
1.0
  2
SOLID
 70
     1
 71
     1
 91
        1
 92
        1
 93
        6
 72
     1
 10
72.18432475934969
 20
-191.430343749812
 11
72.18432475934969
 21
-193.255028327505
 72
     1
 10
72.18432475934969
 20
-193.255028327505
 11
68.72695138753625
 21
-193.255028327505
 72
     1
 10
68.72695138753625
 20
-193.255028327505
 11
68.72695138753625
 21
-192.0065553018339
 72
     1
 10
68.72695138753625
 20
-192.0065553018339
 11
70.6477256187136
 21
-192.0065553018339
 72
     1
 10
70.6477256187136
 20
-192.0065553018339
 11
70.6477256187136
 21
-191.430343749812
 72
     1
 10
70.6477256187136
 20
-191.430343749812
 11
72.18432475934969
 21
-191.430343749812
 97
        6
330
67
330
66
330
6B
330
6A
330
69
330
68
 75
     0
 76
     1
 98
        1
 10
0.0
 20
0.0
  0
HATCH
  5
1AD
330
34
100
AcDbEntity
  8
1
  6
Continuous
 62
     2
100
AcDbHatch
 10
0.0
 20
0.0
 30
0.0
210
0.0
220
0.0
230
1.0
  2
SOLID
 70
     1
 71
     1
 91
        1
 92
        1
 93
       10
 72
     1
 10
84.5010799903539
 20
-189.8488343437693
 11
84.5010799903539
 21
-193.255028327505
 72
     1
 10
84.5010799903539
 20
-193.255028327505
 11
85.23243979364634
 21
-193.255028327505
 72
     1
 10
85.23243979364634
 20
-193.255028327505
 11
85.23243979364634
 21
-191.0148987257235
 72
     1
 10
85.23243979364634
 20
-191.0148987257235
 11
86.34744587514433
 21
-193.255028327505
 72
     1
 10
86.34744587514433
 20
-193.255028327505
 11
87.2936435075244
 21
-193.255028327505
 72
     1
 10
87.2936435075244
 20
-193.255028327505
 11
87.2936435075244
 21
-189.8488343437693
 72
     1
 10
87.2936435075244
 20
-189.8488343437693
 11
86.56230357018649
 21
-189.8488343437693
 72
     1
 10
86.56230357018649
 20
-189.8488343437693
 11
86.56230357018649
 21
-192.1963525881893
 72
     1
 10
86.56230357018649
 20
-192.1963525881893
 11
85.44212666863314
 21
-189.8488343437693
 72
     1
 10
85.44212666863314
 20
-189.8488343437693
 11
84.5010799903539
 21
-189.8488343437693
 97
       10
330
7A
330
79
330
78
330
77
330
76
330
7F
330
7E
330
7D
330
7C
330
7B
 75
     0
 76
     1
 98
        1
 10
0.0
 20
0.0
  0
HATCH
  5
1AE
330
34
100
AcDbEntity
  8
1
  6
Continuous
 62
     2
100
AcDbHatch
 10
0.0
 20
0.0
 30
0.0
210
0.0
220
0.0
230
1.0
  2
SOLID
 70
     1
 71
     1
 91
        1
 92
        1
 93
       13
 72
     1
 10
91.5642971918569
 20
-192.2832812059596
 11
90.9863345992344
 21
-189.8488343437693
 72
     1
 10
90.9863345992344
 20
-189.8488343437693
 11
90.22938462891034
 21
-189.8488343437693
 72
     1
 10
90.22938462891034
 20
-189.8488343437693
 11
91.06821443059016
 21
-193.255028327505
 72
     1
 10
91.06821443059016
 20
-193.255028327505
 11
92.04503115049738
 21
-193.255028327505
 72
     1
 10
92.04503115049738
 20
-193.255028327505
 11
92.62303442097618
 21
-190.6671435767676
 72
     1
 10
92.62303442097618
 20
-190.6671435767676
 11
93.19586687143601
 21
-193.255028327505
 72
     1
 10
93.19586687143601
 20
-193.255028327505
 11
94.17268264532322
 21
-193.255028327505
 72
     1
 10
94.17268264532322
 20
-193.255028327505
 11
95.00638230485492
 21
-189.8488343437693
 72
     1
 10
95.00638230485492
 20
-189.8488343437693
 11
94.249473012409
 21
-189.8488343437693
 72
     1
 10
94.249473012409
 20
-189.8488343437693
 11
93.67659988406376
 21
-192.2832812059596
 72
     1
 10
93.67659988406376
 20
-192.2832812059596
 11
93.09354782715673
 21
-189.8488343437693
 72
     1
 10
93.09354782715673
 20
-189.8488343437693
 11
92.15756980122387
 21
-189.8488343437693
 72
     1
 10
92.15756980122387
 20
-189.8488343437693
 11
91.5642971918569
 21
-192.2832812059596
 97
       13
330
86
330
85
330
84
330
83
330
82
330
81
330
80
330
8C
330
8B
330
8A
330
89
330
88
330
87
 75
     0
 76
     1
 98
        1
 10
0.0
 20
0.0
  0
HATCH
  5
1AF
330
34
100
AcDbEntity
  8
1
  6
Continuous
 62
     2
100
AcDbHatch
 10
0.0
 20
0.0
 30
0.0
210
0.0
220
0.0
230
1.0
  2
SOLID
 70
     1
 71
     1
 91
        1
 92
        1
 93
       12
 72
     1
 10
95.36427570451633
 20
-189.8488343437693
 11
95.36427570451633
 21
-193.255028327505
 72
     1
 10
95.36427570451633
 20
-193.255028327505
 11
97.50727694801026
 21
-193.255028327505
 72
     1
 10
97.50727694801026
 20
-193.255028327505
 11
97.50727694801026
 21
-192.5748479122913
 72
     1
 10
97.50727694801026
 20
-192.5748479122913
 11
96.13144528132398
 21
-192.5748479122913
 72
     1
 10
96.13144528132398
 20
-192.5748479122913
 11
96.13144528132398
 21
-191.833247690598
 72
     1
 10
96.13144528132398
 20
-191.833247690598
 11
97.39990911731002
 21
-191.833247690598
 72
     1
 10
97.39990911731002
 20
-191.833247690598
 11
97.39990911731002
 21
-191.1530682213825
 72
     1
 10
97.39990911731002
 20
-191.1530682213825
 11
96.13144528132398
 21
-191.1530682213825
 72
     1
 10
96.13144528132398
 20
-191.1530682213825
 11
96.13144528132398
 21
-190.5290147589813
 72
     1
 10
96.13144528132398
 20
-190.5290147589813
 11
97.50727694801026
 21
-190.5290147589813
 72
     1
 10
97.50727694801026
 20
-190.5290147589813
 11
97.50727694801026
 21
-189.8488343437693
 72
     1
 10
97.50727694801026
 20
-189.8488343437693
 11
95.36427570451633
 21
-189.8488343437693
 97
       12
330
58
330
5A
330
5B
330
5D
330
5C
330
8F
330
8E
330
8D
330
57
330
56
330
90
330
59
 75
     0
 76
     1
 98
        1
 10
0.0
 20
0.0
  0
HATCH
  5
1B0
330
34
100
AcDbEntity
  8
1
  6
Continuous
 62
     2
100
AcDbHatch
 10
0.0
 20
0.0
 30
0.0
210
0.0
220
0.0
230
1.0
  2
SOLID
 70
     1
 71
     1
 91
        1
 92
        1
 93
        4
 72
     1
 10
101.0772920842574
 20
-189.8488343437693
 11
101.0772920842574
 21
-193.255028327505
 72
     1
 10
101.0772920842574
 20
-193.255028327505
 11
101.844420983165
 21
-193.255028327505
 72
     1
 10
101.844420983165
 20
-193.255028327505
 11
101.844420983165
 21
-189.8488343437693
 72
     1
 10
101.844420983165
 20
-189.8488343437693
 11
101.0772920842574
 21
-189.8488343437693
 97
        4
330
93
330
92
330
91
330
94
 75
     0
 76
     1
 98
        1
 10
0.0
 20
0.0
  0
HATCH
  5
1B1
330
34
100
AcDbEntity
  8
1
  6
Continuous
 62
     2
100
AcDbHatch
 10
0.0
 20
0.0
 30
0.0
210
0.0
220
0.0
230
1.0
  2
SOLID
 70
     1
 71
     1
 91
        1
 92
        1
 93
        6
 72
     1
 10
101.9416098852889
 20
-191.5161721729764
 11
102.9338567635568
 21
-193.255028327505
 72
     1
 10
102.9338567635568
 20
-193.255028327505
 11
103.7982152424738
 21
-193.255028327505
 72
     1
 10
103.7982152424738
 20
-193.255028327505
 11
102.7701377787453
 21
-191.5161721729764
 72
     1
 10
102.7701377787453
 20
-191.5161721729764
 11
103.7265966414634
 21
-189.8488343437693
 72
     1
 10
103.7265966414634
 20
-189.8488343437693
 11
102.8622778944264
 21
-189.8488343437693
 72
     1
 10
102.8622778944264
 20
-189.8488343437693
 11
101.9416098852889
 21
-191.5161721729764
 97
        6
330
99
330
98
330
97
330
95
330
96
330
9A
 75
     0
 76
     1
 98
        1
 10
0.0
 20
0.0
  0
HATCH
  5
1B2
330
34
100
AcDbEntity
  8
1
  6
Continuous
 62
     2
100
AcDbHatch
 10
0.0
 20
0.0
 30
0.0
210
0.0
220
0.0
230
1.0
  2
SOLID
 70
     1
 71
     1
 91
        2
 92
        1
 93
        8
 72
     1
 10
75.58029913660721
 20
-194.5013019099615
 11
75.34461531584384
 21
-194.5013019099615
 72
     1
 10
75.34461531584384
 20
-194.5013019099615
 11
74.71622540283715
 21
-196.3053438853494
 72
     1
 10
74.71622540283715
 20
-196.3053438853494
 11
74.87328740619705
 21
-196.3053438853494
 72
     1
 10
74.87328740619705
 20
-196.3053438853494
 11
75.0412605399033
 21
-195.8312886661097
 72
     1
 10
75.0412605399033
 20
-195.8312886661097
 11
75.88096633486566
 21
-195.8312886661097
 72
     1
 10
75.88096633486566
 20
-195.8312886661097
 11
76.0516270462831
 21
-196.3053438853494
 72
     1
 10
76.0516270462831
 20
-196.3053438853494
 11
76.20872972751386
 21
-196.3053438853494
 72
     1
 10
76.20872972751386
 20
-196.3053438853494
 11
75.58029913660721
 21
-194.5013019099615
 97
        8
330
A2
330
A3
330
9B
330
A4
330
A5
330
9F
330
A0
330
A1
 92
       16
 93
        3
 72
     1
 10
75.46110350440722
 20
-194.5934013477763
 11
75.83219497310347
 21
-195.6931390363898
 72
     1
 10
75.83219497310347
 20
-195.6931390363898
 11
75.09005271206843
 21
-195.6931390363898
 72
     1
 10
75.09005271206843
 20
-195.6931390363898
 11
75.46110350440722
 21
-194.5934013477763
 97
        3
330
9C
330
9D
330
9E
 75
     0
 76
     1
 98
        1
 10
0.0
 20
0.0
  0
HATCH
  5
1B3
330
34
100
AcDbEntity
  8
1
  6
Continuous
 62
     2
100
AcDbHatch
 10
0.0
 20
0.0
 30
0.0
210
0.0
220
0.0
230
1.0
  2
SOLID
 70
     1
 71
     1
 91
        1
 92
        1
 93
       10
 72
     1
 10
76.49308982807997
 20
-194.5013019099615
 11
76.49308982807997
 21
-196.3053438853494
 72
     1
 10
76.49308982807997
 20
-196.3053438853494
 11
76.64477667602478
 21
-196.3053438853494
 72
     1
 10
76.64477667602478
 20
-196.3053438853494
 11
76.64477667602478
 21
-194.6584254031359
 72
     1
 10
76.64477667602478
 20
-194.6584254031359
 11
77.50074666830915
 21
-196.3053032074749
 72
     1
 10
77.50074666830915
 20
-196.3053032074749
 11
77.73372432193719
 21
-196.3053032074749
 72
     1
 10
77.73372432193719
 20
-196.3053032074749
 11
77.73372432193719
 21
-194.5013019099615
 72
     1
 10
77.73372432193719
 20
-194.5013019099615
 11
77.58203747398511
 21
-194.5013019099615
 72
     1
 10
77.58203747398511
 20
-194.5013019099615
 11
77.58203747398511
 21
-196.1508682380045
 72
     1
 10
77.58203747398511
 20
-196.1508682380045
 11
76.72602552734315
 21
-194.5013019099615
 72
     1
 10
76.72602552734315
 20
-194.5013019099615
 11
76.49308982807997
 21
-194.5013019099615
 97
       10
330
A6
330
A7
330
AF
330
AE
330
AD
330
AC
330
AB
330
AA
330
A9
330
A8
 75
     0
 76
     1
 98
        1
 10
0.0
 20
0.0
  0
HATCH
  5
1B4
330
34
100
AcDbEntity
  8
1
  6
Continuous
 62
     2
100
AcDbHatch
 10
0.0
 20
0.0
 30
0.0
210
0.0
220
0.0
230
1.0
  2
SOLID
 70
     1
 71
     1
 91
        1
 92
        1
 93
        8
 72
     1
 10
79.53493682005501
 20
-194.5013019099615
 11
79.53493682005501
 21
-194.6448664269738
 72
     1
 10
79.53493682005501
 20
-194.6448664269738
 11
80.09026075653674
 21
-194.6448664269738
 72
     1
 10
80.09026075653674
 20
-194.6448664269738
 11
80.09026075653674
 21
-196.3053438853494
 72
     1
 10
80.09026075653674
 20
-196.3053438853494
 11
80.25007088141865
 21
-196.3053438853494
 72
     1
 10
80.25007088141865
 20
-196.3053438853494
 11
80.25007088141865
 21
-194.6448257490993
 72
     1
 10
80.25007088141865
 20
-194.6448257490993
 11
80.80535508601315
 21
-194.6448257490993
 72
     1
 10
80.80535508601315
 20
-194.6448257490993
 11
80.80535508601315
 21
-194.5013019099615
 72
     1
 10
80.80535508601315
 20
-194.5013019099615
 11
79.53493682005501
 21
-194.5013019099615
 97
        8
330
B1
330
B2
330
B0
330
B7
330
B6
330
B5
330
B4
330
B3
 75
     0
 76
     1
 98
        1
 10
0.0
 20
0.0
  0
HATCH
  5
1B5
330
34
100
AcDbEntity
  8
1
  6
Continuous
 62
     2
100
AcDbHatch
 10
0.0
 20
0.0
 30
0.0
210
0.0
220
0.0
230
1.0
  2
SOLID
 70
     1
 71
     1
 91
        1
 92
        1
 93
       12
 72
     1
 10
81.06265967007494
 20
-194.5013019099615
 11
81.06265967007494
 21
-196.3053438853494
 72
     1
 10
81.06265967007494
 20
-196.3053438853494
 11
82.08118918526452
 21
-196.3053438853494
 72
     1
 10
82.08118918526452
 20
-196.3053438853494
 11
82.08118918526452
 21
-196.1617386904627
 72
     1
 10
82.08118918526452
 20
-196.1617386904627
 11
81.22248966088955
 21
-196.1617386904627
 72
     1
 10
81.22248966088955
 20
-196.1617386904627
 11
81.22248966088955
 21
-195.4574750815618
 72
     1
 10
81.22248966088955
 20
-195.4574750815618
 11
82.01883284165524
 21
-195.4574750815618
 72
     1
 10
82.01883284165524
 20
-195.4574750815618
 11
82.01883284165524
 21
-195.313911510546
 72
     1
 10
82.01883284165524
 20
-195.313911510546
 11
81.22248966088955
 21
-195.313911510546
 72
     1
 10
81.22248966088955
 20
-195.313911510546
 11
81.22248966088955
 21
-194.6448257490993
 72
     1
 10
81.22248966088955
 20
-194.6448257490993
 11
82.07846092968975
 21
-194.6448257490993
 72
     1
 10
82.07846092968975
 20
-194.6448257490993
 11
82.07846092968975
 21
-194.5013019099615
 72
     1
 10
82.07846092968975
 20
-194.5013019099615
 11
81.06265967007494
 21
-194.5013019099615
 97
       12
330
C0
330
C1
330
BF
330
BE
330
BD
330
BC
330
BB
330
BA
330
B9
330
B8
330
C3
330
C2
 75
     0
 76
     1
 98
        1
 10
0.0
 20
0.0
  0
HATCH
  5
1B6
330
34
100
AcDbEntity
  8
1
  6
Continuous
 62
     2
100
AcDbHatch
 10
0.0
 20
0.0
 30
0.0
210
0.0
220
0.0
230
1.0
  2
SOLID
 70
     1
 71
     1
 91
        1
 92
        1
 93
       12
 72
     1
 10
83.95015210233396
 20
-195.3057674216752
 11
83.95015210233396
 21
-194.5013019099615
 72
     1
 10
83.95015210233396
 20
-194.5013019099615
 11
83.79032211149752
 21
-194.5013019099615
 72
     1
 10
83.79032211149752
 20
-194.5013019099615
 11
83.79032211149752
 21
-196.3053438853494
 72
     1
 10
83.79032211149752
 20
-196.3053438853494
 11
83.95015210233396
 21
-196.3053438853494
 72
     1
 10
83.95015210233396
 20
-196.3053438853494
 11
83.95015210233396
 21
-195.4493726165629
 72
     1
 10
83.95015210233396
 20
-195.4493726165629
 11
84.82232830111025
 21
-195.4493726165629
 72
     1
 10
84.82232830111025
 20
-195.4493726165629
 11
84.82232830111025
 21
-196.3053032074749
 72
     1
 10
84.82232830111025
 20
-196.3053032074749
 11
84.98215923793032
 21
-196.3053032074749
 72
     1
 10
84.98215923793032
 20
-196.3053032074749
 11
84.98215923793032
 21
-194.5013019099615
 72
     1
 10
84.98215923793032
 20
-194.5013019099615
 11
84.82232830111025
 21
-194.5013019099615
 72
     1
 10
84.82232830111025
 20
-194.5013019099615
 11
84.82232830111025
 21
-195.3057674216752
 72
     1
 10
84.82232830111025
 20
-195.3057674216752
 11
83.95015210233396
 21
-195.3057674216752
 97
       12
330
C8
330
C7
330
C6
330
C5
330
C4
330
CF
330
CE
330
CD
330
CC
330
CB
330
CA
330
C9
 75
     0
 76
     1
 98
        1
 10
0.0
 20
0.0
  0
HATCH
  5
1B7
330
34
100
AcDbEntity
  8
1
  6
Continuous
 62
     2
100
AcDbHatch
 10
0.0
 20
0.0
 30
0.0
210
0.0
220
0.0
230
1.0
  2
SOLID
 70
     1
 71
     1
 91
        1
 92
        1
 93
       10
 72
     1
 10
85.64849593184772
 20
-194.5013019099615
 11
85.41553942067549
 21
-194.5013019099615
 72
     1
 10
85.41553942067549
 20
-194.5013019099615
 11
85.41553942067549
 21
-196.3053032074749
 72
     1
 10
85.41553942067549
 20
-196.3053032074749
 11
85.56724708055845
 21
-196.3053032074749
 72
     1
 10
85.56724708055845
 20
-196.3053032074749
 11
85.56724708055845
 21
-194.658465442164
 72
     1
 10
85.56724708055845
 20
-194.658465442164
 11
86.42328017121326
 21
-196.3053438853494
 72
     1
 10
86.42328017121326
 20
-196.3053438853494
 11
86.65615404858545
 21
-196.3053438853494
 72
     1
 10
86.65615404858545
 20
-196.3053438853494
 11
86.65615404858545
 21
-194.5013019099615
 72
     1
 10
86.65615404858545
 20
-194.5013019099615
 11
86.5044870665879
 21
-194.5013019099615
 72
     1
 10
86.5044870665879
 20
-194.5013019099615
 11
86.5044870665879
 21
-196.1508682380045
 72
     1
 10
86.5044870665879
 20
-196.1508682380045
 11
85.64849593184772
 21
-194.5013019099615
 97
       10
330
D0
330
D7
330
D6
330
D1
330
D9
330
D3
330
D2
330
D4
330
D5
330
D8
 75
     0
 76
     1
 98
        1
 10
0.0
 20
0.0
  0
HATCH
  5
1B8
330
34
100
AcDbEntity
  8
1
  6
Continuous
 62
     2
100
AcDbHatch
 10
0.0
 20
0.0
 30
0.0
210
0.0
220
0.0
230
1.0
  2
SOLID
 70
     1
 71
     1
 91
        1
 92
        1
 93
        4
 72
     1
 10
87.10305252963008
 20
-194.5013019099615
 11
87.10305252963008
 21
-196.3053438853494
 72
     1
 10
87.10305252963008
 20
-196.3053438853494
 11
87.26290333239012
 21
-196.3053438853494
 72
     1
 10
87.26290333239012
 20
-196.3053438853494
 11
87.26290333239012
 21
-194.5013019099615
 72
     1
 10
87.26290333239012
 20
-194.5013019099615
 11
87.10305252963008
 21
-194.5013019099615
 97
        4
330
DC
330
DA
330
DD
330
DB
 75
     0
 76
     1
 98
        1
 10
0.0
 20
0.0
  0
HATCH
  5
1B9
330
34
100
AcDbEntity
  8
1
  6
Continuous
 62
     2
100
AcDbHatch
 10
0.0
 20
0.0
 30
0.0
210
0.0
220
0.0
230
1.0
  2
SOLID
 70
     1
 71
     1
 91
        1
 92
        1
 93
        4
 72
     1
 10
87.70976018954389
 20
-194.5013019099615
 11
87.70976018954389
 21
-196.3053438853494
 72
     1
 10
87.70976018954389
 20
-196.3053438853494
 11
87.86961099231848
 21
-196.3053438853494
 72
     1
 10
87.86961099231848
 20
-196.3053438853494
 11
87.86961099231848
 21
-194.5013019099615
 72
     1
 10
87.86961099231848
 20
-194.5013019099615
 11
87.70976018954389
 21
-194.5013019099615
 97
        4
330
E0
330
DF
330
E1
330
DE
 75
     0
 76
     1
 98
        1
 10
0.0
 20
0.0
  0
HATCH
  5
1BA
330
34
100
AcDbEntity
  8
1
  6
Continuous
 62
     2
100
AcDbHatch
 10
0.0
 20
0.0
 30
0.0
210
0.0
220
0.0
230
1.0
  2
SOLID
 70
     1
 71
     1
 91
        1
 92
        1
 93
       13
 72
     1
 10
80.03093822559458
 20
-189.8488343437693
 11
79.21266967044357
 21
-192.0173245326032
 72
     1
 10
79.21266967044357
 20
-192.0173245326032
 11
78.39431975959451
 21
-189.8488343437693
 72
     1
 10
78.39431975959451
 20
-189.8488343437693
 11
77.62708963897603
 21
-189.8488343437693
 72
     1
 10
77.62708963897603
 20
-189.8488343437693
 11
77.48387135690427
 21
-193.255028327505
 72
     1
 10
77.48387135690427
 20
-193.255028327505
 11
78.22551225646748
 21
-193.255028327505
 72
     1
 10
78.22551225646748
 20
-193.255028327505
 11
78.27671245646343
 21
-191.3627144184902
 72
     1
 10
78.27671245646343
 20
-191.3627144184902
 11
78.86998411985405
 21
-192.8151737407352
 72
     1
 10
78.86998411985405
 20
-192.8151737407352
 11
79.55535522106948
 21
-192.8151737407352
 72
     1
 10
79.55535522106948
 20
-192.8151737407352
 11
80.14864769637643
 21
-191.3627144184902
 72
     1
 10
80.14864769637643
 20
-191.3627144184902
 11
80.19976654063794
 21
-193.255028327505
 72
     1
 10
80.19976654063794
 20
-193.255028327505
 11
80.94142825214658
 21
-193.255028327505
 72
     1
 10
80.94142825214658
 20
-193.255028327505
 11
80.79820997006027
 21
-189.8488343437693
 72
     1
 10
80.79820997006027
 20
-189.8488343437693
 11
80.03093822559458
 21
-189.8488343437693
 97
       13
330
5E
330
E8
330
75
330
6C
330
74
330
73
330
72
330
71
330
70
330
6F
330
6E
330
6D
330
5F
 75
     0
 76
     1
 98
        1
 10
0.0
 20
0.0
  0
HATCH
  5
1BB
330
34
100
AcDbEntity
  8
1
  6
Continuous
 62
     2
100
AcDbHatch
 10
0.0
 20
0.0
 30
0.0
210
0.0
220
0.0
230
1.0
  2
SOLID
 70
     1
 71
     1
 91
        1
 92
        1
 93
        4
 72
     1
 10
76.1797803248337
 20
-189.8488343437693
 11
76.1797803248337
 21
-193.255028327505
 72
     1
 10
76.1797803248337
 20
-193.255028327505
 11
76.94693003568682
 21
-193.255028327505
 72
     1
 10
76.94693003568682
 20
-193.255028327505
 11
76.94693003568682
 21
-189.8488343437693
 72
     1
 10
76.94693003568682
 20
-189.8488343437693
 11
76.1797803248337
 21
-189.8488343437693
 97
        4
330
EB
330
54
330
55
330
EA
 75
     0
 76
     1
 98
        1
 10
0.0
 20
0.0
  0
HATCH
  5
1BC
330
34
100
AcDbEntity
  8
1
  6
Continuous
 62
     2
100
AcDbHatch
 10
0.0
 20
0.0
 30
0.0
210
0.0
220
0.0
230
1.0
  2
SOLID
 70
     1
 71
     1
 91
        1
 92
        1
 93
        1
 72
     4
 94
        3
 73
     0
 74
     0
 95
       99
 96
       95
 40
0.0
 40
0.0
 40
0.0
 40
0.0
 40
0.205886578014739
 40
0.3802558940280118
 40
0.5295924281102353
 40
0.6639497481639882
 40
0.7981974139382951
 40
0.9497668026613064
 40
1.134316501007217
 40
1.364156598964878
 40
1.649145981489632
 40
1.854658565368003
 40
2.005118304764475
 40
2.112155837278241
 40
2.191303161446569
 40
2.265236695307825
 40
2.356357153045459
 40
2.478213504442011
 40
2.607364319186772
 40
2.704600041413773
 40
2.798194798014033
 40
2.922158715440784
 40
3.097569675892018
 40
3.320278193146795
 40
3.540760712029539
 40
3.777817256889256
 40
4.049964076873861
 40
4.077851712666463
 40
4.151373661574297
 40
4.255318485892213
 40
4.374474747915168
 40
4.493631009938151
 40
4.597575834256067
 40
4.671097783163845
 40
4.698985418956475
 40
5.07489380798194
 40
5.424148807298384
 40
5.739911003193814
 40
6.026947052101471
 40
6.268079625838891
 40
6.470402581445125
 40
6.643379948261113
 40
6.799454196879379
 40
6.953060992112208
 40
7.117582259697379
 40
7.30280160008077
 40
7.514778803621002
 40
7.739947017534158
 40
7.928433879635411
 40
8.087733113002914
 40
8.228542352421927
 40
8.36542348075367
 40
8.514542539083598
 40
8.689860884778247
 40
8.901809334336383
 40
9.158237616688643
 40
9.347768156407138
 40
9.493039108210553
 40
9.601795667949741
 40
9.683502780258204
 40
9.751054056304556
 40
9.819893170325646
 40
9.902273957924388
 40
10.00534777548811
 40
10.13191876994668
 40
10.23076108064025
 40
10.31667665043286
 40
10.41307294214297
 40
10.54070016440409
 40
10.71247660285179
 40
11.05520966766493
 40
11.38523983025175
 40
11.71146710544383
 40
11.73754500712031
 40
11.80629583881273
 40
11.90349529051593
 40
12.01491905222442
 40
12.12634281393291
 40
12.22354226563608
 40
12.29229309732855
 40
12.31837099900501
 40
12.5743262462182
 40
12.85505772327697
 40
13.14962999357011
 40
13.44700399602036
 40
13.76080182827821
 40
14.02197667869465
 40
14.23931234709329
 40
14.42395217001395
 40
14.58972154951988
 40
14.75169157294845
 40
14.9229619773092
 40
15.11242230479244
 40
15.32497318704243
 40
15.32497318704243
 40
15.32497318704243
 40
15.32497318704243
 10
75.71946620513336
 20
-192.2986515131943
 10
75.71924999144242
 20
-192.2300178866764
 10
75.71885066220429
 20
-192.1032571174044
 10
75.70787433807676
 20
-191.9268751803795
 10
75.67983275938415
 20
-191.7761106483597
 10
75.62509005380844
 20
-191.64630349294
 10
75.53484094069182
 20
-191.5366592907018
 10
75.4055180463693
 20
-191.4456206315743
 10
75.23337682669082
 20
-191.3669635408208
 10
75.01157014926324
 20
-191.2942943838441
 10
74.7787424346136
 20
-191.2352383171384
 10
74.57070106808858
 20
-191.1866918774688
 10
74.4216384637375
 20
-191.1463090468509
 10
74.31638672548101
 20
-191.1065983199896
 10
74.24478710301567
 20
-191.0532571939845
 10
74.20987045645882
 20
-190.9767776210409
 10
74.20076428527149
 20
-190.8810359680168
 10
74.19968471304777
 20
-190.7670690576269
 10
74.20287283439836
 20
-190.6509713600237
 10
74.24051201420755
 20
-190.5462347255709
 10
74.33114193747006
 20
-190.4833853621992
 10
74.46163128672612
 20
-190.4601875545872
 10
74.6359359812539
 20
-190.4561863260273
 10
74.84011008104049
 20
-190.4588728741778
 10
75.07458875321048
 20
-190.4887172550374
 10
75.28056874829323
 20
-190.4735484092045
 10
75.5621022149335
 20
-190.6430656647511
 10
75.5701302996314
 20
-190.5104985821361
 10
75.57976664334075
 20
-190.4445843310433
 10
75.59071821715813
 20
-190.3454519535406
 10
75.60450736325551
 20
-190.2324441189081
 10
75.61769678748492
 20
-190.1192359591157
 10
75.63007493374568
 20
-190.0205800997595
 10
75.63671217016238
 20
-189.9536640565356
 10
75.66354953382165
 20
-189.789812238824
 10
75.2270995421299
 20
-189.8807379214381
 10
74.9493786051573
 20
-189.7965712197799
 10
74.61626394702508
 20
-189.7965935155539
 10
74.33842085752937
 20
-189.8023355196095
 10
74.09543872116829
 20
-189.8321064795289
 10
73.89591514583586
 20
-189.8840168801541
 10
73.73486482275072
 20
-189.9613599477563
 10
73.61069383130557
 20
-190.0668477777037
 10
73.52266121558996
 20
-190.2004787189954
 10
73.46710259212395
 20
-190.3601196303837
 10
73.43779937737771
 20
-190.5457522375344
 10
73.4314048946602
 20
-190.7533677295422
 10
73.435605028026
 20
-190.9619180268745
 10
73.45240948868337
 20
-191.152446989501
 10
73.48845450789388
 20
-191.3120633710931
 10
73.55052851660588
 20
-191.4455398151845
 10
73.64495407269708
 20
-191.5544291842927
 10
73.77351477605376
 20
-191.6411797331237
 10
73.9382177139399
 20
-191.7122650031309
 10
74.14377754551998
 20
-191.7747144698916
 10
74.35767639535007
 20
-191.8233772493486
 10
74.55004849032281
 20
-191.8661123170585
 10
74.6930565444775
 20
-191.9040618281623
 10
74.79856286585918
 20
-191.9418941107634
 10
74.87396764701585
 20
-191.9852637978081
 10
74.92226929057605
 20
-192.0419983767582
 10
74.94499377921241
 20
-192.1126582243944
 10
74.95205091224132
 20
-192.1973131704619
 10
74.9529518845913
 20
-192.301337031453
 10
74.94987320650722
 20
-192.4108308559053
 10
74.9259187620533
 20
-192.5136223816903
 10
74.86662141989879
 20
-192.5907672298125
 10
74.76980829220508
 20
-192.6343056485186
 10
74.63872175344835
 20
-192.6537598968995
 10
74.42594836592534
 20
-192.6620464483465
 10
74.13295008405989
 20
-192.6256114640712
 10
73.84964529764923
 20
-192.6438813669617
 10
73.51636634136545
 20
-192.3876266337506
 10
73.49192724288254
 20
-192.5334474810031
 10
73.4774497113481
 20
-192.594369789332
 10
73.4584407980391
 20
-192.6855123136007
 10
73.43572221145347
 20
-192.7895809288738
 10
73.41357223470409
 20
-192.8937837990353
 10
73.39321075586972
 20
-192.984606968059
 10
73.38157674563678
 20
-193.0462006623022
 10
73.3488625394043
 20
-193.1647678988746
 10
73.6617907193924
 20
-193.1618298320121
 10
73.87405954797917
 20
-193.2577968410843
 10
74.17852624989823
 20
-193.2938457947825
 10
74.47594478752234
 20
-193.3110966819322
 10
74.7681279877367
 20
-193.2996332783734
 10
75.03028601871428
 20
-193.2654493089416
 10
75.24414188678654
 20
-193.2052882816834
 10
75.41403071918988
 20
-193.1182049584732
 10
75.54259068996018
 20
-193.0025108586594
 10
75.63183469450846
 20
-192.8598230740147
 10
75.68681415329503
 20
-192.6932621811
 10
75.71559249378981
 20
-192.5036171682587
 10
75.71812645317925
 20
-192.3695404134099
 10
75.71946620513336
 20
-192.2986515131943
 97
        1
330
12A
 75
     0
 76
     1
 98
        1
 10
0.0
 20
0.0
  0
HATCH
  5
1BD
330
34
100
AcDbEntity
  8
1
  6
Continuous
 62
     2
100
AcDbHatch
 10
0.0
 20
0.0
 30
0.0
210
0.0
220
0.0
230
1.0
  2
SOLID
 70
     1
 71
     1
 91
        2
 92
        1
 93
        1
 72
     4
 94
        3
 73
     0
 74
     0
 95
       21
 96
       17
 40
0.0
 40
0.0
 40
0.0
 40
0.0
 40
0.775404439407058
 40
1.847167968754805
 40
2.918946034233409
 40
3.694344582237207
 40
4.062970101028569
 40
4.747560350212538
 40
5.1161858690039
 40
5.891546854204392
 40
6.963331148768684
 40
8.035100907286605
 40
8.810467784175767
 40
9.179093302967129
 40
9.863683552151098
 40
10.23230907094246
 40
10.23230907094246
 40
10.23230907094246
 40
10.23230907094246
 10
84.01521652337397
 20
-190.8410209165413
 10
83.94665961272344
 20
-190.5730880695646
 10
83.78334338321199
 20
-189.9348186097058
 10
82.68652448719305
 20
-189.7193458249785
 10
81.63940492212706
 20
-189.9308610319367
 10
81.35117297468176
 20
-190.7090182891904
 10
81.38411335237188
 20
-191.3134487507421
 10
81.38403989151153
 20
-191.7904412609561
 10
81.35134727960664
 20
-192.3948309857349
 10
81.6376501467584
 20
-193.1732236460538
 10
82.69575719220771
 20
-193.3832573586208
 10
83.75327381360836
 20
-193.1731699505553
 10
84.04066652442312
 20
-192.3949313510217
 10
84.00571918775012
 20
-191.7902254433007
 10
84.01666177009938
 20
-191.3147686132374
 10
84.01559121696943
 20
-190.9638443934625
 10
84.01521652337397
 20
-190.8410209165413
 97
        1
330
12C
 92
       16
 93
        1
 72
     4
 94
        3
 73
     0
 74
     0
 95
       21
 96
       17
 40
0.0
 40
0.0
 40
0.0
 40
0.0
 40
0.3412552453428896
 40
0.7767617679045864
 40
1.212268290469792
 40
1.553523535814092
 40
1.887662654731712
 40
2.508206732721645
 40
2.842345851639293
 40
3.183601097059461
 40
3.619107619627888
 40
4.054614142192806
 40
4.395869387611564
 40
4.730008506529211
 40
5.350552584519145
 40
5.684691703436764
 40
5.684691703436764
 40
5.684691703436764
 40
5.684691703436764
 10
83.24802644681768
 20
-192.1963527178859
 10
83.21846959300838
 20
-192.3165042091985
 10
83.15119257871511
 20
-192.5899918290432
 10
82.69307234054558
 20
-192.6456243442037
 10
82.24932279564938
 20
-192.5918208643145
 10
82.11929816140588
 20
-192.1933949819185
 10
82.1541286939434
 20
-191.7700175512186
 10
82.15405168006279
 20
-191.3338537237222
 10
82.1194236805708
 20
-190.9105143499193
 10
82.24878589739274
 20
-190.5119463472243
 10
82.69569944679351
 20
-190.4588275030812
 10
83.14235815604823
 20
-190.5119784546516
 10
83.27231988525541
 20
-190.9104184467509
 10
83.23508376507186
 20
-191.3343354530893
 10
83.2499959853442
 20
-191.7671717295613
 10
83.24853706791716
 20
-192.0850835727647
 10
83.24802644681768
 20
-192.1963527178859
 97
        1
330
12B
 75
     0
 76
     1
 98
        1
 10
0.0
 20
0.0
  0
HATCH
  5
1BE
330
34
100
AcDbEntity
  8
1
  6
Continuous
 62
     2
100
AcDbHatch
 10
0.0
 20
0.0
 30
0.0
210
0.0
220
0.0
230
1.0
  2
SOLID
 70
     1
 71
     1
 91
        1
 92
        1
 93
        1
 72
     4
 94
        3
 73
     0
 74
     0
 95
      100
 96
       96
 40
0.0
 40
0.0
 40
0.0
 40
0.0
 40
0.1867995174892391
 40
0.3476296850620902
 40
0.4869324351436052
 40
0.6112224347066836
 40
0.7301389440908254
 40
0.8559981854519499
 40
1.001296096493256
 40
1.176591637421245
 40
1.390310174631794
 40
1.649435668550112
 40
1.854960965008789
 40
2.00542618547525
 40
2.112464178547632
 40
2.19160955393289
 40
2.265540883322654
 40
2.356658154582227
 40
2.478508054744343
 40
2.607650889827001
 40
2.70488328183204
 40
2.798472513061135
 40
2.922426590498485
 40
3.097825602678794
 40
3.320545631082219
 40
3.541031983084749
 40
3.778083321099207
 40
4.050213732335643
 40
4.078098969102705
 40
4.15161459330675
 40
4.255550475802156
 40
4.374696487443215
 40
4.493842499084273
 40
4.59777838157968
 40
4.671294005783725
 40
4.699179242550787
 40
5.075100995887359
 40
5.424355995209894
 40
5.740104627403113
 40
6.02714132426707
 40
6.26827526514978
 40
6.470599391733628
 40
6.643576762308512
 40
6.799649158021682
 40
6.953252401170668
 40
7.117769507451319
 40
7.302985472787408
 40
7.514961312823168
 40
7.740135613518247
 40
7.928627384867229
 40
8.087930704665913
 40
8.228743612216496
 40
8.365628433716823
 40
8.51475162375794
 40
8.690074879970666
 40
8.902029307551306
 40
9.158464906469034
 40
9.347997264482144
 40
9.493265947446327
 40
9.602017205947893
 40
9.683717463645225
 40
9.751262642785724
 40
9.820098395033714
 40
9.902478136999697
 40
10.00555184603496
 40
10.13213845283845
 40
10.23098801874637
 40
10.31690411123259
 40
10.41329669627946
 40
10.54091781656118
 40
10.7126856316249
 40
11.05541935737164
 40
11.38546625508887
 40
11.71168673955347
 40
11.73776274674538
 40
11.80650858388761
 40
11.90370097433018
 40
12.01511664142282
 40
12.12653230851548
 40
12.22372469895799
 40
12.29247053610025
 40
12.31854654329216
 40
12.5745014980484
 40
12.85523082020365
 40
13.14979711690451
 40
13.44715936644986
 40
13.7609578974046
 40
14.02213462765634
 40
14.23947304388135
 40
14.42411618739821
 40
14.58988921184234
 40
14.75186310253246
 40
14.92313774472987
 40
15.11260302890612
 40
15.32515999509536
 40
15.32515999509536
 40
15.32515999509536
 40
15.32515999509536
 10
89.99929906750913
 20
-192.2986311552422
 10
89.99911091547717
 20
-192.2363616316104
 10
89.99876076879328
 20
-192.1204794538616
 10
89.99028782428181
 20
-191.9582681130666
 10
89.96927091239814
 20
-191.8179912245026
 10
89.92938490605934
 20
-191.6959509591784
 10
89.86386712592578
 20
-191.5902258661665
 10
89.76829508908077
 20
-191.5002007168522
 10
89.64021806572957
 20
-191.4229208196647
 10
89.47566532749855
 20
-191.3538022695808
 10
89.26948681049751
 20
-191.2886392013637
 10
89.05017648760276
 20
-191.2332843951879
 10
88.85052329026985
 20
-191.1866908993422
 10
88.70145492970153
 20
-191.1463067532653
 10
88.59620264878973
 20
-191.1065930082559
 10
88.52460667833991
 20
-191.0532484980695
 10
88.48969710901233
 20
-190.9767684500492
 10
88.48059616310212
 20
-190.881030626612
 10
88.47951794505026
 20
-190.7670695112689
 10
88.48270539283408
 20
-190.6509779729882
 10
88.52033644667243
 20
-190.5462456151159
 10
88.61095463934747
 20
-190.4833910027345
 10
88.7414347603676
 20
-190.4601883404644
 10
88.91573587618328
 20
-190.456185443548
 10
89.11991109333918
 20
-190.4588752975438
 10
89.35439286019015
 20
-190.4887204231508
 10
89.56037037091778
 20
-190.4735470967416
 10
89.84188812476106
 20
-190.6430180598041
 10
89.84992532453478
 20
-190.5104622272044
 10
89.85956569613205
 20
-190.4445539521429
 10
89.87052359872709
 20
-190.3454310942622
 10
89.88431985202091
 20
-190.2324339310319
 10
89.89751647409372
 20
-190.1192364940584
 10
89.90990073350804
 20
-190.0205900320176
 10
89.91654245112285
 20
-189.9536802219525
 10
89.94339133392927
 20
-189.7898288448887
 10
89.5069189368406
 20
-189.8807597052518
 10
89.22920257186217
 20
-189.7965924354183
 10
88.89609193601183
 20
-189.7966139642949
 10
88.61825290364709
 20
-189.8023552356686
 10
88.37526930946977
 20
-189.8321223986261
 10
88.17574356343702
 20
-189.8840272038053
 10
88.0146902856851
 20
-189.9613632166509
 10
87.89051542320328
 20
-190.0668436731181
 10
87.80247882150226
 20
-190.2004683490591
 10
87.74691720544911
 20
-190.3601044781265
 10
87.71761215203968
 20
-190.5457338924852
 10
87.7112172805119
 20
-190.7533498636169
 10
87.71541756126501
 20
-190.9619033608901
 10
87.73222211922386
 20
-191.1524373602751
 10
87.76826763825314
 20
-191.3120579690244
 10
87.83034270177399
 20
-191.4455381441151
 10
87.92477004821993
 20
-191.5544310632959
 10
88.05333342539106
 20
-191.6411851746504
 10
88.21803993184845
 20
-191.7122749984626
 10
88.4236050600058
 20
-191.7747273203108
 10
88.63750597433511
 20
-191.82340390099
 10
88.82988489685178
 20
-191.8661188614751
 10
88.97289354559051
 20
-191.9040590045022
 10
89.07839754540625
 20
-191.9418834174559
 10
89.15379858970962
 20
-191.9852482278239
 10
89.20209432474945
 20
-192.0419812357983
 10
89.22481172026818
 20
-192.1126396602364
 10
89.23186428912078
 20
-192.1972932313377
 10
89.23276398965697
 20
-192.3013219288345
 10
89.22968589118355
 20
-192.410823262951
 10
89.20573312746771
 20
-192.5136230252934
 10
89.14643811363425
 20
-192.5907717779497
 10
89.04962748053106
 20
-192.6343092506188
 10
88.91854681031904
 20
-192.6537605894773
 10
88.705778139058
 20
-192.6620459270283
 10
88.41277617912957
 20
-192.6256105802085
 10
88.12947157975512
 20
-192.6438917623739
 10
87.79617676831387
 20
-192.387669673759
 10
87.7717410562324
 20
-192.533485282418
 10
87.75726573596023
 20
-192.5944036176997
 10
87.73825988968261
 20
-192.685539790343
 10
87.71554490232612
 20
-192.7896012935714
 10
87.693398455097
 20
-192.8937970129348
 10
87.67304020911214
 20
-192.9846139225166
 10
87.66140806153915
 20
-193.0462034499135
 10
87.6286973019034
 20
-193.1647684718119
 10
87.9416219572202
 20
-193.1618293996528
 10
88.15388904831427
 20
-193.2577963922108
 10
88.4583483780626
 20
-193.2938456011697
 10
88.75576146490818
 20
-193.3110968098651
 10
89.04794158526343
 20
-193.2996331664402
 10
89.31010137762604
 20
-193.2654490565149
 10
89.52395984384346
 20
-193.205287469779
 10
89.69385178792933
 20
-193.1182031477868
 10
89.82241514159058
 20
-193.0025074175832
 10
89.91166248663905
 20
-192.8598170690695
 10
89.96664473357627
 20
-192.6932524637488
 10
89.9954250048217
 20
-192.5036025310355
 10
89.99795919302348
 20
-192.3695220878033
 10
89.99929906750913
 20
-192.2986311552422
 97
        1
330
12D
 75
     0
 76
     1
 98
        1
 10
0.0
 20
0.0
  0
HATCH
  5
1BF
330
34
100
AcDbEntity
  8
1
  6
Continuous
 62
     2
100
AcDbHatch
 10
0.0
 20
0.0
 30
0.0
210
0.0
220
0.0
230
1.0
  2
SOLID
 70
     1
 71
     1
 91
        2
 92
        1
 93
        1
 72
     4
 94
        3
 73
     0
 74
     0
 95
       36
 96
       32
 40
0.0
 40
0.0
 40
0.0
 40
0.0
 40
0.2360423575133836
 40
0.6744067357525125
 40
0.9104490932658962
 40
1.280549595046205
 40
1.967879098352505
 40
2.337979600132813
 40
2.833164458054385
 40
3.378972243102492
 40
3.588679684157408
 40
3.798387125212297
 40
4.565745079498983
 40
5.477334255196279
 40
5.844619163523273
 40
6.52671970755905
 40
6.894004615886029
 40
7.426222369203241
 40
8.59710142650108
 40
9.767980483798919
 40
10.30019823711613
 40
10.68378309174572
 40
11.06736794637531
 40
11.34183936547721
 40
11.85157200095211
 40
12.12604342005401
 40
12.35106005474703
 40
12.57607668944005
 40
12.91272952801077
 40
13.53794194249921
 40
13.87459478106993
 40
13.87459478106993
 40
13.87459478106993
 40
13.87459478106993
 10
99.9622856338101
 20
-193.2550281915646
 10
100.0426940692973
 20
-193.2559147182806
 10
100.2724324564036
 20
-193.258447651755
 10
100.5254610660978
 20
-193.2325574531707
 10
101.0173728470713
 20
-193.3063176310039
 10
100.4796300516121
 20
-192.8091358344712
 10
100.4120029885345
 20
-192.4990068685374
 10
99.87188035027361
 20
-192.0268744917323
 10
100.5738660067172
 20
-191.8123706328877
 10
100.5434405472706
 20
-191.3426383041689
 10
100.5445190630923
 20
-191.0252598722982
 10
100.5546518601018
 20
-190.6336577323651
 10
100.3780315604944
 20
-189.9166289135249
 10
99.58447031297604
 20
-189.8457420280994
 10
98.93403909250182
 20
-189.8440470885038
 10
98.50941094345117
 20
-189.8925838920209
 10
97.84063483077793
 20
-189.7522295172897
 10
98.10833353116584
 20
-190.7001035250618
 10
97.91706241582165
 20
-191.5552743527806
 10
98.09946638487267
 20
-192.3940342278742
 10
97.85131550376742
 20
-193.3721182604302
 10
98.36703874654832
 20
-193.1965880039521
 10
98.83329420125328
 20
-193.3732695801864
 10
98.71996028264911
 20
-192.8571334696259
 10
98.81072029465008
 20
-192.6034950292739
 10
98.68238139847031
 20
-192.1292742751579
 10
98.99499878652655
 20
-192.2226884664792
 10
99.26710436788768
 20
-192.1399739371394
 10
99.43924248306399
 20
-192.602932317474
 10
99.71496557384964
 20
-192.8939664881964
 10
99.89816561826481
 20
-193.1614196018025
 10
99.9622856338101
 20
-193.2550281915646
 97
        1
330
12F
 92
       16
 93
        1
 72
     4
 94
        3
 73
     0
 74
     0
 95
       23
 96
       19
 40
0.0
 40
0.0
 40
0.0
 40
0.0
 40
0.2941947040900034
 40
0.6338731501450892
 40
0.7916639994090358
 40
1.084704148042104
 40
1.242494997306065
 40
1.399124123048776
 40
1.743708199682768
 40
2.088292276316761
 40
2.244921402059472
 40
2.402712251323433
 40
2.695752399956487
 40
2.853543249220448
 40
3.185715271569981
 40
3.47427139553501
 40
3.609774038673789
 40
3.745276681812596
 40
3.745276681812596
 40
3.745276681812596
 40
3.745276681812596
 10
99.7781681517663
 20
-191.1580962872522
 10
99.76762268174005
 20
-191.2674978034401
 10
99.74490136754793
 20
-191.5032147715997
 10
99.42527526679284
 20
-191.5330442570878
 10
99.16450940490078
 20
-191.5340076339883
 10
98.98642229229009
 20
-191.5082813736395
 10
98.71712877047734
 20
-191.5746967102541
 10
98.78897333032708
 20
-191.285711446708
 10
98.74067190216627
 20
-191.0302244440213
 10
98.7889775617995
 20
-190.7747543214258
 10
98.71712191218452
 20
-190.485743949239
 10
98.98645845420441
 20
-190.552253400322
 10
99.16429570733399
 20
-190.5259816499076
 10
99.42337068035907
 20
-190.5286499994129
 10
99.73152537316938
 20
-190.5459944284133
 10
99.78318617282912
 20
-190.8401615649442
 10
99.7773151153003
 20
-191.0218986397499
 10
99.77788380627763
 20
-191.1126970714181
 10
99.7781681517663
 20
-191.1580962872522
 97
        1
330
12E
 75
     0
 76
     1
 98
        1
 10
0.0
 20
0.0
  0
HATCH
  5
1C0
330
34
100
AcDbEntity
  8
1
  6
Continuous
 62
     2
100
AcDbHatch
 10
0.0
 20
0.0
 30
0.0
210
0.0
220
0.0
230
1.0
  2
SOLID
 70
     1
 71
     1
 91
        3
 92
        1
 93
        1
 72
     4
 94
        3
 73
     0
 74
     0
 95
       32
 96
       28
 40
0.0
 40
0.0
 40
0.0
 40
0.0
 40
0.3082471590678051
 40
0.6106913951277375
 40
0.7285233210320212
 40
0.8463552469363333
 40
1.095069087588637
 40
1.304598789875002
 40
1.498512538050571
 40
1.684645779952395
 40
1.792990892189143
 40
1.901336004425891
 40
2.187078671019227
 40
2.485446103334257
 40
2.591259829336255
 40
2.824050026540649
 40
3.056840223745044
 40
3.162653949747042
 40
3.350274297065257
 40
3.797676663747271
 40
4.331673036883788
 40
4.779075403565744
 40
4.96669575088396
 40
5.077163180930088
 40
5.320191527031571
 40
5.563219873133053
 40
5.673687303179181
 40
5.673687303179181
 40
5.673687303179181
 40
5.673687303179181
 10
74.11216381972918
 20
-196.3053441528782
 10
74.22210815077194
 20
-196.2919947240318
 10
74.43992705010564
 20
-196.2655471767094
 10
74.5347167334935
 20
-195.9965405746274
 10
74.52530452118914
 20
-195.8189413391474
 10
74.52757626903455
 20
-195.6601636908951
 10
74.52493885765548
 20
-195.443578014535
 10
74.15142091091944
 20
-195.3742954771145
 10
74.47144947989173
 20
-195.2723244907042
 10
74.46990528670744
 20
-195.0973744493827
 10
74.46887766394521
 20
-194.9644524179156
 10
74.47551211894108
 20
-194.7989811876041
 10
74.40472218650038
 20
-194.5415546433043
 10
74.14394683859518
 20
-194.497683327395
 10
73.93561724493462
 20
-194.5030551674759
 10
73.73871089127397
 20
-194.4960895056339
 10
73.56667055268463
 20
-194.5147141792282
 10
73.35084343607502
 20
-194.4741597955287
 10
73.45037974267763
 20
-194.8216461636005
 10
73.39014600942552
 20
-195.1406560607438
 10
73.39053346822666
 20
-195.6657530333277
 10
73.44965337642395
 20
-195.9857181220696
 10
73.35108477263424
 20
-196.3337968465447
 10
73.57412238894612
 20
-196.2910066909483
 10
73.75357998165484
 20
-196.3104470715834
 10
73.95801533291299
 20
-196.3048367603933
 10
74.07546179905864
 20
-196.3052233451437
 10
74.11216381972918
 20
-196.3053441528782
 97
        1
330
130
 92
       16
 93
        1
 72
     4
 94
        3
 73
     0
 74
     0
 95
       23
 96
       19
 40
0.0
 40
0.0
 40
0.0
 40
0.0
 40
0.178722020060614
 40
0.3779063679094018
 40
0.5204649326526133
 40
0.7852165528900182
 40
0.9277751176332297
 40
1.039088676249191
 40
1.283978505204216
 40
1.528868334159297
 40
1.64018189277523
 40
1.770801639048072
 40
2.013381167840505
 40
2.144000914113361
 40
2.381868872480068
 40
2.579207094833134
 40
2.694311052833069
 40
2.809415010833032
 40
2.809415010833032
 40
2.809415010833032
 40
2.809415010833032
 10
74.36682165528327
 20
-195.9369056257383
 10
74.35514957033972
 20
-196.0012301173081
 10
74.33046903446927
 20
-196.1372437711854
 10
74.13047550373285
 20
-196.1685243724466
 10
73.92968488632401
 20
-196.1659998859476
 10
73.77182213046959
 20
-196.1412129439421
 10
73.53505025149357
 20
-196.2045153971834
 10
73.58296609434888
 20
-195.9921114198241
 10
73.55240447770574
 20
-195.8079598430771
 10
73.58378853932356
 20
-195.6252995258602
 10
73.53477915187737
 20
-195.4156741086544
 10
73.75373161526558
 20
-195.4726215202992
 10
73.89882226659682
 20
-195.4502644644542
 10
74.10253764137276
 20
-195.4493617585204
 10
74.31632576752352
 20
-195.4795663683558
 10
74.37358550411443
 20
-195.6814673995756
 10
74.36551859079177
 20
-195.8213814737418
 10
74.36638730045277
 20
-195.8983975750729
 10
74.36682165528327
 20
-195.9369056257383
 97
        1
330
132
 92
       16
 93
        1
 72
     4
 94
        3
 73
     0
 74
     0
 95
       23
 96
       19
 40
0.0
 40
0.0
 40
0.0
 40
0.0
 40
0.1887351725511638
 40
0.413365578100321
 40
0.534152425394505
 40
0.7584708560837282
 40
0.8792577033779264
 40
0.9837895134971814
 40
1.213759495759514
 40
1.443729478021875
 40
1.54826128814113
 40
1.683098148903237
 40
1.933509461747117
 40
2.068346322509224
 40
2.245657684461413
 40
2.398588164696737
 40
2.513712480696502
 40
2.628836796696238
 40
2.628836796696238
 40
2.628836796696238
 40
2.628836796696238
 10
74.30990077444585
 20
-195.0647295081226
 10
74.29732195302562
 20
-195.1321533443587
 10
74.26977196476473
 20
-195.2798242456894
 10
74.06305945174903
 20
-195.3143902642707
 10
73.87394263287679
 20
-195.3125418689526
 10
73.73934858419167
 20
-195.29235438269
 10
73.53658411894418
 20
-195.3447690521871
 10
73.58277997382343
 20
-195.1483609323569
 10
73.55314692920399
 20
-194.9770349062856
 10
73.58181480094507
 20
-194.8039729514643
 10
73.5368927057049
 20
-194.6042592745706
 10
73.76071144972633
 20
-194.6643456898475
 10
73.90981288375663
 20
-194.6401247789004
 10
74.09640688323564
 20
-194.6396301818937
 10
74.27294126436217
 20
-194.6592791744483
 10
74.3166139796183
 20
-194.8244479389068
 10
74.30842447640245
 20
-194.9490402185992
 10
74.30940867509806
 20
-195.0261664116148
 10
74.30990077444585
 20
-195.0647295081226
 97
        1
330
131
 75
     0
 76
     1
 98
        1
 10
0.0
 20
0.0
  0
HATCH
  5
1C1
330
34
100
AcDbEntity
  8
1
  6
Continuous
 62
     2
100
AcDbHatch
 10
0.0
 20
0.0
 30
0.0
210
0.0
220
0.0
230
1.0
  2
SOLID
 70
     1
 71
     1
 91
        2
 92
        1
 93
        1
 72
     4
 94
        3
 73
     0
 74
     0
 95
       22
 96
       18
 40
0.0
 40
0.0
 40
0.0
 40
0.0
 40
0.2818751695529897
 40
0.9020005425695672
 40
1.522125915586116
 40
1.804001085139106
 40
2.101970503091223
 40
2.399939921043341
 40
2.87139254739472
 40
3.270572232803801
 40
3.461582764086614
 40
3.816316607897591
 40
4.007327139180404
 40
4.406492228614266
 40
4.8779497786235
 40
5.175919196575617
 40
5.473888614527735
 40
5.473888614527735
 40
5.473888614527735
 40
5.473888614527735
 10
78.16704377168935
 20
-194.5013023517413
 10
78.16746227547233
 20
-194.5948414983291
 10
78.1688014875779
 20
-194.8941667674102
 10
78.14936617189582
 20
-195.4210117297466
 10
78.21671180065466
 20
-195.8609224090347
 10
78.0878851121523
 20
-196.3899667162055
 10
78.48968175191338
 20
-196.280064785646
 10
78.8015162216649
 20
-196.327248550128
 10
79.26595241204889
 20
-196.234327551642
 10
79.33264577373299
 20
-195.836773985213
 10
79.32441240839383
 20
-195.5279347091162
 10
79.32428326061533
 20
-195.2785786743505
 10
79.33294969999223
 20
-194.9701228474968
 10
79.26316289133509
 20
-194.5695160366162
 10
78.81175952920046
 20
-194.4896117272672
 10
78.46683446596933
 20
-194.5036544049533
 10
78.26697400311602
 20
-194.5020863694786
 10
78.16704377168935
 20
-194.5013023517413
 97
        1
330
134
 92
       16
 93
        1
 72
     4
 94
        3
 73
     0
 74
     0
 95
       24
 96
       20
 40
0.0
 40
0.0
 40
0.0
 40
0.0
 40
0.1137723977167298
 40
0.32506399347632
 40
0.4388363911930355
 40
0.7669367403624034
 40
1.067197304156703
 40
1.262419673045879
 40
1.624975500982937
 40
1.820197869872114
 40
2.120443815392929
 40
2.448548561667308
 40
2.562320959384009
 40
2.773612555143628
 40
2.887384952860343
 40
3.124402609585757
 40
3.645841454381695
 40
4.167280299177633
 40
4.404297955903046
 40
4.404297955903046
 40
4.404297955903046
 40
4.404297955903046
 10
78.32687418818387
 20
-194.6448667507884
 10
78.3647551525715
 20
-194.6448301335139
 10
78.47298647939331
 20
-194.6447255127296
 10
78.62052596364461
 20
-194.6457948866034
 10
78.83358771116652
 20
-194.6418423109606
 10
79.12726381428533
 20
-194.6811147237433
 10
79.17257924176157
 20
-194.9975615989034
 10
79.16433960219551
 20
-195.2749150727569
 10
79.16430741120868
 20
-195.5317534197026
 10
79.17264284473025
 20
-195.8090221123518
 10
79.12686487094643
 20
-196.1259035438813
 10
78.8347321956017
 20
-196.1636630828999
 10
78.61876742378635
 20
-196.1626098134037
 10
78.48388413496968
 20
-196.1510215576021
 10
78.25683676704186
 20
-196.1907474866048
 10
78.38325810617987
 20
-195.7735614037351
 10
78.30680630230462
 20
-195.4233945950797
 10
78.3288695745639
 20
-194.974695740099
 10
78.3273492801791
 20
-194.723397462529
 10
78.32687418818387
 20
-194.6448667507884
 97
        1
330
133
 75
     0
 76
     1
 98
        1
 10
0.0
 20
0.0
  0
HATCH
  5
1C2
330
34
100
AcDbEntity
  8
1
  6
Continuous
 62
     2
100
AcDbHatch
 10
0.0
 20
0.0
 30
0.0
210
0.0
220
0.0
230
1.0
  2
SOLID
 70
     1
 71
     1
 91
        1
 92
        1
 93
        1
 72
     4
 94
        3
 73
     0
 74
     0
 95
       35
 96
       31
 40
0.0
 40
0.0
 40
0.0
 40
0.0
 40
0.3140822601743259
 40
0.6734494531747418
 40
0.8721103095636372
 40
1.07623439250029
 40
1.145933087417569
 40
1.215631782334877
 40
1.436444562818454
 40
1.651341053944819
 40
2.133622726378873
 40
2.544074393160303
 40
2.671044502476195
 40
2.950378742971156
 40
3.229712983466117
 40
3.356683092782009
 40
3.76712035078962
 40
4.249406310385328
 40
4.464303041799805
 40
4.685120738046597
 40
4.754819432965228
 40
4.82451812788386
 40
5.028639645437362
 40
5.22729953069722
 40
5.586666723698055
 40
5.900748983871468
 40
6.026866603231186
 40
6.304325365822566
 40
6.581784128413945
 40
6.707901747773663
 40
6.707901747773663
 40
6.707901747773663
 40
6.707901747773663
 10
82.57955216843402
 20
-194.9997061544091
 10
82.59613812008085
 20
-194.8832155911896
 10
82.63170141506203
 20
-194.6334386504076
 10
82.99632774249106
 20
-194.6246408686014
 10
83.21087478981808
 20
-194.5995979203584
 10
83.44516086593168
 20
-194.7164842799596
 10
83.43719701432295
 20
-194.5830047889557
 10
83.48151296264064
 20
-194.45244873758
 10
83.20599498555276
 20
-194.5002289092622
 10
82.95392162676428
 20
-194.4526615481036
 10
82.50003206400368
 20
-194.5248669329815
 10
82.41448921585237
 20
-194.9049442849156
 10
82.42156571599371
 20
-195.1739724843013
 10
82.4184539325958
 20
-195.4033233039864
 10
82.42156598943387
 20
-195.6326738699861
 10
82.41448851851038
 20
-195.9016979002347
 10
82.50004164099649
 20
-196.2817633206617
 10
82.95391808154207
 20
-196.3539824396855
 10
83.20599913274286
 20
-196.3064243663575
 10
83.4815105432131
 20
-196.3541537057969
 10
83.43719940898336
 20
-196.2236029544996
 10
83.44514476403684
 20
-196.0901119445505
 10
83.21107247987247
 20
-196.2071282252501
 10
82.99539073261549
 20
-196.1812479062814
 10
82.63806240016798
 20
-196.1776535479778
 10
82.57442767392871
 20
-195.8658688276139
 10
82.58162936078591
 20
-195.6317717249002
 10
82.5788128643816
 20
-195.4027566812139
 10
82.57962567878015
 20
-195.176323108246
 10
82.5795696708974
 20
-195.0417578100846
 10
82.57955216843402
 20
-194.9997061544091
 97
        1
330
135
 75
     0
 76
     1
 98
        1
 10
0.0
 20
0.0
  0
ENDBLK
  5
36
330
34
100
AcDbEntity
  8
0
100
AcDbBlockEnd
  0
BLOCK
  5
38
330
37
100
AcDbEntity
  8
0
100
AcDbBlockBegin
  2
Fl_gel
 70
     0
 71
     0
 10
91.09441405009268
 20
-23.33719340352349
 30
0.0
  3
Fl_gel
  1

  0
LINE
  5
1C3
330
37
100
AcDbEntity
  8
1
  6
Continuous
 62
     7
100
AcDbLine
 10
54.5745104215931
 20
-110.614648528989
 30
0.0
 11
54.5745104215931
 21
-56.6146485289887
 31
0.0
  0
LINE
  5
1C4
330
37
100
AcDbEntity
  8
1
  6
Continuous
 62
     7
100
AcDbLine
 10
54.5745104215931
 20
-56.6146485289887
 30
0.0
 11
70.57451042159312
 21
-56.6146485289887
 31
0.0
  0
LINE
  5
1C5
330
37
100
AcDbEntity
  8
1
  6
Continuous
 62
     7
100
AcDbLine
 10
70.57451042159312
 20
-56.6146485289887
 30
0.0
 11
70.5745104215931
 21
-47.61464852898895
 31
0.0
  0
LINE
  5
1C6
330
37
100
AcDbEntity
  8
1
  6
DOT_CENTER
 62
     2
100
AcDbLine
 10
54.5745104215931
 20
-47.61464852898895
 30
0.0
 11
70.5745104215931
 21
-47.61464852898895
 31
0.0
  0
LINE
  5
1C7
330
37
100
AcDbEntity
  8
1
  6
DOT_CENTER
 62
     2
100
AcDbLine
 10
54.5745104215931
 20
-45.61464852898896
 30
0.0
 11
70.5745104215931
 21
-45.61464852898895
 31
0.0
  0
LINE
  5
1C8
330
37
100
AcDbEntity
  8
1
  6
Continuous
 62
     7
100
AcDbLine
 10
70.5745104215931
 20
-45.61464852898895
 30
0.0
 11
70.5745104215931
 21
4.38535147101105
 31
0.0
  0
LINE
  5
1C9
330
37
100
AcDbEntity
  8
1
  6
DOT_CENTER
 62
     2
100
AcDbLine
 10
98.0745104215931
 20
4.38535147101105
 30
0.0
 11
70.5745104215931
 21
4.38535147101105
 31
0.0
  0
LINE
  5
1CA
330
37
100
AcDbEntity
  8
1
  6
DOT_CENTER
 62
     2
100
AcDbLine
 10
98.0745104215931
 20
6.38535147101105
 30
0.0
 11
70.5745104215931
 21
6.38535147101105
 31
0.0
  0
LINE
  5
1CB
330
37
100
AcDbEntity
  8
1
  6
Continuous
 62
     7
100
AcDbLine
 10
70.5745104215931
 20
6.38535147101105
 30
0.0
 11
70.5745104215931
 21
15.38535147101111
 31
0.0
  0
LINE
  5
1CC
330
37
100
AcDbEntity
  8
1
  6
Continuous
 62
     7
100
AcDbLine
 10
54.5745104215931
 20
6.38535147101105
 30
0.0
 11
54.5745104215931
 21
15.38535147101111
 31
0.0
  0
LINE
  5
1CD
330
37
100
AcDbEntity
  8
1
  6
Continuous
 62
     7
100
AcDbLine
 10
70.5745104215931
 20
15.38535147101111
 30
0.0
 11
54.5745104215931
 21
15.38535147101111
 31
0.0
  0
LINE
  5
1CE
330
37
100
AcDbEntity
  8
1
  6
DOT_CENTER
 62
     2
100
AcDbLine
 10
-4.16876032016953
 20
-98.68918859156351
 30
0.0
 11
-4.16876032016953
 21
-92.68918859156351
 31
0.0
  0
LINE
  5
1CF
330
37
100
AcDbEntity
  8
1
  6
DOT_CENTER
 62
     2
100
AcDbLine
 10
-2.16876032016952
 20
-100.6891885915635
 30
0.0
 11
-4.16876032016953
 21
-98.68918859156351
 31
0.0
  0
LINE
  5
1D0
330
37
100
AcDbEntity
  8
1
  6
PHANTOM
 62
     2
100
AcDbLine
 10
43.83123967983067
 20
-100.6891885915635
 30
0.0
 11
43.83123967983067
 21
-92.68918859156351
 31
0.0
  0
LINE
  5
1D1
330
37
100
AcDbEntity
  8
1
  6
DOT_CENTER
 62
     2
100
AcDbLine
 10
43.83123967983067
 20
-100.6891885915635
 30
0.0
 11
-2.16876032016952
 21
-100.6891885915635
 31
0.0
  0
LINE
  5
1D2
102
{ACAD_REACTORS
330
25F
330
25F
102
}
330
37
100
AcDbEntity
  8
1
  6
Continuous
 62
     7
100
AcDbLine
 10
11.83123967983048
 20
-87.6891885915634
 30
0.0
 11
39.33123967983048
 21
-87.68918859156354
 31
0.0
  0
LINE
  5
1D3
330
37
100
AcDbEntity
  8
1
  6
Continuous
 62
     7
100
AcDbLine
 10
11.83123967983048
 20
-92.68918859156351
 30
0.0
 11
-4.16876032016953
 21
-92.68918859156351
 31
0.0
  0
LINE
  5
1D4
102
{ACAD_REACTORS
330
25F
330
25F
102
}
330
37
100
AcDbEntity
  8
1
  6
Continuous
 62
     7
100
AcDbLine
 10
11.83123967983048
 20
-87.6891885915634
 30
0.0
 11
11.83123967983048
 21
-92.68918859156351
 31
0.0
  0
LINE
  5
1D5
330
37
100
AcDbEntity
  8
1
  6
DOT_CENTER
 62
     2
100
AcDbLine
 10
169.287843915321
 20
79.3853514710111
 30
0.0
 11
177.287843915321
 21
79.38535147101112
 31
0.0
  0
LINE
  5
1D6
330
37
100
AcDbEntity
  8
1
  6
DOT_CENTER
 62
     2
100
AcDbLine
 10
179.7905864202762
 20
6.38535147101105
 30
0.0
 11
177.287843915321
 21
6.38535147101106
 31
0.0
  0
LINE
  5
1D7
330
37
100
AcDbEntity
  8
1
  6
DOT_CENTER
 62
     2
100
AcDbLine
 10
177.287843915321
 20
79.38535147101112
 30
0.0
 11
177.287843915321
 21
6.38535147101106
 31
0.0
  0
LINE
  5
1D8
330
37
100
AcDbEntity
  8
1
  6
DOT_CENTER
 62
     2
100
AcDbLine
 10
169.287843915321
 20
-45.61464852898895
 30
0.0
 11
177.287843915321
 21
-45.61464852898895
 31
0.0
  0
LINE
  5
1D9
330
37
100
AcDbEntity
  8
1
  6
DOT_CENTER
 62
     2
100
AcDbLine
 10
179.7905864202761
 20
4.38535147101105
 30
0.0
 11
177.287843915321
 21
4.38535147101105
 31
0.0
  0
LINE
  5
1DA
330
37
100
AcDbEntity
  8
1
  6
DOT_CENTER
 62
     2
100
AcDbLine
 10
177.287843915321
 20
4.38535147101105
 30
0.0
 11
177.287843915321
 21
-45.61464852898895
 31
0.0
  0
LINE
  5
1DB
330
37
100
AcDbEntity
  8
1
  6
DOT_CENTER
 62
     2
100
AcDbLine
 10
169.287843915321
 20
-120.614648528989
 30
0.0
 11
177.287843915321
 21
-120.614648528989
 31
0.0
  0
LINE
  5
1DC
330
37
100
AcDbEntity
  8
1
  6
DOT_CENTER
 62
     2
100
AcDbLine
 10
169.287843915321
 20
-47.61464852898895
 30
0.0
 11
177.287843915321
 21
-47.61464852898894
 31
0.0
  0
LINE
  5
1DD
330
37
100
AcDbEntity
  8
1
  6
DOT_CENTER
 62
     2
100
AcDbLine
 10
177.287843915321
 20
-47.61464852898894
 30
0.0
 11
177.287843915321
 21
-120.614648528989
 31
0.0
  0
LINE
  5
1DE
330
37
100
AcDbEntity
  8
1
  6
DOT_CENTER
 62
     2
100
AcDbLine
 10
127.1101707407831
 20
-47.61464852898895
 30
0.0
 11
129.287843915321
 21
-47.61464852898897
 31
0.0
  0
LINE
  5
1DF
330
37
100
AcDbEntity
  8
1
  6
DOT_CENTER
 62
     2
100
AcDbLine
 10
127.1101707407831
 20
-45.61464852898895
 30
0.0
 11
129.287843915321
 21
-45.61464852898895
 31
0.0
  0
LINE
  5
1E0
330
37
100
AcDbEntity
  8
1
  6
DOT_CENTER
 62
     2
100
AcDbLine
 10
129.287843915321
 20
-47.61464852898897
 30
0.0
 11
132.287843915321
 21
-47.61464852898895
 31
0.0
  0
LINE
  5
1E1
330
37
100
AcDbEntity
  8
1
  6
DOT_CENTER
 62
     2
100
AcDbLine
 10
129.287843915321
 20
-45.61464852898895
 30
0.0
 11
132.287843915321
 21
-45.61464852898895
 31
0.0
  0
LINE
  5
1E2
330
37
100
AcDbEntity
  8
1
  6
DOT_CENTER
 62
     2
100
AcDbLine
 10
132.287843915321
 20
-47.61464852898895
 30
0.0
 11
164.287843915321
 21
-47.61464852898895
 31
0.0
  0
LINE
  5
1E3
330
37
100
AcDbEntity
  8
1
  6
DOT_CENTER
 62
     2
100
AcDbLine
 10
132.287843915321
 20
-45.61464852898895
 30
0.0
 11
164.287843915321
 21
-45.61464852898896
 31
0.0
  0
LINE
  5
1E4
330
37
100
AcDbEntity
  8
1
  6
DOT_CENTER
 62
     2
100
AcDbLine
 10
164.287843915321
 20
-47.61464852898895
 30
0.0
 11
169.287843915321
 21
-47.61464852898895
 31
0.0
  0
LINE
  5
1E5
330
37
100
AcDbEntity
  8
1
  6
DOT_CENTER
 62
     2
100
AcDbLine
 10
164.287843915321
 20
-45.61464852898896
 30
0.0
 11
169.287843915321
 21
-45.61464852898895
 31
0.0
  0
LINE
  5
1E6
330
37
100
AcDbEntity
  8
1
  6
Continuous
 62
     7
100
AcDbLine
 10
129.287843915321
 20
4.38535147101106
 30
0.0
 11
129.287843915321
 21
-45.61464852898895
 31
0.0
  0
LINE
  5
1E7
330
37
100
AcDbEntity
  8
1
  6
Continuous
 62
     7
100
AcDbLine
 10
132.287843915321
 20
-94.61464852898895
 30
0.0
 11
132.287843915321
 21
-47.61464852898895
 31
0.0
  0
LINE
  5
1E8
330
37
100
AcDbEntity
  8
1
  6
Continuous
 62
     7
100
AcDbLine
 10
164.287843915321
 20
-56.6146485289887
 30
0.0
 11
164.287843915321
 21
-47.61464852898895
 31
0.0
  0
LINE
  5
1E9
330
37
100
AcDbEntity
  8
1
  6
Continuous
 62
     7
100
AcDbLine
 10
169.287843915321
 20
4.38535147101106
 30
0.0
 11
169.287843915321
 21
-45.61464852898895
 31
0.0
  0
LINE
  5
1EA
330
37
100
AcDbEntity
  8
1
  6
DOT_CENTER
 62
     2
100
AcDbLine
 10
166.8734728892869
 20
-94.61464852898895
 30
0.0
 11
130.3525831969273
 21
-94.61464852898895
 31
0.0
  0
LINE
  5
1EB
330
37
100
AcDbEntity
  8
1
  6
DOT_CENTER
 62
     2
100
AcDbLine
 10
130.3525831969273
 20
53.38535147101105
 30
0.0
 11
166.8734728892869
 21
53.38535147101105
 31
0.0
  0
LINE
  5
1EC
330
37
100
AcDbEntity
  8
1
  6
DOT_CENTER
 62
     2
100
AcDbLine
 10
138.787843915321
 20
-97.86464852898901
 30
0.0
 11
138.787843915321
 21
-93.36464852898895
 31
0.0
  0
LINE
  5
1ED
330
37
100
AcDbEntity
  8
1
  6
Continuous
 62
     7
100
AcDbLine
 10
152.287843915321
 20
-89.11464852898895
 30
0.0
 11
144.287843915321
 21
-89.11464852898895
 31
0.0
  0
LINE
  5
1EE
330
37
100
AcDbEntity
  8
1
  6
Continuous
 62
     7
100
AcDbLine
 10
144.287843915321
 20
47.88535147101105
 30
0.0
 11
152.287843915321
 21
47.88535147101105
 31
0.0
  0
LINE
  5
1EF
330
37
100
AcDbEntity
  8
1
  6
Continuous
 62
     7
100
AcDbLine
 10
164.287843915321
 20
15.38535147101111
 30
0.0
 11
164.287843915321
 21
35.88535147101105
 31
0.0
  0
LINE
  5
1F0
330
37
100
AcDbEntity
  8
1
  6
Continuous
 62
     7
100
AcDbLine
 10
132.287843915321
 20
6.38535147101105
 30
0.0
 11
132.287843915321
 21
35.88535147101105
 31
0.0
  0
LINE
  5
1F1
330
37
100
AcDbEntity
  8
1
  6
DOT_CENTER
 62
     2
100
AcDbLine
 10
148.287843915321
 20
-113.3289416243351
 30
0.0
 11
148.287843915321
 21
73.0770835440912
 31
0.0
  0
LINE
  5
1F2
330
37
100
AcDbEntity
  8
1
  6
DASHED
 62
     2
100
AcDbLine
 10
64.5745104215931
 20
-78.11464852898898
 30
0.0
 11
64.5745104215931
 21
-89.11464852898901
 31
0.0
  0
LINE
  5
1F3
330
37
100
AcDbEntity
  8
1
  6
DASHED
 62
     2
100
AcDbLine
 10
64.5745104215931
 20
35.88535147101106
 30
0.0
 11
64.5745104215931
 21
47.88535147101105
 31
0.0
  0
LINE
  5
1F4
330
37
100
AcDbEntity
  8
1
  6
DOT_CENTER
 62
     2
100
AcDbLine
 10
41.78744366190571
 20
-71.68918859156351
 30
0.0
 11
-5.85026068647105
 21
-71.68918859156351
 31
0.0
  0
LINE
  5
1F5
330
37
100
AcDbEntity
  8
1
  6
Continuous
 62
     7
100
AcDbLine
 10
132.287843915321
 20
35.88535147101105
 30
0.0
 11
132.287843915321
 21
53.38535147101105
 31
0.0
  0
LINE
  5
1F6
330
37
100
AcDbEntity
  8
1
  6
Continuous
 62
     7
100
AcDbLine
 10
164.287843915321
 20
35.88535147101105
 30
0.0
 11
164.287843915321
 21
53.38535147101105
 31
0.0
  0
LINE
  5
1F7
330
37
100
AcDbEntity
  8
1
  6
DOT_CENTER
 62
     2
100
AcDbLine
 10
51.9816942237601
 20
-20.61464852898895
 30
0.0
 11
103.5337723403521
 21
-20.61464852898895
 31
0.0
  0
LINE
  5
1F8
330
37
100
AcDbEntity
  8
1
  6
DOT_CENTER
 62
     2
100
AcDbLine
 10
101.5745104215931
 20
82.428151340832
 30
0.0
 11
101.5745104215931
 21
79.3853514710111
 31
0.0
  0
LINE
  5
1F9
330
37
100
AcDbEntity
  8
1
  6
DOT_CENTER
 62
     2
100
AcDbLine
 10
101.5745104215931
 20
-123.727582711116
 30
0.0
 11
101.5745104215931
 21
-120.614648528989
 31
0.0
  0
LINE
  5
1FA
330
37
100
AcDbEntity
  8
1
  6
DOT_CENTER
 62
     2
100
AcDbLine
 10
101.5745104215931
 20
6.38535147101105
 30
0.0
 11
101.5745104215931
 21
79.3853514710111
 31
0.0
  0
LINE
  5
1FB
330
37
100
AcDbEntity
  8
1
  6
Continuous
 62
     7
100
AcDbLine
 10
54.5745104215931
 20
-120.614648528989
 30
0.0
 11
54.5745104215931
 21
-110.614648528989
 31
0.0
  0
LINE
  5
1FC
330
37
100
AcDbEntity
  8
1
  6
DASHED
 62
     2
100
AcDbLine
 10
54.5745104215931
 20
-110.614648528989
 30
0.0
 11
64.5745104215931
 21
-110.614648528989
 31
0.0
  0
LINE
  5
1FD
330
37
100
AcDbEntity
  8
1
  6
DASHED
 62
     2
100
AcDbLine
 10
64.5745104215931
 20
-110.614648528989
 30
0.0
 11
64.5745104215931
 21
-89.11464852898901
 31
0.0
  0
LINE
  5
1FE
330
37
100
AcDbEntity
  8
1
  6
DASHED
 62
     2
100
AcDbLine
 10
64.5745104215931
 20
-89.11464852898901
 30
0.0
 11
98.0745104215931
 21
-89.11464852898894
 31
0.0
  0
LINE
  5
1FF
330
37
100
AcDbEntity
  8
1
  6
DASHED
 62
     2
100
AcDbLine
 10
98.0745104215931
 20
6.38535147101105
 30
0.0
 11
98.0745104215931
 21
47.88535147101105
 31
0.0
  0
LINE
  5
200
330
37
100
AcDbEntity
  8
1
  6
DASHED
 62
     2
100
AcDbLine
 10
98.0745104215931
 20
47.88535147101105
 30
0.0
 11
64.5745104215931
 21
47.88535147101105
 31
0.0
  0
LINE
  5
201
330
37
100
AcDbEntity
  8
1
  6
DASHED
 62
     2
100
AcDbLine
 10
64.5745104215931
 20
47.88535147101105
 30
0.0
 11
64.5745104215931
 21
69.38535147101105
 31
0.0
  0
LINE
  5
202
330
37
100
AcDbEntity
  8
1
  6
Continuous
 62
     7
100
AcDbLine
 10
54.5745104215931
 20
15.38535147101111
 30
0.0
 11
54.5745104215931
 21
69.38535147101105
 31
0.0
  0
LINE
  5
203
330
37
100
AcDbEntity
  8
1
  6
DASHED
 62
     2
100
AcDbLine
 10
64.5745104215931
 20
69.38535147101105
 30
0.0
 11
54.5745104215931
 21
69.38535147101105
 31
0.0
  0
LINE
  5
204
330
37
100
AcDbEntity
  8
1
  6
Continuous
 62
     7
100
AcDbLine
 10
54.5745104215931
 20
69.38535147101105
 30
0.0
 11
54.5745104215931
 21
79.3853514710111
 31
0.0
  0
LINE
  5
205
330
37
100
AcDbEntity
  8
1
  6
DOT_CENTER
 62
     2
100
AcDbLine
 10
51.8918014790397
 20
-120.614648528989
 30
0.0
 11
54.5745104215931
 21
-120.614648528989
 31
0.0
  0
LINE
  5
206
330
37
100
AcDbEntity
  8
1
  6
DOT_CENTER
 62
     2
100
AcDbLine
 10
54.5745104215931
 20
-120.614648528989
 30
0.0
 11
101.5745104215931
 21
-120.614648528989
 31
0.0
  0
LINE
  5
207
330
37
100
AcDbEntity
  8
1
  6
DOT_CENTER
 62
     2
100
AcDbLine
 10
94.5745104215931
 20
-120.614648528989
 30
0.0
 11
104.7136728336588
 21
-120.614648528989
 31
0.0
  0
LINE
  5
208
330
37
100
AcDbEntity
  8
1
  6
DOT_CENTER
 62
     2
100
AcDbLine
 10
51.8918014790397
 20
79.3853514710111
 30
0.0
 11
54.5745104215931
 21
79.3853514710111
 31
0.0
  0
LINE
  5
209
330
37
100
AcDbEntity
  8
1
  6
DOT_CENTER
 62
     2
100
AcDbLine
 10
54.5745104215931
 20
79.3853514710111
 30
0.0
 11
101.5745104215931
 21
79.3853514710111
 31
0.0
  0
LINE
  5
20A
330
37
100
AcDbEntity
  8
1
  6
DOT_CENTER
 62
     2
100
AcDbLine
 10
94.5745104215931
 20
79.3853514710111
 30
0.0
 11
104.7136728336588
 21
79.3853514710111
 31
0.0
  0
LINE
  5
20B
330
37
100
AcDbEntity
  8
1
  6
Continuous
 62
     7
100
AcDbLine
 10
5.83123967983047
 20
-87.68918859156332
 30
0.0
 11
11.83123967983048
 21
-87.6891885915634
 31
0.0
  0
LINE
  5
20C
102
{ACAD_REACTORS
330
25F
330
25F
102
}
330
37
100
AcDbEntity
  8
1
  6
Continuous
 62
     7
100
AcDbLine
 10
5.83123967983068
 20
-55.68918859156351
 30
0.0
 11
-4.16876032016935
 21
-55.68918859156351
 31
0.0
  0
LINE
  5
20D
330
37
100
AcDbEntity
  8
1
  6
Continuous
 62
     7
100
AcDbLine
 10
5.83123967983068
 20
-55.68918859156351
 30
0.0
 11
5.83123967983047
 21
-87.68918859156332
 31
0.0
  0
LINE
  5
20E
330
37
100
AcDbEntity
  8
1
  6
DOT_CENTER
 62
     2
100
AcDbLine
 10
127.1101707407831
 20
-20.61464852898895
 30
0.0
 11
179.7905864202761
 21
-20.61464852898895
 31
0.0
  0
LINE
  5
20F
330
37
100
AcDbEntity
  8
1
  6
DOT_CENTER
 62
     2
100
AcDbLine
 10
127.1101707407831
 20
-120.614648528989
 30
0.0
 11
129.287843915321
 21
-120.614648528989
 31
0.0
  0
LINE
  5
210
330
37
100
AcDbEntity
  8
1
  6
DOT_CENTER
 62
     2
100
AcDbLine
 10
127.1101707407831
 20
79.3853514710111
 30
0.0
 11
129.287843915321
 21
79.3853514710111
 31
0.0
  0
LINE
  5
211
330
37
100
AcDbEntity
  8
1
  6
Continuous
 62
     7
100
AcDbLine
 10
129.287843915321
 20
-47.61464852898897
 30
0.0
 11
129.287843915321
 21
-120.614648528989
 31
0.0
  0
LINE
  5
212
330
37
100
AcDbEntity
  8
1
  6
DOT_CENTER
 62
     2
100
AcDbLine
 10
129.287843915321
 20
-120.614648528989
 30
0.0
 11
169.287843915321
 21
-120.614648528989
 31
0.0
  0
LINE
  5
213
330
37
100
AcDbEntity
  8
1
  6
DOT_CENTER
 62
     2
100
AcDbLine
 10
129.287843915321
 20
79.3853514710111
 30
0.0
 11
169.287843915321
 21
79.3853514710111
 31
0.0
  0
LINE
  5
214
330
37
100
AcDbEntity
  8
1
  6
Continuous
 62
     7
100
AcDbLine
 10
169.287843915321
 20
-56.6146485289887
 30
0.0
 11
169.287843915321
 21
-120.614648528989
 31
0.0
  0
LINE
  5
215
330
37
100
AcDbEntity
  8
1
  6
DOT_CENTER
 62
     2
100
AcDbLine
 10
177.287843915321
 20
-120.614648528989
 30
0.0
 11
179.7905864202761
 21
-120.614648528989
 31
0.0
  0
LINE
  5
216
330
37
100
AcDbEntity
  8
1
  6
DOT_CENTER
 62
     2
100
AcDbLine
 10
177.287843915321
 20
79.38535147101112
 30
0.0
 11
179.7905864202761
 21
79.38535147101112
 31
0.0
  0
LINE
  5
217
102
{ACAD_REACTORS
330
25F
330
25F
102
}
330
37
100
AcDbEntity
  8
1
  6
Continuous
 62
     7
100
AcDbLine
 10
43.83123967983067
 20
-92.68918859156351
 30
0.0
 11
11.83123967983048
 21
-92.68918859156351
 31
0.0
  0
LINE
  5
218
102
{ACAD_REACTORS
330
25F
330
25F
102
}
330
37
100
AcDbEntity
  8
1
  6
PHANTOM
 62
     2
100
AcDbLine
 10
43.83123967983067
 20
-92.68918859156351
 30
0.0
 11
43.83123967983067
 21
-52.68918859156351
 31
0.0
  0
LINE
  5
219
330
37
100
AcDbEntity
  8
1
  6
Continuous
 62
     7
100
AcDbLine
 10
-4.16876032016953
 20
-92.68918859156351
 30
0.0
 11
-4.16876032016952
 21
-87.68918859156331
 31
0.0
  0
LINE
  5
21A
330
37
100
AcDbEntity
  8
1
  6
Continuous
 62
     7
100
AcDbLine
 10
-4.16876032016952
 20
-87.68918859156331
 30
0.0
 11
5.83123967983047
 21
-87.68918859156332
 31
0.0
  0
LINE
  5
21B
102
{ACAD_REACTORS
330
25F
330
25F
102
}
330
37
100
AcDbEntity
  8
1
  6
Continuous
 62
     7
100
AcDbLine
 10
39.33123967983048
 20
-87.68918859156354
 30
0.0
 11
39.33123967983065
 21
-55.68918859156361
 31
0.0
  0
LINE
  5
21C
102
{ACAD_REACTORS
330
25F
330
25F
102
}
330
37
100
AcDbEntity
  8
1
  6
Continuous
 62
     7
100
AcDbLine
 10
39.33123967983065
 20
-55.68918859156361
 30
0.0
 11
5.83123967983068
 21
-55.68918859156351
 31
0.0
  0
LINE
  5
21D
102
{ACAD_REACTORS
330
25F
330
25F
102
}
330
37
100
AcDbEntity
  8
1
  6
Continuous
 62
     7
100
AcDbLine
 10
-4.16876032016935
 20
-55.68918859156351
 30
0.0
 11
-4.1687603201693
 21
-52.68918859156351
 31
0.0
  0
LINE
  5
21E
102
{ACAD_REACTORS
330
25F
330
25F
102
}
330
37
100
AcDbEntity
  8
1
  6
Continuous
 62
     7
100
AcDbLine
 10
-4.1687603201693
 20
-52.68918859156351
 30
0.0
 11
43.83123967983067
 21
-52.68918859156351
 31
0.0
  0
LINE
  5
21F
330
37
100
AcDbEntity
  8
1
  6
PHANTOM
 62
     2
100
AcDbLine
 10
43.83123967983067
 20
-52.68918859156351
 30
0.0
 11
43.83123967983067
 21
-50.68471859187277
 31
0.0
  0
LINE
  5
220
330
37
100
AcDbEntity
  8
1
  6
PHANTOM
 62
     2
100
AcDbLine
 10
43.83123967983067
 20
-102.464919198667
 30
0.0
 11
43.83123967983067
 21
-100.6891885915635
 31
0.0
  0
LINE
  5
221
330
37
100
AcDbEntity
  8
1
  6
Continuous
 62
     7
100
AcDbLine
 10
-4.16876032016952
 20
-87.68918859156331
 30
0.0
 11
-4.16876032016935
 21
-55.68918859156351
 31
0.0
  0
LINE
  5
222
330
37
100
AcDbEntity
  8
1
  6
DOT_CENTER
 62
     2
100
AcDbLine
 10
177.287843915321
 20
-45.61464852898895
 30
0.0
 11
179.7905864202761
 21
-45.61464852898894
 31
0.0
  0
LINE
  5
223
330
37
100
AcDbEntity
  8
1
  6
DOT_CENTER
 62
     2
100
AcDbLine
 10
177.287843915321
 20
-47.61464852898894
 30
0.0
 11
179.7905864202761
 21
-47.61464852898894
 31
0.0
  0
LINE
  5
224
330
37
100
AcDbEntity
  8
1
  6
DOT_CENTER
 62
     2
100
AcDbLine
 10
101.5745104215931
 20
-45.61464852898896
 30
0.0
 11
103.5337723403521
 21
-45.61464852898895
 31
0.0
  0
LINE
  5
225
330
37
100
AcDbEntity
  8
1
  6
DOT_CENTER
 62
     2
100
AcDbLine
 10
101.5745104215931
 20
-47.61464852898895
 30
0.0
 11
103.5337723403521
 21
-47.61464852898895
 31
0.0
  0
LINE
  5
226
330
37
100
AcDbEntity
  8
1
  6
DOT_CENTER
 62
     2
100
AcDbLine
 10
54.5745104215931
 20
6.38535147101105
 30
0.0
 11
51.9816942237601
 21
6.38535147101105
 31
0.0
  0
LINE
  5
227
330
37
100
AcDbEntity
  8
1
  6
DOT_CENTER
 62
     2
100
AcDbLine
 10
54.5745104215931
 20
4.38535147101105
 30
0.0
 11
51.9816942237601
 21
4.38535147101105
 31
0.0
  0
LINE
  5
228
330
37
100
AcDbEntity
  8
1
  6
DOT_CENTER
 62
     2
100
AcDbLine
 10
129.287843915321
 20
6.38535147101106
 30
0.0
 11
127.1101707407831
 21
6.38535147101105
 31
0.0
  0
LINE
  5
229
330
37
100
AcDbEntity
  8
1
  6
DOT_CENTER
 62
     2
100
AcDbLine
 10
129.287843915321
 20
4.38535147101106
 30
0.0
 11
127.1101707407831
 21
4.38535147101105
 31
0.0
  0
LINE
  5
22A
330
37
100
AcDbEntity
  8
1
  6
Continuous
 62
     7
100
AcDbLine
 10
164.287843915321
 20
-45.61464852898896
 30
0.0
 11
164.287843915321
 21
4.38535147101105
 31
0.0
  0
LINE
  5
22B
330
37
100
AcDbEntity
  8
1
  6
Continuous
 62
     7
100
AcDbLine
 10
169.287843915321
 20
15.38535147101111
 30
0.0
 11
169.287843915321
 21
6.38535147101106
 31
0.0
  0
LINE
  5
22C
330
37
100
AcDbEntity
  8
1
  6
Continuous
 62
     7
100
AcDbLine
 10
132.287843915321
 20
-45.61464852898895
 30
0.0
 11
132.287843915321
 21
4.38535147101105
 31
0.0
  0
LINE
  5
22D
330
37
100
AcDbEntity
  8
1
  6
Continuous
 62
     7
100
AcDbLine
 10
129.287843915321
 20
79.3853514710111
 30
0.0
 11
129.287843915321
 21
6.38535147101106
 31
0.0
  0
LINE
  5
22E
330
37
100
AcDbEntity
  8
1
  6
DASHED
 62
     2
100
AcDbLine
 10
98.0745104215931
 20
-45.61464852898896
 30
0.0
 11
98.0745104215931
 21
4.38535147101105
 31
0.0
  0
LINE
  5
22F
330
37
100
AcDbEntity
  8
1
  6
DOT_CENTER
 62
     2
100
AcDbLine
 10
101.5745104215931
 20
-45.61464852898896
 30
0.0
 11
101.5745104215931
 21
4.38535147101105
 31
0.0
  0
LINE
  5
230
330
37
100
AcDbEntity
  8
1
  6
Continuous
 62
     7
100
AcDbLine
 10
54.5745104215931
 20
-45.61464852898896
 30
0.0
 11
54.5745104215931
 21
4.38535147101105
 31
0.0
  0
LINE
  5
231
330
37
100
AcDbEntity
  8
1
  6
DASHED
 62
     2
100
AcDbLine
 10
98.0745104215931
 20
-89.11464852898894
 30
0.0
 11
98.0745104215931
 21
-47.61464852898895
 31
0.0
  0
LINE
  5
232
330
37
100
AcDbEntity
  8
1
  6
DOT_CENTER
 62
     2
100
AcDbLine
 10
101.5745104215931
 20
-120.614648528989
 30
0.0
 11
101.5745104215931
 21
-47.61464852898895
 31
0.0
  0
LINE
  5
233
330
37
100
AcDbEntity
  8
1
  6
Continuous
 62
     7
100
AcDbLine
 10
54.5745104215931
 20
-56.6146485289887
 30
0.0
 11
54.5745104215931
 21
-47.61464852898895
 31
0.0
  0
LINE
  5
234
330
37
100
AcDbEntity
  8
1
  6
DOT_CENTER
 62
     2
100
AcDbLine
 10
169.287843915321
 20
6.38535147101106
 30
0.0
 11
164.287843915321
 21
6.38535147101105
 31
0.0
  0
LINE
  5
235
330
37
100
AcDbEntity
  8
1
  6
DOT_CENTER
 62
     2
100
AcDbLine
 10
164.287843915321
 20
6.38535147101105
 30
0.0
 11
132.287843915321
 21
6.38535147101105
 31
0.0
  0
LINE
  5
236
330
37
100
AcDbEntity
  8
1
  6
DOT_CENTER
 62
     2
100
AcDbLine
 10
132.287843915321
 20
6.38535147101105
 30
0.0
 11
129.287843915321
 21
6.38535147101106
 31
0.0
  0
LINE
  5
237
330
37
100
AcDbEntity
  8
1
  6
DOT_CENTER
 62
     2
100
AcDbLine
 10
169.287843915321
 20
4.38535147101106
 30
0.0
 11
164.287843915321
 21
4.38535147101105
 31
0.0
  0
LINE
  5
238
330
37
100
AcDbEntity
  8
1
  6
DOT_CENTER
 62
     2
100
AcDbLine
 10
164.287843915321
 20
4.38535147101105
 30
0.0
 11
132.287843915321
 21
4.38535147101105
 31
0.0
  0
LINE
  5
239
330
37
100
AcDbEntity
  8
1
  6
DOT_CENTER
 62
     2
100
AcDbLine
 10
132.287843915321
 20
4.38535147101105
 30
0.0
 11
129.287843915321
 21
4.38535147101106
 31
0.0
  0
LINE
  5
23A
330
37
100
AcDbEntity
  8
1
  6
DOT_CENTER
 62
     2
100
AcDbLine
 10
101.5745104215931
 20
6.38535147101105
 30
0.0
 11
98.0745104215931
 21
6.38535147101105
 31
0.0
  0
LINE
  5
23B
330
37
100
AcDbEntity
  8
1
  6
DOT_CENTER
 62
     2
100
AcDbLine
 10
70.5745104215931
 20
6.38535147101105
 30
0.0
 11
54.5745104215931
 21
6.38535147101105
 31
0.0
  0
LINE
  5
23C
330
37
100
AcDbEntity
  8
1
  6
DOT_CENTER
 62
     2
100
AcDbLine
 10
101.5745104215931
 20
4.38535147101105
 30
0.0
 11
98.0745104215931
 21
4.38535147101105
 31
0.0
  0
LINE
  5
23D
330
37
100
AcDbEntity
  8
1
  6
DOT_CENTER
 62
     2
100
AcDbLine
 10
70.5745104215931
 20
4.38535147101105
 30
0.0
 11
54.5745104215931
 21
4.38535147101105
 31
0.0
  0
LINE
  5
23E
330
37
100
AcDbEntity
  8
1
  6
DOT_CENTER
 62
     2
100
AcDbLine
 10
70.5745104215931
 20
-45.61464852898895
 30
0.0
 11
98.0745104215931
 21
-45.61464852898896
 31
0.0
  0
LINE
  5
23F
330
37
100
AcDbEntity
  8
1
  6
DOT_CENTER
 62
     2
100
AcDbLine
 10
98.0745104215931
 20
-45.61464852898896
 30
0.0
 11
101.5745104215931
 21
-45.61464852898896
 31
0.0
  0
LINE
  5
240
330
37
100
AcDbEntity
  8
1
  6
DOT_CENTER
 62
     2
100
AcDbLine
 10
70.5745104215931
 20
-47.61464852898895
 30
0.0
 11
98.0745104215931
 21
-47.61464852898895
 31
0.0
  0
LINE
  5
241
330
37
100
AcDbEntity
  8
1
  6
DOT_CENTER
 62
     2
100
AcDbLine
 10
98.0745104215931
 20
-47.61464852898895
 30
0.0
 11
101.5745104215931
 21
-47.61464852898895
 31
0.0
  0
LINE
  5
242
330
37
100
AcDbEntity
  8
1
  6
DOT_CENTER
 62
     2
100
AcDbLine
 10
177.287843915321
 20
6.38535147101106
 30
0.0
 11
169.287843915321
 21
6.38535147101106
 31
0.0
  0
LINE
  5
243
330
37
100
AcDbEntity
  8
1
  6
DOT_CENTER
 62
     2
100
AcDbLine
 10
177.287843915321
 20
4.38535147101105
 30
0.0
 11
169.287843915321
 21
4.38535147101106
 31
0.0
  0
LINE
  5
244
330
37
100
AcDbEntity
  8
1
  6
DOT_CENTER
 62
     2
100
AcDbLine
 10
103.5337723403521
 20
6.38535147101105
 30
0.0
 11
101.5745104215931
 21
6.38535147101105
 31
0.0
  0
LINE
  5
245
330
37
100
AcDbEntity
  8
1
  6
DOT_CENTER
 62
     2
100
AcDbLine
 10
103.5337723403521
 20
4.38535147101105
 30
0.0
 11
101.5745104215931
 21
4.38535147101105
 31
0.0
  0
LINE
  5
246
330
37
100
AcDbEntity
  8
1
  6
DOT_CENTER
 62
     2
100
AcDbLine
 10
51.9816942237601
 20
-45.61464852898895
 30
0.0
 11
54.5745104215931
 21
-45.61464852898896
 31
0.0
  0
LINE
  5
247
330
37
100
AcDbEntity
  8
1
  6
DOT_CENTER
 62
     2
100
AcDbLine
 10
51.9816942237601
 20
-47.61464852898895
 30
0.0
 11
54.5745104215931
 21
-47.61464852898895
 31
0.0
  0
LINE
  5
248
330
37
100
AcDbEntity
  8
1
  6
DOT_CENTER
 62
     2
100
AcDbLine
 10
160.037843915321
 20
54.38535147101105
 30
0.0
 11
155.537843915321
 21
54.38535147101105
 31
0.0
  0
LINE
  5
249
330
37
100
AcDbEntity
  8
1
  6
DOT_CENTER
 62
     2
100
AcDbLine
 10
157.787843915321
 20
52.13535147101105
 30
0.0
 11
157.787843915321
 21
56.63535147101105
 31
0.0
  0
LINE
  5
24A
330
37
100
AcDbEntity
  8
1
  6
DOT_CENTER
 62
     2
100
AcDbLine
 10
138.787843915321
 20
56.63535147101105
 30
0.0
 11
138.787843915321
 21
52.13535147101105
 31
0.0
  0
LINE
  5
24B
330
37
100
AcDbEntity
  8
1
  6
DOT_CENTER
 62
     2
100
AcDbLine
 10
141.037843915321
 20
54.38535147101105
 30
0.0
 11
136.537843915321
 21
54.38535147101105
 31
0.0
  0
LINE
  5
24C
330
37
100
AcDbEntity
  8
1
  6
DOT_CENTER
 62
     2
100
AcDbLine
 10
157.787843915321
 20
-97.86464852898901
 30
0.0
 11
157.787843915321
 21
-93.36464852898895
 31
0.0
  0
LINE
  5
24D
330
37
100
AcDbEntity
  8
1
  6
DOT_CENTER
 62
     2
100
AcDbLine
 10
155.537843915321
 20
-95.61464852898895
 30
0.0
 11
160.037843915321
 21
-95.61464852898895
 31
0.0
  0
LINE
  5
24E
330
37
100
AcDbEntity
  8
1
  6
DOT_CENTER
 62
     2
100
AcDbLine
 10
136.537843915321
 20
-95.61464852898895
 30
0.0
 11
141.037843915321
 21
-95.61464852898895
 31
0.0
  0
LINE
  5
24F
330
37
100
AcDbEntity
  8
1
  6
Continuous
 62
     7
100
AcDbLine
 10
169.287843915321
 20
15.38535147101111
 30
0.0
 11
164.287843915321
 21
15.38535147101111
 31
0.0
  0
LINE
  5
250
330
37
100
AcDbEntity
  8
1
  6
Continuous
 62
     7
100
AcDbLine
 10
164.287843915321
 20
6.38535147101105
 30
0.0
 11
164.287843915321
 21
15.38535147101111
 31
0.0
  0
LINE
  5
251
330
37
100
AcDbEntity
  8
1
  6
Continuous
 62
     7
100
AcDbLine
 10
169.287843915321
 20
79.3853514710111
 30
0.0
 11
169.287843915321
 21
15.38535147101111
 31
0.0
  0
LINE
  5
252
330
37
100
AcDbEntity
  8
1
  6
Continuous
 62
     7
100
AcDbLine
 10
169.287843915321
 20
-56.6146485289887
 30
0.0
 11
164.287843915321
 21
-56.6146485289887
 31
0.0
  0
LINE
  5
253
330
37
100
AcDbEntity
  8
1
  6
Continuous
 62
     7
100
AcDbLine
 10
164.287843915321
 20
-94.61464852898895
 30
0.0
 11
164.287843915321
 21
-56.6146485289887
 31
0.0
  0
LINE
  5
254
330
37
100
AcDbEntity
  8
1
  6
Continuous
 62
     7
100
AcDbLine
 10
169.287843915321
 20
-47.61464852898895
 30
0.0
 11
169.287843915321
 21
-56.6146485289887
 31
0.0
  0
ARC
  5
255
330
37
100
AcDbEntity
  8
1
  6
Continuous
 62
     7
100
AcDbCircle
 10
148.287843915321
 20
-94.61464852898895
 30
0.0
 40
16.0
100
AcDbArc
 50
180.0
 51
0.0
  0
ARC
  5
256
330
37
100
AcDbEntity
  8
1
  6
Continuous
 62
     7
100
AcDbCircle
 10
148.287843915321
 20
53.38535147101105
 30
0.0
 40
16.0
100
AcDbArc
 50
0.0
 51
180.0
  0
ARC
  5
257
330
37
100
AcDbEntity
  8
1
  6
Continuous
 62
     7
100
AcDbCircle
 10
144.287843915321
 20
-77.11464852898895
 30
0.0
 40
12.0
100
AcDbArc
 50
180.0
 51
-90.0
  0
ARC
  5
258
330
37
100
AcDbEntity
  8
1
  6
Continuous
 62
     7
100
AcDbCircle
 10
152.287843915321
 20
-77.11464852898895
 30
0.0
 40
12.0
100
AcDbArc
 50
-90.0
 51
0.0
  0
ARC
  5
259
330
37
100
AcDbEntity
  8
1
  6
Continuous
 62
     7
100
AcDbCircle
 10
152.287843915321
 20
35.88535147101105
 30
0.0
 40
12.0
100
AcDbArc
 50
0.0
 51
90.0
  0
ARC
  5
25A
330
37
100
AcDbEntity
  8
1
  6
Continuous
 62
     7
100
AcDbCircle
 10
144.287843915321
 20
35.88535147101105
 30
0.0
 40
12.0
100
AcDbArc
 50
90.0
 51
180.0
  0
CIRCLE
  5
25B
330
37
100
AcDbEntity
  8
1
  6
Continuous
 62
     7
100
AcDbCircle
 10
157.787843915321
 20
54.38535147101105
 30
0.0
 40
1.5
  0
CIRCLE
  5
25C
330
37
100
AcDbEntity
  8
1
  6
Continuous
 62
     7
100
AcDbCircle
 10
138.787843915321
 20
54.38535147101105
 30
0.0
 40
1.5
  0
CIRCLE
  5
25D
330
37
100
AcDbEntity
  8
1
  6
Continuous
 62
     7
100
AcDbCircle
 10
157.787843915321
 20
-95.61464852898895
 30
0.0
 40
1.5
  0
CIRCLE
  5
25E
330
37
100
AcDbEntity
  8
1
  6
Continuous
 62
     7
100
AcDbCircle
 10
138.787843915321
 20
-95.61464852898895
 30
0.0
 40
1.5
  0
HATCH
  5
25F
330
37
100
AcDbEntity
  8
1
  6
Continuous
 62
     2
100
AcDbHatch
 10
0.0
 20
0.0
 30
0.0
210
0.0
220
0.0
230
1.0
  2
_USER
 70
     0
 71
     1
 91
        1
 92
        1
 93
        9
 72
     1
 10
-4.168760320169298
 20
-52.68918859156351
 11
-4.168760320169353
 21
-55.68918859156351
 72
     1
 10
-4.168760320169353
 20
-55.68918859156351
 11
5.831239679830681
 21
-55.68918859156351
 72
     1
 10
5.831239679830681
 20
-55.68918859156351
 11
39.33123967983065
 21
-55.68918859156361
 72
     1
 10
39.33123967983065
 20
-55.68918859156361
 11
39.33123967983048
 21
-87.68918859156354
 72
     1
 10
39.33123967983048
 20
-87.68918859156354
 11
11.83123967983048
 21
-87.6891885915634
 72
     1
 10
11.83123967983048
 20
-87.6891885915634
 11
11.83123967983048
 21
-92.68918859156351
 72
     1
 10
11.83123967983048
 20
-92.68918859156351
 11
43.83123967983067
 21
-92.68918859156351
 72
     1
 10
43.83123967983067
 20
-92.68918859156351
 11
43.83123967983067
 21
-52.68918859156351
 72
     1
 10
43.83123967983067
 20
-52.68918859156351
 11
-4.168760320169298
 21
-52.68918859156351
 97
        9
330
218
330
217
330
1D4
330
1D2
330
21B
330
21C
330
20C
330
21D
330
21E
 75
     1
 76
     0
 52
135.0
 41
5.0
 77
     0
 78
     1
 53
135.0
 43
0.0
 44
0.0
 45
-3.535533905932738
 46
-3.535533905932737
 79
     0
 98
        1
 10
0.0
 20
0.0
  0
ENDBLK
  5
39
330
37
100
AcDbEntity
  8
0
100
AcDbBlockEnd
  0
BLOCK
  5
3B
330
3A
100
AcDbEntity
  8
0
100
AcDbBlockBegin
  2
Rahmen
 70
     0
 71
     0
 10
-136.2043947259831
 20
-9.00756272345865
 30
0.0
  3
Rahmen
  1

  0
POINT
  5
260
330
3A
100
AcDbEntity
  8
1
 62
     3
 60
     1
100
AcDbPoint
 10
-144.324895871924
 20
-20.61464852898895
 30
0.0
  0
LINE
  5
261
330
3A
100
AcDbEntity
  8
1
  6
DOT_CENTER
 62
     2
100
AcDbLine
 10
-7.66876032016924
 20
-98.68918859156351
 30
0.0
 11
-7.66876032016924
 21
-92.68918859156351
 31
0.0
  0
LINE
  5
262
330
3A
100
AcDbEntity
  8
1
  6
DOT_CENTER
 62
     2
100
AcDbLine
 10
-9.66876032016924
 20
-100.6891885915635
 30
0.0
 11
-7.66876032016924
 21
-98.68918859156351
 31
0.0
  0
LINE
  5
263
330
3A
100
AcDbEntity
  8
1
  6
DOT_CENTER
 62
     2
100
AcDbLine
 10
-52.66876032016923
 20
-100.6891885915635
 30
0.0
 11
-52.66876032016923
 21
-103.068080823344
 31
0.0
  0
LINE
  5
264
330
3A
100
AcDbEntity
  8
1
  6
DOT_CENTER
 62
     2
100
AcDbLine
 10
-52.66876032016923
 20
-100.6891885915635
 30
0.0
 11
-9.66876032016924
 21
-100.6891885915635
 31
0.0
  0
LINE
  5
265
330
3A
100
AcDbEntity
  8
1
  6
DOT_CENTER
 62
     2
100
AcDbLine
 10
-52.66876032016923
 20
-92.68918859156351
 30
0.0
 11
-52.66876032016923
 21
-100.6891885915635
 31
0.0
  0
LINE
  5
266
102
{ACAD_REACTORS
330
320
330
320
102
}
330
3A
100
AcDbEntity
  8
1
  6
Continuous
 62
     7
100
AcDbLine
 10
-23.66876032016924
 20
-92.68918859156351
 30
0.0
 11
-52.66876032016923
 21
-92.68918859156351
 31
0.0
  0
LINE
  5
267
102
{ACAD_REACTORS
330
320
330
320
102
}
330
3A
100
AcDbEntity
  8
1
  6
Continuous
 62
     7
100
AcDbLine
 10
-23.66876032016924
 20
-87.68918859156351
 30
0.0
 11
-49.16876032016917
 21
-87.68918859156351
 31
0.0
  0
LINE
  5
268
102
{ACAD_REACTORS
330
320
330
320
102
}
330
3A
100
AcDbEntity
  8
1
  6
Continuous
 62
     7
100
AcDbLine
 10
-23.66876032016924
 20
-87.68918859156351
 30
0.0
 11
-23.66876032016924
 21
-92.68918859156351
 31
0.0
  0
LINE
  5
269
330
3A
100
AcDbEntity
  8
1
  6
Continuous
 62
     7
100
AcDbLine
 10
-195.91485230427
 20
-56.6146485289887
 30
0.0
 11
-195.91485230427
 21
-77.1146485289887
 31
0.0
  0
LINE
  5
26A
330
3A
100
AcDbEntity
  8
1
  6
Continuous
 62
     7
100
AcDbLine
 10
-200.91485230427
 20
-56.6146485289887
 30
0.0
 11
-200.91485230427
 21
-120.614648528989
 31
0.0
  0
LINE
  5
26B
330
3A
100
AcDbEntity
  8
1
  6
Continuous
 62
     7
100
AcDbLine
 10
-200.91485230427
 20
-56.6146485289887
 30
0.0
 11
-195.91485230427
 21
-56.6146485289887
 31
0.0
  0
LINE
  5
26C
330
3A
100
AcDbEntity
  8
1
  6
Continuous
 62
     7
100
AcDbLine
 10
-195.91485230427
 20
15.38535147101111
 30
0.0
 11
-195.91485230427
 21
6.38535147101105
 31
0.0
  0
LINE
  5
26D
330
3A
100
AcDbEntity
  8
1
  6
Continuous
 62
     7
100
AcDbLine
 10
-200.91485230427
 20
15.38535147101111
 30
0.0
 11
-200.91485230427
 21
6.38535147101103
 31
0.0
  0
LINE
  5
26E
330
3A
100
AcDbEntity
  8
1
  6
Continuous
 62
     7
100
AcDbLine
 10
-200.91485230427
 20
15.38535147101111
 30
0.0
 11
-195.91485230427
 21
15.38535147101111
 31
0.0
  0
LINE
  5
26F
330
3A
100
AcDbEntity
  8
1
  6
Continuous
 62
     7
100
AcDbLine
 10
-74.35733264471742
 20
-56.6146485289887
 30
0.0
 11
-74.35733264471742
 21
-110.6146485289887
 31
0.0
  0
LINE
  5
270
330
3A
100
AcDbEntity
  8
1
  6
Continuous
 62
     7
100
AcDbLine
 10
-90.35733264471742
 20
-56.6146485289887
 30
0.0
 11
-84.35733264471742
 21
-56.6146485289887
 31
0.0
  0
LINE
  5
271
330
3A
100
AcDbEntity
  8
1
  6
Continuous
 62
     7
100
AcDbLine
 10
-90.35733264471742
 20
-47.61464852898895
 30
0.0
 11
-90.35733264471742
 21
-56.6146485289887
 31
0.0
  0
LINE
  5
272
330
3A
100
AcDbEntity
  8
1
  6
DOT_CENTER
 62
     2
100
AcDbLine
 10
-90.35733264471742
 20
-47.61464852898895
 30
0.0
 11
-115.8573326447174
 21
-47.61464852898895
 31
0.0
  0
LINE
  5
273
330
3A
100
AcDbEntity
  8
1
  6
DOT_CENTER
 62
     2
100
AcDbLine
 10
-90.35733264471742
 20
-45.61464852898895
 30
0.0
 11
-115.8573326447174
 21
-45.61464852898896
 31
0.0
  0
LINE
  5
274
330
3A
100
AcDbEntity
  8
1
  6
Continuous
 62
     7
100
AcDbLine
 10
-90.35733264471742
 20
4.38535147101105
 30
0.0
 11
-90.35733264471742
 21
-45.61464852898895
 31
0.0
  0
LINE
  5
275
330
3A
100
AcDbEntity
  8
1
  6
DOT_CENTER
 62
     2
100
AcDbLine
 10
-90.35733264471742
 20
4.38535147101105
 30
0.0
 11
-84.35733264471742
 21
4.38535147101105
 31
0.0
  0
LINE
  5
276
330
3A
100
AcDbEntity
  8
1
  6
DOT_CENTER
 62
     2
100
AcDbLine
 10
-90.35733264471742
 20
6.38535147101105
 30
0.0
 11
-84.35733264471742
 21
6.38535147101105
 31
0.0
  0
LINE
  5
277
330
3A
100
AcDbEntity
  8
1
  6
Continuous
 62
     7
100
AcDbLine
 10
-90.35733264471742
 20
15.38535147101111
 30
0.0
 11
-90.35733264471742
 21
6.38535147101105
 31
0.0
  0
LINE
  5
278
330
3A
100
AcDbEntity
  8
1
  6
Continuous
 62
     7
100
AcDbLine
 10
-74.35733264471742
 20
15.38535147101111
 30
0.0
 11
-74.35733264471742
 21
6.38535147101105
 31
0.0
  0
LINE
  5
279
330
3A
100
AcDbEntity
  8
1
  6
Continuous
 62
     7
100
AcDbLine
 10
-74.35733264471742
 20
15.38535147101111
 30
0.0
 11
-84.35733264471742
 21
15.38535147101111
 31
0.0
  0
LINE
  5
27A
330
3A
100
AcDbEntity
  8
1
  6
DOT_CENTER
 62
     2
100
AcDbLine
 10
-208.91485230427
 20
79.385351471011
 30
0.0
 11
-200.91485230427
 21
79.385351471011
 31
0.0
  0
LINE
  5
27B
330
3A
100
AcDbEntity
  8
1
  6
DOT_CENTER
 62
     2
100
AcDbLine
 10
-208.91485230427
 20
6.38535147101105
 30
0.0
 11
-200.91485230427
 21
6.38535147101103
 31
0.0
  0
LINE
  5
27C
330
3A
100
AcDbEntity
  8
1
  6
DOT_CENTER
 62
     2
100
AcDbLine
 10
-208.91485230427
 20
6.38535147101105
 30
0.0
 11
-208.91485230427
 21
79.385351471011
 31
0.0
  0
LINE
  5
27D
330
3A
100
AcDbEntity
  8
1
  6
DOT_CENTER
 62
     2
100
AcDbLine
 10
-208.91485230427
 20
4.38535147101105
 30
0.0
 11
-200.91485230427
 21
4.38535147101105
 31
0.0
  0
LINE
  5
27E
330
3A
100
AcDbEntity
  8
1
  6
DOT_CENTER
 62
     2
100
AcDbLine
 10
-208.91485230427
 20
-45.61464852898894
 30
0.0
 11
-211.1492194823534
 21
-45.61464852898894
 31
0.0
  0
LINE
  5
27F
330
3A
100
AcDbEntity
  8
1
  6
DOT_CENTER
 62
     2
100
AcDbLine
 10
-208.91485230427
 20
-45.61464852898894
 30
0.0
 11
-208.91485230427
 21
4.38535147101105
 31
0.0
  0
LINE
  5
280
330
3A
100
AcDbEntity
  8
1
  6
DOT_CENTER
 62
     2
100
AcDbLine
 10
-208.91485230427
 20
-120.614648528989
 30
0.0
 11
-200.91485230427
 21
-120.614648528989
 31
0.0
  0
LINE
  5
281
330
3A
100
AcDbEntity
  8
1
  6
DOT_CENTER
 62
     2
100
AcDbLine
 10
-208.91485230427
 20
-47.61464852898894
 30
0.0
 11
-211.1492194823534
 21
-47.61464852898894
 31
0.0
  0
LINE
  5
282
330
3A
100
AcDbEntity
  8
1
  6
DOT_CENTER
 62
     2
100
AcDbLine
 10
-208.91485230427
 20
-120.614648528989
 30
0.0
 11
-208.91485230427
 21
-47.61464852898894
 31
0.0
  0
LINE
  5
283
330
3A
100
AcDbEntity
  8
1
  6
DOT_CENTER
 62
     2
100
AcDbLine
 10
-144.324895871924
 20
-20.61464852898895
 30
0.0
 11
-135.3938869162998
 21
-20.61464852898895
 31
0.0
  0
LINE
  5
284
330
3A
100
AcDbEntity
  8
1
  6
DOT_CENTER
 62
     2
100
AcDbLine
 10
-211.4027523107855
 20
-20.61464852898895
 30
0.0
 11
-144.324895871924
 21
-20.61464852898895
 31
0.0
  0
LINE
  5
285
330
3A
100
AcDbEntity
  8
1
  6
DOT_CENTER
 62
     2
100
AcDbLine
 10
-179.9148523042701
 20
71.8558189615838
 30
0.0
 11
-179.9148523042701
 21
-115.2569032480472
 31
0.0
  0
LINE
  5
286
330
3A
100
AcDbEntity
  8
1
  6
Continuous
 62
     7
100
AcDbLine
 10
-163.91485230427
 20
-77.11464852898868
 30
0.0
 11
-163.91485230427
 21
-94.61464852898895
 31
0.0
  0
LINE
  5
287
330
3A
100
AcDbEntity
  8
1
  6
Continuous
 62
     7
100
AcDbLine
 10
-195.91485230427
 20
-77.1146485289887
 30
0.0
 11
-195.91485230427
 21
-94.61464852898895
 31
0.0
  0
LINE
  5
288
330
3A
100
AcDbEntity
  8
1
  6
Continuous
 62
     7
100
AcDbLine
 10
-195.91485230427
 20
53.38535147101105
 30
0.0
 11
-195.91485230427
 21
15.38535147101111
 31
0.0
  0
LINE
  5
289
330
3A
100
AcDbEntity
  8
1
  6
Continuous
 62
     7
100
AcDbLine
 10
-163.91485230427
 20
53.38535147101105
 30
0.0
 11
-163.9148523042699
 21
6.38535147101105
 31
0.0
  0
LINE
  5
28A
330
3A
100
AcDbEntity
  8
1
  6
Continuous
 62
     7
100
AcDbLine
 10
-195.91485230427
 20
-20.61464852898895
 30
0.0
 11
-195.91485230427
 21
-45.61464852898895
 31
0.0
  0
LINE
  5
28B
330
3A
100
AcDbEntity
  8
1
  6
DOT_CENTER
 62
     2
100
AcDbLine
 10
5.33123967983078
 20
-1.12367182724053
 30
0.0
 11
7.4310199439095
 21
-1.12367182724053
 31
0.0
  0
LINE
  5
28C
330
3A
100
AcDbEntity
  8
1
  6
Continuous
 62
     2
100
AcDbLine
 10
-7.66876032016924
 20
-49.68918859156351
 30
0.0
 11
-5.93670951260046
 21
-52.68918859156351
 31
0.0
  0
LINE
  5
28D
330
3A
100
AcDbEntity
  8
1
  6
Continuous
 62
     2
100
AcDbLine
 10
-5.93670951260046
 20
-52.68918859156351
 30
0.0
 11
3.59918887226189
 21
-52.68918859156351
 31
0.0
  0
LINE
  5
28E
330
3A
100
AcDbEntity
  8
1
  6
Continuous
 62
     2
100
AcDbLine
 10
3.59918887226189
 20
-52.68918859156351
 30
0.0
 11
5.33123967983078
 21
-49.68918859156351
 31
0.0
  0
LINE
  5
28F
330
3A
100
AcDbEntity
  8
1
  6
Continuous
 62
     2
100
AcDbLine
 10
5.33123967983078
 20
-49.68918859156351
 30
0.0
 11
5.33123967983078
 21
-47.68918859156351
 31
0.0
  0
LINE
  5
290
330
3A
100
AcDbEntity
  8
1
  6
Continuous
 62
     2
100
AcDbLine
 10
-6.66876032016924
 20
-48.68918859156351
 30
0.0
 11
4.33123967983078
 21
-48.68918859156351
 31
0.0
  0
LINE
  5
291
330
3A
100
AcDbEntity
  8
1
  6
Continuous
 62
     2
100
AcDbLine
 10
4.33123967983078
 20
-48.68918859156351
 30
0.0
 11
4.33123967983078
 21
-49.42123939913243
 31
0.0
  0
LINE
  5
292
330
3A
100
AcDbEntity
  8
1
  6
Continuous
 62
     2
100
AcDbLine
 10
4.33123967983078
 20
-49.42123939913243
 30
0.0
 11
3.02183860307224
 21
-51.68918859156351
 31
0.0
  0
LINE
  5
293
330
3A
100
AcDbEntity
  8
1
  6
Continuous
 62
     2
100
AcDbLine
 10
3.02183860307224
 20
-51.68918859156351
 30
0.0
 11
-5.35935924341084
 21
-51.68918859156351
 31
0.0
  0
LINE
  5
294
330
3A
100
AcDbEntity
  8
1
  6
Continuous
 62
     2
100
AcDbLine
 10
-5.35935924341084
 20
-51.68918859156351
 30
0.0
 11
-6.66876032016924
 21
-49.42123939913243
 31
0.0
  0
LINE
  5
295
330
3A
100
AcDbEntity
  8
1
  6
Continuous
 62
     2
100
AcDbLine
 10
-6.66876032016924
 20
-49.42123939913243
 30
0.0
 11
-6.66876032016924
 21
-48.68918859156351
 31
0.0
  0
LINE
  5
296
330
3A
100
AcDbEntity
  8
1
  6
Continuous
 62
     7
100
AcDbLine
 10
-7.66876032016924
 20
-87.68918859156351
 30
0.0
 11
-17.66876032016924
 21
-87.68918859156351
 31
0.0
  0
LINE
  5
297
330
3A
100
AcDbEntity
  8
1
  6
Continuous
 62
     7
100
AcDbLine
 10
-7.66876032016924
 20
-55.68918859156351
 30
0.0
 11
-7.66876032016924
 21
-87.68918859156351
 31
0.0
  0
LINE
  5
298
102
{ACAD_REACTORS
330
320
330
320
102
}
330
3A
100
AcDbEntity
  8
1
  6
Continuous
 62
     7
100
AcDbLine
 10
-49.16876032016917
 20
-87.68918859156351
 30
0.0
 11
-49.1687603201692
 21
-74.68918859156351
 31
0.0
  0
LINE
  5
299
102
{ACAD_REACTORS
330
31F
330
31F
102
}
330
3A
100
AcDbEntity
  8
1
  6
Continuous
 62
     7
100
AcDbLine
 10
-7.66876032016924
 20
-55.68918859156351
 30
0.0
 11
-7.66876032016935
 21
-47.68918859156351
 31
0.0
  0
LINE
  5
29A
102
{ACAD_REACTORS
330
31F
330
31F
102
}
330
3A
100
AcDbEntity
  8
1
  6
Continuous
 62
     7
100
AcDbLine
 10
-7.66876032016935
 20
-47.68918859156351
 30
0.0
 11
5.33123967983078
 21
-47.68918859156351
 31
0.0
  0
LINE
  5
29B
102
{ACAD_REACTORS
330
31F
330
31F
102
}
330
3A
100
AcDbEntity
  8
1
  6
Continuous
 62
     7
100
AcDbLine
 10
5.33123967983078
 20
-47.68918859156351
 30
0.0
 11
5.33123967983078
 21
-1.12367182724053
 31
0.0
  0
LINE
  5
29C
102
{ACAD_REACTORS
330
31F
330
31F
102
}
330
3A
100
AcDbEntity
  8
1
  6
DOT_CENTER
 62
     2
100
AcDbLine
 10
5.33123967983078
 20
-1.12367182724053
 30
0.0
 11
-17.66876032016936
 21
-1.12367182724051
 31
0.0
  0
LINE
  5
29D
330
3A
100
AcDbEntity
  8
1
  6
Continuous
 62
     7
100
AcDbLine
 10
-7.66876032016924
 20
-87.68918859156351
 30
0.0
 11
-7.66876032016924
 21
-92.68918859156351
 31
0.0
  0
LINE
  5
29E
330
3A
100
AcDbEntity
  8
1
  6
Continuous
 62
     7
100
AcDbLine
 10
-7.66876032016924
 20
-92.68918859156351
 30
0.0
 11
-23.66876032016924
 21
-92.68918859156351
 31
0.0
  0
LINE
  5
29F
330
3A
100
AcDbEntity
  8
1
  6
DOT_CENTER
 62
     2
100
AcDbLine
 10
-211.4005926546524
 20
79.385351471011
 30
0.0
 11
-208.91485230427
 21
79.385351471011
 31
0.0
  0
LINE
  5
2A0
330
3A
100
AcDbEntity
  8
1
  6
DOT_CENTER
 62
     2
100
AcDbLine
 10
-211.4005926546524
 20
-120.614648528989
 30
0.0
 11
-208.91485230427
 21
-120.614648528989
 31
0.0
  0
LINE
  5
2A1
330
3A
100
AcDbEntity
  8
1
  6
DOT_CENTER
 62
     2
100
AcDbLine
 10
-138.349335539947
 20
79.385351471011
 30
0.0
 11
-138.349335539947
 21
-120.614648528989
 31
0.0
  0
LINE
  5
2A2
330
3A
100
AcDbEntity
  8
1
  6
DOT_CENTER
 62
     2
100
AcDbLine
 10
-138.349335539947
 20
79.385351471011
 30
0.0
 11
-135.3938869162998
 21
79.385351471011
 31
0.0
  0
LINE
  5
2A3
330
3A
100
AcDbEntity
  8
1
  6
DOT_CENTER
 62
     2
100
AcDbLine
 10
-138.349335539947
 20
-120.614648528989
 30
0.0
 11
-135.3938869162998
 21
-120.614648528989
 31
0.0
  0
LINE
  5
2A4
330
3A
100
AcDbEntity
  8
1
  6
DOT_CENTER
 62
     2
100
AcDbLine
 10
-138.349335539947
 20
-120.614648528989
 30
0.0
 11
-138.349335539947
 21
-123.894846638247
 31
0.0
  0
LINE
  5
2A5
330
3A
100
AcDbEntity
  8
1
  6
DOT_CENTER
 62
     2
100
AcDbLine
 10
-138.349335539947
 20
79.385351471011
 30
0.0
 11
-138.349335539947
 21
81.77063309968568
 31
0.0
  0
LINE
  5
2A6
330
3A
100
AcDbEntity
  8
1
  6
Continuous
 62
     7
100
AcDbLine
 10
-200.91485230427
 20
79.385351471011
 30
0.0
 11
-200.91485230427
 21
15.38535147101111
 31
0.0
  0
LINE
  5
2A7
330
3A
100
AcDbEntity
  8
1
  6
DOT_CENTER
 62
     2
100
AcDbLine
 10
-200.91485230427
 20
79.385351471011
 30
0.0
 11
-182.91485230427
 21
79.385351471011
 31
0.0
  0
LINE
  5
2A8
330
3A
100
AcDbEntity
  8
1
  6
DOT_CENTER
 62
     2
100
AcDbLine
 10
-200.91485230427
 20
-120.614648528989
 30
0.0
 11
-182.91485230427
 21
-120.614648528989
 31
0.0
  0
LINE
  5
2A9
330
3A
100
AcDbEntity
  8
1
  6
Continuous
 62
     7
100
AcDbLine
 10
-158.91485230427
 20
79.385351471011
 30
0.0
 11
-158.91485230427
 21
6.38535147101103
 31
0.0
  0
LINE
  5
2AA
330
3A
100
AcDbEntity
  8
1
  6
DOT_CENTER
 62
     2
100
AcDbLine
 10
-158.91485230427
 20
79.385351471011
 30
0.0
 11
-138.349335539947
 21
79.385351471011
 31
0.0
  0
LINE
  5
2AB
330
3A
100
AcDbEntity
  8
1
  6
DOT_CENTER
 62
     2
100
AcDbLine
 10
-158.91485230427
 20
-120.614648528989
 30
0.0
 11
-138.349335539947
 21
-120.614648528989
 31
0.0
  0
LINE
  5
2AC
330
3A
100
AcDbEntity
  8
1
  6
DOT_CENTER
 62
     2
100
AcDbLine
 10
-122.119084989988
 20
79.385351471011
 30
0.0
 11
-119.3573326447174
 21
79.385351471011
 31
0.0
  0
LINE
  5
2AD
330
3A
100
AcDbEntity
  8
1
  6
DOT_CENTER
 62
     2
100
AcDbLine
 10
-120.119084989988
 20
-20.61464852898895
 30
0.0
 11
-56.84744871881924
 21
-20.61464852898895
 31
0.0
  0
LINE
  5
2AE
330
3A
100
AcDbEntity
  8
1
  6
DOT_CENTER
 62
     2
100
AcDbLine
 10
-122.119084989988
 20
-120.614648528989
 30
0.0
 11
-119.3573326447174
 21
-120.614648528989
 31
0.0
  0
LINE
  5
2AF
330
3A
100
AcDbEntity
  8
1
  6
Continuous
 62
     7
100
AcDbLine
 10
-119.3573326447174
 20
79.385351471011
 30
0.0
 11
-119.3573326447174
 21
6.38535147101103
 31
0.0
  0
LINE
  5
2B0
330
3A
100
AcDbEntity
  8
1
  6
DOT_CENTER
 62
     2
100
AcDbLine
 10
-119.3573326447174
 20
79.385351471011
 30
0.0
 11
-84.35733264471742
 21
79.385351471011
 31
0.0
  0
LINE
  5
2B1
330
3A
100
AcDbEntity
  8
1
  6
DOT_CENTER
 62
     2
100
AcDbLine
 10
-119.3573326447174
 20
-120.614648528989
 30
0.0
 11
-84.35733264471742
 21
-120.614648528989
 31
0.0
  0
LINE
  5
2B2
330
3A
100
AcDbEntity
  8
1
  6
Continuous
 62
     7
100
AcDbLine
 10
-61.35733264471736
 20
-120.614648528989
 30
0.0
 11
-61.35733264471736
 21
-47.61464852898897
 31
0.0
  0
LINE
  5
2B3
330
3A
100
AcDbEntity
  8
1
  6
DOT_CENTER
 62
     2
100
AcDbLine
 10
-61.35733264471736
 20
79.385351471011
 30
0.0
 11
-56.84744871881924
 21
79.385351471011
 31
0.0
  0
LINE
  5
2B4
330
3A
100
AcDbEntity
  8
1
  6
DOT_CENTER
 62
     2
100
AcDbLine
 10
-61.35733264471736
 20
-120.614648528989
 30
0.0
 11
-56.84744871881924
 21
-120.614648528989
 31
0.0
  0
LINE
  5
2B5
330
3A
100
AcDbEntity
  8
1
  6
Continuous
 62
     7
100
AcDbLine
 10
-74.35733264471742
 20
79.385351471011
 30
0.0
 11
-74.35733264471742
 21
69.3853514710111
 31
0.0
  0
LINE
  5
2B6
330
3A
100
AcDbEntity
  8
1
  6
DOT_CENTER
 62
     2
100
AcDbLine
 10
-74.35733264471742
 20
79.385351471011
 30
0.0
 11
-61.35733264471736
 21
79.385351471011
 31
0.0
  0
LINE
  5
2B7
330
3A
100
AcDbEntity
  8
1
  6
DOT_CENTER
 62
     2
100
AcDbLine
 10
-74.35733264471742
 20
-120.614648528989
 30
0.0
 11
-61.35733264471736
 21
-120.614648528989
 31
0.0
  0
LINE
  5
2B8
330
3A
100
AcDbEntity
  8
1
  6
DASHED
 62
     2
100
AcDbLine
 10
-74.35733264471742
 20
69.3853514710111
 30
0.0
 11
-115.8573326447174
 21
69.3853514710111
 31
0.0
  0
LINE
  5
2B9
330
3A
100
AcDbEntity
  8
1
  6
Continuous
 62
     7
100
AcDbLine
 10
-74.35733264471742
 20
69.3853514710111
 30
0.0
 11
-74.35733264471742
 21
15.38535147101111
 31
0.0
  0
LINE
  5
2BA
330
3A
100
AcDbEntity
  8
1
  6
DASHED
 62
     2
100
AcDbLine
 10
-115.8573326447174
 20
69.3853514710111
 30
0.0
 11
-115.8573326447174
 21
-110.6146485289887
 31
0.0
  0
LINE
  5
2BB
330
3A
100
AcDbEntity
  8
1
  6
DASHED
 62
     2
100
AcDbLine
 10
-115.8573326447174
 20
-110.6146485289887
 30
0.0
 11
-74.35733264471742
 21
-110.6146485289887
 31
0.0
  0
LINE
  5
2BC
330
3A
100
AcDbEntity
  8
1
  6
Continuous
 62
     7
100
AcDbLine
 10
-74.35733264471742
 20
-110.6146485289887
 30
0.0
 11
-74.35733264471742
 21
-120.614648528989
 31
0.0
  0
LINE
  5
2BD
330
3A
100
AcDbEntity
  8
1
  6
Continuous
 62
     7
100
AcDbLine
 10
-17.66876032016924
 20
-87.68918859156351
 30
0.0
 11
-17.66876032016929
 21
-74.68918859156351
 31
0.0
  0
LINE
  5
2BE
330
3A
100
AcDbEntity
  8
1
  6
Continuous
 62
     7
100
AcDbLine
 10
-17.66876032016924
 20
-87.68918859156351
 30
0.0
 11
-23.66876032016924
 21
-87.68918859156351
 31
0.0
  0
LINE
  5
2BF
102
{ACAD_REACTORS
330
31F
330
31F
102
}
330
3A
100
AcDbEntity
  8
1
  6
Continuous
 62
     7
100
AcDbLine
 10
-17.66876032016936
 20
-55.68918859156344
 30
0.0
 11
-7.66876032016924
 21
-55.68918859156351
 31
0.0
  0
LINE
  5
2C0
330
3A
100
AcDbEntity
  8
1
  6
Continuous
 62
     7
100
AcDbLine
 10
-163.9148523042699
 20
-20.61464852898895
 30
0.0
 11
-163.91485230427
 21
-45.61464852898894
 31
0.0
  0
LINE
  5
2C1
330
3A
100
AcDbEntity
  8
1
  6
DOT_CENTER
 62
     2
100
AcDbLine
 10
-211.1492194823536
 20
6.38535147101105
 30
0.0
 11
-208.91485230427
 21
6.38535147101105
 31
0.0
  0
LINE
  5
2C2
330
3A
100
AcDbEntity
  8
1
  6
DOT_CENTER
 62
     2
100
AcDbLine
 10
-211.1492194823536
 20
4.38535147101105
 30
0.0
 11
-208.91485230427
 21
4.38535147101105
 31
0.0
  0
LINE
  5
2C3
330
3A
100
AcDbEntity
  8
1
  6
DOT_CENTER
 62
     2
100
AcDbLine
 10
-121.327290116345
 20
6.38535147101105
 30
0.0
 11
-119.3573326447174
 21
6.38535147101103
 31
0.0
  0
LINE
  5
2C4
330
3A
100
AcDbEntity
  8
1
  6
DOT_CENTER
 62
     2
100
AcDbLine
 10
-121.327290116345
 20
4.38535147101105
 30
0.0
 11
-119.3573326447174
 21
4.38535147101105
 31
0.0
  0
LINE
  5
2C5
330
3A
100
AcDbEntity
  8
1
  6
DOT_CENTER
 62
     2
100
AcDbLine
 10
-58.9649251962632
 20
-45.61464852898895
 30
0.0
 11
-61.35733264471736
 21
-45.61464852898895
 31
0.0
  0
LINE
  5
2C6
330
3A
100
AcDbEntity
  8
1
  6
DOT_CENTER
 62
     2
100
AcDbLine
 10
-58.9649251962632
 20
-47.61464852898895
 30
0.0
 11
-61.35733264471736
 21
-47.61464852898897
 31
0.0
  0
LINE
  5
2C7
330
3A
100
AcDbEntity
  8
1
  6
DOT_CENTER
 62
     2
100
AcDbLine
 10
-157.147069980412
 20
-45.61464852898895
 30
0.0
 11
-158.91485230427
 21
-45.61464852898896
 31
0.0
  0
LINE
  5
2C8
330
3A
100
AcDbEntity
  8
1
  6
DOT_CENTER
 62
     2
100
AcDbLine
 10
-157.147069980412
 20
-47.61464852898895
 30
0.0
 11
-158.91485230427
 21
-47.61464852898895
 31
0.0
  0
LINE
  5
2C9
330
3A
100
AcDbEntity
  8
1
  6
Continuous
 62
     7
100
AcDbLine
 10
-200.91485230427
 20
4.38535147101105
 30
0.0
 11
-200.91485230427
 21
-45.61464852898896
 31
0.0
  0
LINE
  5
2CA
330
3A
100
AcDbEntity
  8
1
  6
Continuous
 62
     7
100
AcDbLine
 10
-195.91485230427
 20
4.38535147101105
 30
0.0
 11
-195.91485230427
 21
-20.61464852898895
 31
0.0
  0
LINE
  5
2CB
330
3A
100
AcDbEntity
  8
1
  6
Continuous
 62
     7
100
AcDbLine
 10
-163.9148523042699
 20
4.38535147101105
 30
0.0
 11
-163.9148523042699
 21
-20.61464852898895
 31
0.0
  0
LINE
  5
2CC
330
3A
100
AcDbEntity
  8
1
  6
Continuous
 62
     7
100
AcDbLine
 10
-158.91485230427
 20
4.38535147101105
 30
0.0
 11
-158.91485230427
 21
-45.61464852898896
 31
0.0
  0
LINE
  5
2CD
330
3A
100
AcDbEntity
  8
1
  6
Continuous
 62
     7
100
AcDbLine
 10
-119.3573326447174
 20
4.38535147101105
 30
0.0
 11
-119.3573326447174
 21
-45.61464852898896
 31
0.0
  0
LINE
  5
2CE
330
3A
100
AcDbEntity
  8
1
  6
DASHED
 62
     2
100
AcDbLine
 10
-115.8573326447174
 20
4.38535147101105
 30
0.0
 11
-115.8573326447174
 21
-45.61464852898896
 31
0.0
  0
LINE
  5
2CF
330
3A
100
AcDbEntity
  8
1
  6
Continuous
 62
     7
100
AcDbLine
 10
-74.35733264471742
 20
4.38535147101105
 30
0.0
 11
-74.35733264471742
 21
-45.61464852898896
 31
0.0
  0
LINE
  5
2D0
330
3A
100
AcDbEntity
  8
1
  6
Continuous
 62
     7
100
AcDbLine
 10
-61.35733264471735
 20
6.38535147101105
 30
0.0
 11
-61.35733264471736
 21
79.385351471011
 31
0.0
  0
LINE
  5
2D1
330
3A
100
AcDbEntity
  8
1
  6
Continuous
 62
     7
100
AcDbLine
 10
-61.35733264471736
 20
-45.61464852898895
 30
0.0
 11
-61.35733264471736
 21
4.38535147101106
 31
0.0
  0
LINE
  5
2D2
330
3A
100
AcDbEntity
  8
1
  6
Continuous
 62
     7
100
AcDbLine
 10
-74.35733264471742
 20
-47.61464852898895
 30
0.0
 11
-74.35733264471742
 21
-56.6146485289887
 31
0.0
  0
LINE
  5
2D3
330
3A
100
AcDbEntity
  8
1
  6
DASHED
 62
     2
100
AcDbLine
 10
-115.8573326447174
 20
-47.61464852898895
 30
0.0
 11
-115.8573326447174
 21
-89.11464852898897
 31
0.0
  0
LINE
  5
2D4
330
3A
100
AcDbEntity
  8
1
  6
Continuous
 62
     7
100
AcDbLine
 10
-119.3573326447174
 20
-47.61464852898895
 30
0.0
 11
-119.3573326447174
 21
-120.614648528989
 31
0.0
  0
LINE
  5
2D5
330
3A
100
AcDbEntity
  8
1
  6
Continuous
 62
     7
100
AcDbLine
 10
-158.91485230427
 20
-47.61464852898895
 30
0.0
 11
-158.91485230427
 21
-120.614648528989
 31
0.0
  0
LINE
  5
2D6
330
3A
100
AcDbEntity
  8
1
  6
Continuous
 62
     7
100
AcDbLine
 10
-163.91485230427
 20
-47.61464852898895
 30
0.0
 11
-163.91485230427
 21
-77.11464852898868
 31
0.0
  0
LINE
  5
2D7
330
3A
100
AcDbEntity
  8
1
  6
Continuous
 62
     7
100
AcDbLine
 10
-195.91485230427
 20
-47.61464852898895
 30
0.0
 11
-195.91485230427
 21
-56.6146485289887
 31
0.0
  0
LINE
  5
2D8
330
3A
100
AcDbEntity
  8
1
  6
Continuous
 62
     7
100
AcDbLine
 10
-200.91485230427
 20
-47.61464852898895
 30
0.0
 11
-200.91485230427
 21
-56.6146485289887
 31
0.0
  0
LINE
  5
2D9
330
3A
100
AcDbEntity
  8
1
  6
DOT_CENTER
 62
     2
100
AcDbLine
 10
-200.91485230427
 20
6.38535147101103
 30
0.0
 11
-195.91485230427
 21
6.38535147101105
 31
0.0
  0
LINE
  5
2DA
330
3A
100
AcDbEntity
  8
1
  6
DOT_CENTER
 62
     2
100
AcDbLine
 10
-200.91485230427
 20
4.38535147101105
 30
0.0
 11
-195.91485230427
 21
4.38535147101105
 31
0.0
  0
LINE
  5
2DB
330
3A
100
AcDbEntity
  8
1
  6
DOT_CENTER
 62
     2
100
AcDbLine
 10
-119.3573326447174
 20
6.38535147101103
 30
0.0
 11
-115.8573326447174
 21
6.38535147101105
 31
0.0
  0
LINE
  5
2DC
330
3A
100
AcDbEntity
  8
1
  6
DOT_CENTER
 62
     2
100
AcDbLine
 10
-119.3573326447174
 20
4.38535147101105
 30
0.0
 11
-115.8573326447174
 21
4.38535147101105
 31
0.0
  0
LINE
  5
2DD
330
3A
100
AcDbEntity
  8
1
  6
DOT_CENTER
 62
     2
100
AcDbLine
 10
-61.35733264471736
 20
-47.61464852898897
 30
0.0
 11
-74.35733264471742
 21
-47.61464852898895
 31
0.0
  0
LINE
  5
2DE
330
3A
100
AcDbEntity
  8
1
  6
DOT_CENTER
 62
     2
100
AcDbLine
 10
-119.3573326447174
 20
-45.61464852898896
 30
0.0
 11
-121.327290116345
 21
-45.61464852898895
 31
0.0
  0
LINE
  5
2DF
330
3A
100
AcDbEntity
  8
1
  6
DOT_CENTER
 62
     2
100
AcDbLine
 10
-115.8573326447174
 20
-45.61464852898896
 30
0.0
 11
-119.3573326447174
 21
-45.61464852898896
 31
0.0
  0
LINE
  5
2E0
330
3A
100
AcDbEntity
  8
1
  6
DOT_CENTER
 62
     2
100
AcDbLine
 10
-74.35733264471742
 20
-45.61464852898896
 30
0.0
 11
-84.35733264471742
 21
-45.61464852898895
 31
0.0
  0
LINE
  5
2E1
330
3A
100
AcDbEntity
  8
1
  6
DOT_CENTER
 62
     2
100
AcDbLine
 10
-61.35733264471736
 20
-45.61464852898895
 30
0.0
 11
-74.35733264471742
 21
-45.61464852898896
 31
0.0
  0
LINE
  5
2E2
330
3A
100
AcDbEntity
  8
1
  6
DOT_CENTER
 62
     2
100
AcDbLine
 10
-200.91485230427
 20
-45.61464852898896
 30
0.0
 11
-208.91485230427
 21
-45.61464852898894
 31
0.0
  0
LINE
  5
2E3
330
3A
100
AcDbEntity
  8
1
  6
DOT_CENTER
 62
     2
100
AcDbLine
 10
-158.91485230427
 20
-45.61464852898896
 30
0.0
 11
-163.91485230427
 21
-45.61464852898894
 31
0.0
  0
LINE
  5
2E4
330
3A
100
AcDbEntity
  8
1
  6
DOT_CENTER
 62
     2
100
AcDbLine
 10
-158.91485230427
 20
-47.61464852898895
 30
0.0
 11
-163.91485230427
 21
-47.61464852898895
 31
0.0
  0
LINE
  5
2E5
330
3A
100
AcDbEntity
  8
1
  6
DOT_CENTER
 62
     2
100
AcDbLine
 10
-195.91485230427
 20
6.38535147101105
 30
0.0
 11
-182.91485230427
 21
6.38535147101105
 31
0.0
  0
LINE
  5
2E6
330
3A
100
AcDbEntity
  8
1
  6
DOT_CENTER
 62
     2
100
AcDbLine
 10
-195.91485230427
 20
4.38535147101105
 30
0.0
 11
-182.91485230427
 21
4.38535147101105
 31
0.0
  0
LINE
  5
2E7
330
3A
100
AcDbEntity
  8
1
  6
DOT_CENTER
 62
     2
100
AcDbLine
 10
-115.8573326447174
 20
6.38535147101105
 30
0.0
 11
-90.35733264471742
 21
6.38535147101105
 31
0.0
  0
LINE
  5
2E8
330
3A
100
AcDbEntity
  8
1
  6
DOT_CENTER
 62
     2
100
AcDbLine
 10
-115.8573326447174
 20
4.38535147101105
 30
0.0
 11
-90.35733264471742
 21
4.38535147101105
 31
0.0
  0
LINE
  5
2E9
330
3A
100
AcDbEntity
  8
1
  6
DOT_CENTER
 62
     2
100
AcDbLine
 10
-74.35733264471742
 20
-47.61464852898895
 30
0.0
 11
-84.35733264471742
 21
-47.61464852898895
 31
0.0
  0
LINE
  5
2EA
330
3A
100
AcDbEntity
  8
1
  6
DOT_CENTER
 62
     2
100
AcDbLine
 10
-163.91485230427
 20
-45.61464852898894
 30
0.0
 11
-182.91485230427
 21
-45.61464852898895
 31
0.0
  0
LINE
  5
2EB
330
3A
100
AcDbEntity
  8
1
  6
DOT_CENTER
 62
     2
100
AcDbLine
 10
-163.91485230427
 20
-47.61464852898895
 30
0.0
 11
-182.91485230427
 21
-47.61464852898895
 31
0.0
  0
LINE
  5
2EC
330
3A
100
AcDbEntity
  8
1
  6
DOT_CENTER
 62
     2
100
AcDbLine
 10
-163.9148523042699
 20
6.38535147101105
 30
0.0
 11
-158.91485230427
 21
6.38535147101103
 31
0.0
  0
LINE
  5
2ED
330
3A
100
AcDbEntity
  8
1
  6
DOT_CENTER
 62
     2
100
AcDbLine
 10
-163.9148523042699
 20
4.38535147101105
 30
0.0
 11
-158.91485230427
 21
4.38535147101105
 31
0.0
  0
LINE
  5
2EE
330
3A
100
AcDbEntity
  8
1
  6
DOT_CENTER
 62
     2
100
AcDbLine
 10
-74.35733264471742
 20
6.38535147101105
 30
0.0
 11
-61.35733264471735
 21
6.38535147101105
 31
0.0
  0
LINE
  5
2EF
330
3A
100
AcDbEntity
  8
1
  6
DOT_CENTER
 62
     2
100
AcDbLine
 10
-74.35733264471742
 20
4.38535147101105
 30
0.0
 11
-61.35733264471736
 21
4.38535147101106
 31
0.0
  0
LINE
  5
2F0
330
3A
100
AcDbEntity
  8
1
  6
DOT_CENTER
 62
     2
100
AcDbLine
 10
-115.8573326447174
 20
-47.61464852898895
 30
0.0
 11
-119.3573326447174
 21
-47.61464852898895
 31
0.0
  0
LINE
  5
2F1
330
3A
100
AcDbEntity
  8
1
  6
DOT_CENTER
 62
     2
100
AcDbLine
 10
-195.91485230427
 20
-45.61464852898895
 30
0.0
 11
-200.91485230427
 21
-45.61464852898896
 31
0.0
  0
LINE
  5
2F2
330
3A
100
AcDbEntity
  8
1
  6
DOT_CENTER
 62
     2
100
AcDbLine
 10
-195.91485230427
 20
-47.61464852898895
 30
0.0
 11
-200.91485230427
 21
-47.61464852898895
 31
0.0
  0
LINE
  5
2F3
330
3A
100
AcDbEntity
  8
1
  6
DOT_CENTER
 62
     2
100
AcDbLine
 10
-158.91485230427
 20
6.38535147101103
 30
0.0
 11
-157.147069980412
 21
6.38535147101105
 31
0.0
  0
LINE
  5
2F4
330
3A
100
AcDbEntity
  8
1
  6
DOT_CENTER
 62
     2
100
AcDbLine
 10
-158.91485230427
 20
4.38535147101105
 30
0.0
 11
-157.147069980412
 21
4.38535147101105
 31
0.0
  0
LINE
  5
2F5
330
3A
100
AcDbEntity
  8
1
  6
DOT_CENTER
 62
     2
100
AcDbLine
 10
-61.35733264471735
 20
6.38535147101105
 30
0.0
 11
-58.9649251962632
 21
6.38535147101105
 31
0.0
  0
LINE
  5
2F6
330
3A
100
AcDbEntity
  8
1
  6
DOT_CENTER
 62
     2
100
AcDbLine
 10
-61.35733264471736
 20
4.38535147101106
 30
0.0
 11
-58.9649251962632
 21
4.38535147101105
 31
0.0
  0
LINE
  5
2F7
330
3A
100
AcDbEntity
  8
1
  6
DOT_CENTER
 62
     2
100
AcDbLine
 10
-119.3573326447174
 20
-47.61464852898895
 30
0.0
 11
-121.327290116345
 21
-47.61464852898895
 31
0.0
  0
LINE
  5
2F8
330
3A
100
AcDbEntity
  8
1
  6
DOT_CENTER
 62
     2
100
AcDbLine
 10
-200.91485230427
 20
-47.61464852898895
 30
0.0
 11
-208.91485230427
 21
-47.61464852898894
 31
0.0
  0
LINE
  5
2F9
330
3A
100
AcDbEntity
  8
1
  6
DOT_CENTER
 62
     2
100
AcDbLine
 10
-162.204563032309
 20
-94.61464852898895
 30
0.0
 11
-197.6339311914812
 21
-94.61464852898895
 31
0.0
  0
LINE
  5
2FA
330
3A
100
AcDbEntity
  8
1
  6
DOT_CENTER
 62
     2
100
AcDbLine
 10
-197.6339311914812
 20
53.38535147101105
 30
0.0
 11
-162.204563032309
 21
53.38535147101105
 31
0.0
  0
LINE
  5
2FB
102
{ACAD_REACTORS
330
320
330
320
102
}
330
3A
100
AcDbEntity
  8
1
  6
Continuous
 62
     7
100
AcDbLine
 10
-52.66876032016923
 20
-74.68918859156351
 30
0.0
 11
-49.1687603201692
 21
-74.68918859156351
 31
0.0
  0
LINE
  5
2FC
102
{ACAD_REACTORS
330
320
330
320
102
}
330
3A
100
AcDbEntity
  8
1
  6
Continuous
 62
     7
100
AcDbLine
 10
-52.66876032016923
 20
-74.68918859156351
 30
0.0
 11
-52.66876032016923
 21
-92.68918859156351
 31
0.0
  0
LINE
  5
2FD
102
{ACAD_REACTORS
330
31F
330
31F
102
}
330
3A
100
AcDbEntity
  8
1
  6
Continuous
 62
     7
100
AcDbLine
 10
-17.66876032016936
 20
-55.68918859156344
 30
0.0
 11
-17.66876032016936
 21
-1.12367182724051
 31
0.0
  0
LINE
  5
2FE
330
3A
100
AcDbEntity
  8
1
  6
DOT_CENTER
 62
     2
100
AcDbLine
 10
-17.66876032016936
 20
-1.12367182724051
 30
0.0
 11
-20.0100597014318
 21
-1.12367182724053
 31
0.0
  0
LINE
  5
2FF
330
3A
100
AcDbEntity
  8
1
  6
Continuous
 62
     7
100
AcDbLine
 10
-84.35733264471742
 20
15.38535147101111
 30
0.0
 11
-84.35733264471742
 21
6.38535147101105
 31
0.0
  0
LINE
  5
300
330
3A
100
AcDbEntity
  8
1
  6
DOT_CENTER
 62
     2
100
AcDbLine
 10
-84.35733264471742
 20
6.38535147101105
 30
0.0
 11
-74.35733264471742
 21
6.38535147101105
 31
0.0
  0
LINE
  5
301
330
3A
100
AcDbEntity
  8
1
  6
Continuous
 62
     7
100
AcDbLine
 10
-84.35733264471742
 20
15.38535147101111
 30
0.0
 11
-90.35733264471742
 21
15.38535147101111
 31
0.0
  0
LINE
  5
302
330
3A
100
AcDbEntity
  8
1
  6
Continuous
 62
     7
100
AcDbLine
 10
-84.35733264471742
 20
4.38535147101105
 30
0.0
 11
-84.35733264471742
 21
-45.61464852898895
 31
0.0
  0
LINE
  5
303
330
3A
100
AcDbEntity
  8
1
  6
DOT_CENTER
 62
     2
100
AcDbLine
 10
-84.35733264471742
 20
4.38535147101105
 30
0.0
 11
-74.35733264471742
 21
4.38535147101105
 31
0.0
  0
LINE
  5
304
330
3A
100
AcDbEntity
  8
1
  6
DOT_CENTER
 62
     2
100
AcDbLine
 10
-84.35733264471742
 20
-45.61464852898895
 30
0.0
 11
-90.35733264471742
 21
-45.61464852898895
 31
0.0
  0
LINE
  5
305
330
3A
100
AcDbEntity
  8
1
  6
Continuous
 62
     7
100
AcDbLine
 10
-84.35733264471742
 20
-47.61464852898895
 30
0.0
 11
-84.35733264471742
 21
-56.6146485289887
 31
0.0
  0
LINE
  5
306
330
3A
100
AcDbEntity
  8
1
  6
Continuous
 62
     7
100
AcDbLine
 10
-84.35733264471742
 20
-56.6146485289887
 30
0.0
 11
-74.35733264471742
 21
-56.6146485289887
 31
0.0
  0
LINE
  5
307
330
3A
100
AcDbEntity
  8
1
  6
DOT_CENTER
 62
     2
100
AcDbLine
 10
-84.35733264471742
 20
-47.61464852898895
 30
0.0
 11
-90.35733264471742
 21
-47.61464852898895
 31
0.0
  0
LINE
  5
308
330
3A
100
AcDbEntity
  8
1
  6
DASHED
 62
     2
100
AcDbLine
 10
-84.35733264471742
 20
-56.6146485289887
 30
0.0
 11
-84.35733264471742
 21
-120.614648528989
 31
0.0
  0
LINE
  5
309
330
3A
100
AcDbEntity
  8
1
  6
DOT_CENTER
 62
     2
100
AcDbLine
 10
-84.35733264471742
 20
-120.614648528989
 30
0.0
 11
-74.35733264471742
 21
-120.614648528989
 31
0.0
  0
LINE
  5
30A
330
3A
100
AcDbEntity
  8
1
  6
DASHED
 62
     2
100
AcDbLine
 10
-84.35733264471742
 20
15.38535147101111
 30
0.0
 11
-84.35733264471742
 21
79.385351471011
 31
0.0
  0
LINE
  5
30B
330
3A
100
AcDbEntity
  8
1
  6
DOT_CENTER
 62
     2
100
AcDbLine
 10
-84.35733264471742
 20
79.385351471011
 30
0.0
 11
-74.35733264471742
 21
79.385351471011
 31
0.0
  0
LINE
  5
30C
330
3A
100
AcDbEntity
  8
1
  6
DASHED
 62
     2
100
AcDbLine
 10
-182.91485230427
 20
79.385351471011
 30
0.0
 11
-182.91485230427
 21
69.10158511651277
 31
0.0
  0
LINE
  5
30D
330
3A
100
AcDbEntity
  8
1
  6
DOT_CENTER
 62
     2
100
AcDbLine
 10
-182.91485230427
 20
79.385351471011
 30
0.0
 11
-158.91485230427
 21
79.385351471011
 31
0.0
  0
LINE
  5
30E
330
3A
100
AcDbEntity
  8
1
  6
DASHED
 62
     2
100
AcDbLine
 10
-182.91485230427
 20
-120.614648528989
 30
0.0
 11
-182.91485230427
 21
-110.3308821744903
 31
0.0
  0
LINE
  5
30F
330
3A
100
AcDbEntity
  8
1
  6
DOT_CENTER
 62
     2
100
AcDbLine
 10
-182.91485230427
 20
-120.614648528989
 30
0.0
 11
-158.91485230427
 21
-120.614648528989
 31
0.0
  0
LINE
  5
310
330
3A
100
AcDbEntity
  8
1
  6
Continuous
 62
     7
100
AcDbLine
 10
-182.91485230427
 20
-110.3308821744903
 30
0.0
 11
-182.91485230427
 21
-47.61464852898895
 31
0.0
  0
LINE
  5
311
330
3A
100
AcDbEntity
  8
1
  6
DOT_CENTER
 62
     2
100
AcDbLine
 10
-182.91485230427
 20
-47.61464852898895
 30
0.0
 11
-195.91485230427
 21
-47.61464852898895
 31
0.0
  0
LINE
  5
312
330
3A
100
AcDbEntity
  8
1
  6
Continuous
 62
     7
100
AcDbLine
 10
-182.91485230427
 20
-45.61464852898895
 30
0.0
 11
-182.91485230427
 21
4.38535147101105
 31
0.0
  0
LINE
  5
313
330
3A
100
AcDbEntity
  8
1
  6
DOT_CENTER
 62
     2
100
AcDbLine
 10
-182.91485230427
 20
4.38535147101105
 30
0.0
 11
-163.9148523042699
 21
4.38535147101105
 31
0.0
  0
LINE
  5
314
330
3A
100
AcDbEntity
  8
1
  6
DOT_CENTER
 62
     2
100
AcDbLine
 10
-182.91485230427
 20
-45.61464852898895
 30
0.0
 11
-195.91485230427
 21
-45.61464852898895
 31
0.0
  0
LINE
  5
315
330
3A
100
AcDbEntity
  8
1
  6
Continuous
 62
     7
100
AcDbLine
 10
-182.91485230427
 20
6.38535147101105
 30
0.0
 11
-182.91485230427
 21
69.10158511651277
 31
0.0
  0
LINE
  5
316
330
3A
100
AcDbEntity
  8
1
  6
DOT_CENTER
 62
     2
100
AcDbLine
 10
-182.91485230427
 20
6.38535147101105
 30
0.0
 11
-163.9148523042699
 21
6.38535147101105
 31
0.0
  0
LINE
  5
317
330
3A
100
AcDbEntity
  8
1
  6
Continuous
 62
     7
100
AcDbLine
 10
-49.1687603201692
 20
-74.68918859156351
 30
0.0
 11
-17.66876032016929
 21
-74.68918859156351
 31
0.0
  0
LINE
  5
318
330
3A
100
AcDbEntity
  8
1
  6
Continuous
 62
     7
100
AcDbLine
 10
-17.66876032016929
 20
-74.68918859156351
 30
0.0
 11
-17.66876032016936
 21
-55.68918859156344
 31
0.0
  0
ARC
  5
319
330
3A
100
AcDbEntity
  8
1
  6
Continuous
 62
     7
100
AcDbCircle
 10
-179.91485230427
 20
53.38535147101105
 30
0.0
 40
16.0
100
AcDbArc
 50
0.0
 51
90.0
  0
ARC
  5
31A
330
3A
100
AcDbEntity
  8
1
  6
Continuous
 62
     7
100
AcDbCircle
 10
-179.9148523042697
 20
-94.61464852898895
 30
0.0
 40
15.9999999999997
100
AcDbArc
 50
-100.8069228748617
 51
-90.0
  0
ARC
  5
31B
330
3A
100
AcDbEntity
  8
1
  6
Continuous
 62
     7
100
AcDbCircle
 10
-179.9148523042697
 20
-94.61464852898895
 30
0.0
 40
15.99999999999974
100
AcDbArc
 50
-90.0
 51
0.0
  0
ARC
  5
31C
330
3A
100
AcDbEntity
  8
1
  6
Continuous
 62
     7
100
AcDbCircle
 10
-179.91485230427
 20
53.38535147101105
 30
0.0
 40
16.00000000000001
100
AcDbArc
 50
100.8069228748603
 51
180.0
  0
ARC
  5
31D
330
3A
100
AcDbEntity
  8
1
  6
Continuous
 62
     7
100
AcDbCircle
 10
-179.91485230427
 20
53.38535147101105
 30
0.0
 40
16.00000000000006
100
AcDbArc
 50
90.0
 51
100.8069228748603
  0
ARC
  5
31E
330
3A
100
AcDbEntity
  8
1
  6
Continuous
 62
     7
100
AcDbCircle
 10
-179.9148523042697
 20
-94.61464852898895
 30
0.0
 40
16.00000000000031
100
AcDbArc
 50
180.0
 51
-100.8069228748617
  0
HATCH
  5
31F
330
3A
100
AcDbEntity
  8
1
  6
Continuous
 62
     2
100
AcDbHatch
 10
0.0
 20
0.0
 30
0.0
210
0.0
220
0.0
230
1.0
  2
_USER
 70
     0
 71
     1
 91
        1
 92
        1
 93
        6
 72
     1
 10
5.33123967983078
 20
-1.123671827240528
 11
-17.66876032016936
 21
-1.123671827240514
 72
     1
 10
-17.66876032016936
 20
-1.123671827240514
 11
-17.66876032016936
 21
-55.68918859156344
 72
     1
 10
-17.66876032016936
 20
-55.68918859156344
 11
-7.668760320169241
 21
-55.68918859156351
 72
     1
 10
-7.668760320169241
 20
-55.68918859156351
 11
-7.668760320169355
 21
-47.68918859156351
 72
     1
 10
-7.668760320169355
 20
-47.68918859156351
 11
5.33123967983078
 21
-47.68918859156351
 72
     1
 10
5.33123967983078
 20
-47.68918859156351
 11
5.33123967983078
 21
-1.123671827240528
 97
        6
330
29C
330
2FD
330
2BF
330
299
330
29A
330
29B
 75
     1
 76
     0
 52
45.0
 41
5.0
 77
     0
 78
     1
 53
45.0
 43
0.0
 44
0.0
 45
-3.535533905932737
 46
3.535533905932738
 79
     0
 98
        1
 10
0.0
 20
0.0
  0
HATCH
  5
320
330
3A
100
AcDbEntity
  8
1
  6
Continuous
 62
     2
100
AcDbHatch
 10
0.0
 20
0.0
 30
0.0
210
0.0
220
0.0
230
1.0
  2
_USER
 70
     0
 71
     1
 91
        1
 92
        1
 93
        6
 72
     1
 10
-23.66876032016924
 20
-87.68918859156351
 11
-49.16876032016917
 21
-87.68918859156351
 72
     1
 10
-49.16876032016917
 20
-87.68918859156351
 11
-49.1687603201692
 21
-74.68918859156351
 72
     1
 10
-49.1687603201692
 20
-74.68918859156351
 11
-52.66876032016923
 21
-74.68918859156351
 72
     1
 10
-52.66876032016923
 20
-74.68918859156351
 11
-52.66876032016923
 21
-92.68918859156351
 72
     1
 10
-52.66876032016923
 20
-92.68918859156351
 11
-23.66876032016924
 21
-92.68918859156351
 72
     1
 10
-23.66876032016924
 20
-92.68918859156351
 11
-23.66876032016924
 21
-87.68918859156351
 97
        6
330
267
330
298
330
2FB
330
2FC
330
266
330
268
 75
     1
 76
     0
 52
45.0
 41
5.0
 77
     0
 78
     1
 53
45.0
 43
0.0
 44
0.0
 45
-3.535533905932737
 46
3.535533905932738
 79
     0
 98
        1
 10
0.0
 20
0.0
  0
ENDBLK
  5
3C
330
3A
100
AcDbEntity
  8
0
100
AcDbBlockEnd
  0
BLOCK
  5
3E
330
3D
100
AcDbEntity
  8
0
100
AcDbBlockBegin
  2
5_400520_0_00000_FRAES_4__a_1__Eingecheckt__nur_lesen_
 70
     0
 71
     0
 10
-23.23418651414653
 20
-26.74347679730169
 30
0.0
  3
5_400520_0_00000_FRAES_4__a_1__Eingecheckt__nur_lesen_
  1

  0
LINE
  5
321
330
3D
100
AcDbEntity
  8
1
  6
Continuous
 62
     2
100
AcDbLine
 10
-32.35964134480975
 20
17.74523523072692
 30
0.0
 11
-19.67581872277987
 21
-11.4222643609791
 31
0.0
  0
LINE
  5
322
330
3D
100
AcDbEntity
  8
1
  6
Continuous
 62
     2
100
AcDbLine
 10
-32.35964134480975
 20
17.74523523072692
 30
0.0
 11
16.47629816869522
 21
17.74523523072692
 31
0.0
  0
LINE
  5
323
330
3D
100
AcDbEntity
  8
1
  6
PHANTOM
 62
     2
100
AcDbLine
 10
-21.66876032016944
 20
-65.68918859156348
 30
0.0
 11
-21.66876032016927
 21
-87.68918859156348
 31
0.0
  0
LINE
  5
324
330
3D
100
AcDbEntity
  8
1
  6
PHANTOM
 62
     2
100
AcDbLine
 10
-21.66876032016927
 20
-39.43918859156381
 30
0.0
 11
-21.66876032016944
 21
-65.68918859156348
 31
0.0
  0
LINE
  5
325
330
3D
100
AcDbEntity
  8
1
  6
PHANTOM
 62
     2
100
AcDbLine
 10
-19.41876032016955
 20
-39.43918859156381
 30
0.0
 11
-19.41876032016955
 21
-33.93918859156381
 31
0.0
  0
LINE
  5
326
330
3D
100
AcDbEntity
  8
1
  6
PHANTOM
 62
     2
100
AcDbLine
 10
-19.41876032016955
 20
-33.93918859156381
 30
0.0
 11
-21.66876032016955
 21
-31.68918859156381
 31
0.0
  0
LINE
  5
327
330
3D
100
AcDbEntity
  8
1
  6
PHANTOM
 62
     2
100
AcDbLine
 10
-21.66876032016927
 20
-26.43918859156381
 30
0.0
 11
-21.66876032016927
 21
-33.93918859156381
 31
0.0
  0
LINE
  5
328
330
3D
100
AcDbEntity
  8
1
  6
PHANTOM
 62
     2
100
AcDbLine
 10
-17.66876032016955
 20
-33.93918859156381
 30
0.0
 11
-19.41876032016955
 21
-33.93918859156381
 31
0.0
  0
LINE
  5
329
330
3D
100
AcDbEntity
  8
1
  6
PHANTOM
 62
     2
100
AcDbLine
 10
-19.41876032016955
 20
-39.43918859156381
 30
0.0
 11
-21.66876032016955
 21
-41.68918859156381
 31
0.0
  0
LINE
  5
32A
330
3D
100
AcDbEntity
  8
1
  6
PHANTOM
 62
     2
100
AcDbLine
 10
-21.66876032016927
 20
-33.93918859156381
 30
0.0
 11
-21.66876032016927
 21
-39.43918859156381
 31
0.0
  0
LINE
  5
32B
330
3D
100
AcDbEntity
  8
1
  6
PHANTOM
 62
     2
100
AcDbLine
 10
-17.66876032016955
 20
-39.43918859156381
 30
0.0
 11
-19.41876032016955
 21
-39.43918859156381
 31
0.0
  0
LINE
  5
32C
330
3D
100
AcDbEntity
  8
1
  6
PHANTOM
 62
     2
100
AcDbLine
 10
-16.16876032016944
 20
-36.68918859156381
 30
0.0
 11
-23.16876032016944
 21
-36.68918859156381
 31
0.0
  0
LINE
  5
32D
330
3D
100
AcDbEntity
  8
1
  6
PHANTOM
 62
     2
100
AcDbLine
 10
-19.41876032016955
 20
-26.43918859156381
 30
0.0
 11
-19.41876032016955
 21
-20.93918859156381
 31
0.0
  0
LINE
  5
32E
330
3D
100
AcDbEntity
  8
1
  6
PHANTOM
 62
     2
100
AcDbLine
 10
-19.41876032016955
 20
-20.93918859156381
 30
0.0
 11
-21.66876032016955
 21
-18.68918859156382
 31
0.0
  0
LINE
  5
32F
330
3D
100
AcDbEntity
  8
1
  6
PHANTOM
 62
     2
100
AcDbLine
 10
-21.66876032016944
 20
-6.68918859156382
 30
0.0
 11
-21.66876032016927
 21
-20.93918859156381
 31
0.0
  0
LINE
  5
330
330
3D
100
AcDbEntity
  8
1
  6
PHANTOM
 62
     2
100
AcDbLine
 10
-17.66876032016955
 20
-20.93918859156381
 30
0.0
 11
-19.41876032016955
 21
-20.93918859156381
 31
0.0
  0
LINE
  5
331
330
3D
100
AcDbEntity
  8
1
  6
PHANTOM
 62
     2
100
AcDbLine
 10
-19.41876032016955
 20
-26.43918859156381
 30
0.0
 11
-21.66876032016955
 21
-28.68918859156381
 31
0.0
  0
LINE
  5
332
330
3D
100
AcDbEntity
  8
1
  6
PHANTOM
 62
     2
100
AcDbLine
 10
-21.66876032016927
 20
-20.93918859156381
 30
0.0
 11
-21.66876032016927
 21
-26.43918859156381
 31
0.0
  0
LINE
  5
333
330
3D
100
AcDbEntity
  8
1
  6
PHANTOM
 62
     2
100
AcDbLine
 10
-17.66876032016955
 20
-26.43918859156381
 30
0.0
 11
-19.41876032016955
 21
-26.43918859156381
 31
0.0
  0
LINE
  5
334
330
3D
100
AcDbEntity
  8
1
  6
PHANTOM
 62
     2
100
AcDbLine
 10
-16.16876032016944
 20
-23.68918859156381
 30
0.0
 11
-23.16876032016944
 21
-23.68918859156381
 31
0.0
  0
LINE
  5
335
330
3D
100
AcDbEntity
  8
1
  6
PHANTOM
 62
     2
100
AcDbLine
 10
-13.16876032016944
 20
-80.68918859156348
 30
0.0
 11
-26.16876032016944
 21
-80.68918859156348
 31
0.0
  0
LINE
  5
336
330
3D
100
AcDbEntity
  8
1
  6
PHANTOM
 62
     2
100
AcDbLine
 10
-17.66876032016944
 20
-83.68918859156348
 30
0.0
 11
-21.66876032016944
 21
-83.68918859156348
 31
0.0
  0
LINE
  5
337
330
3D
100
AcDbEntity
  8
1
  6
PHANTOM
 62
     2
100
AcDbLine
 10
-17.66876032016944
 20
-77.68918859156354
 30
0.0
 11
-21.66876032016944
 21
-77.68918859156354
 31
0.0
  0
LINE
  5
338
330
3D
100
AcDbEntity
  8
1
  6
PHANTOM
 62
     2
100
AcDbLine
 10
-17.66876032016944
 20
-83.08918859156346
 30
0.0
 11
-21.66876032016944
 21
-83.08918859156346
 31
0.0
  0
LINE
  5
339
330
3D
100
AcDbEntity
  8
1
  6
PHANTOM
 62
     2
100
AcDbLine
 10
-17.66876032016944
 20
-78.28918859156344
 30
0.0
 11
-21.66876032016944
 21
-78.28918859156344
 31
0.0
  0
LINE
  5
33A
330
3D
100
AcDbEntity
  8
1
  6
PHANTOM
 62
     2
100
AcDbLine
 10
-17.66876032016944
 20
-6.68918859156382
 30
0.0
 11
-21.66876032016944
 21
-6.68918859156382
 31
0.0
  0
LINE
  5
33B
330
3D
100
AcDbEntity
  8
1
  6
PHANTOM
 62
     2
100
AcDbLine
 10
-17.66876032016944
 20
-65.68918859156348
 30
0.0
 11
-21.66876032016944
 21
-65.68918859156348
 31
0.0
  0
LINE
  5
33C
330
3D
100
AcDbEntity
  8
1
  6
PHANTOM
 62
     2
100
AcDbLine
 10
-17.66876032016944
 20
-59.68918859156347
 30
0.0
 11
-21.66876032016944
 21
-59.68918859156347
 31
0.0
  0
LINE
  5
33D
330
3D
100
AcDbEntity
  8
1
  6
PHANTOM
 62
     2
100
AcDbLine
 10
-17.66876032016944
 20
-65.08918859156346
 30
0.0
 11
-21.66876032016944
 21
-65.08918859156346
 31
0.0
  0
LINE
  5
33E
330
3D
100
AcDbEntity
  8
1
  6
PHANTOM
 62
     2
100
AcDbLine
 10
-17.66876032016944
 20
-60.28918859156338
 30
0.0
 11
-21.66876032016944
 21
-60.28918859156338
 31
0.0
  0
LINE
  5
33F
330
3D
100
AcDbEntity
  8
1
  6
PHANTOM
 62
     2
100
AcDbLine
 10
-13.16876032016944
 20
-62.68918859156347
 30
0.0
 11
-26.16876032016944
 21
-62.68918859156347
 31
0.0
  0
LINE
  5
340
330
3D
100
AcDbEntity
  8
1
  6
PHANTOM
 62
     2
100
AcDbLine
 10
-17.66876032016927
 20
-87.68918859156348
 30
0.0
 11
-17.66876032016944
 21
-70.68918859156382
 31
0.0
  0
LINE
  5
341
330
3D
100
AcDbEntity
  8
1
  6
DOT_CENTER
 62
     2
100
AcDbLine
 10
-5.74138118122738
 20
-71.68918859156359
 30
0.0
 11
-45.33540514139833
 21
-71.68918859156359
 31
0.0
  0
MTEXT
  5
342
330
3D
100
AcDbEntity
  8
1
 62
     2
100
AcDbMText
 10
-32.65725901312595
 20
18.18028283311731
 30
0.0
 40
2.5
 41
0.0
 71
     4
 72
     1
  1
Befestigungsplatte kpl.\PTECTUS TE540-3D FZ/1
  7
CONVERTER_11
 73
     1
 44
1.32052821128451
  0
ENDBLK
  5
3F
330
3D
100
AcDbEntity
  8
0
100
AcDbBlockEnd
  0
BLOCK
  5
352
330
34B
100
AcDbEntity
  8
0
100
AcDbBlockBegin
  2
*D5
 70
     1
 71
     0
 10
0.0
 20
0.0
 30
0.0
  3
*D5
  1

  0
LINE
  5
34C
330
34B
100
AcDbEntity
  8
1
  6
Continuous
 62
     2
100
AcDbLine
 10
70.57451042159312
 20
-68.8840854223482
 30
0.0
 11
54.5745104215931
 21
-68.8840854223482
 31
0.0
  0
LINE
  5
34D
330
34B
100
AcDbEntity
  8
1
  6
Continuous
 62
     2
100
AcDbLine
 10
70.57451042159312
 20
-56.6146485289887
 30
0.0
 11
70.57451042159312
 21
-70.8840854223482
 31
0.0
  0
LINE
  5
34E
330
34B
100
AcDbEntity
  8
1
  6
Continuous
 62
     2
100
AcDbLine
 10
54.5745104215931
 20
-56.6146485289887
 30
0.0
 11
54.5745104215931
 21
-70.8840854223482
 31
0.0
  0
SOLID
  5
34F
330
34B
100
AcDbEntity
  8
1
 62
     2
100
AcDbTrace
 10
67.07451042159312
 20
-69.3448691639041
 30
0.0
 11
67.07451042159312
 21
-68.42330168079232
 31
0.0
 12
70.57451042159312
 22
-68.8840854223482
 32
0.0
 13
70.57451042159312
 23
-68.8840854223482
 33
0.0
  0
SOLID
  5
350
330
34B
100
AcDbEntity
  8
1
 62
     2
100
AcDbTrace
 10
58.0745104215931
 20
-68.42330168079232
 30
0.0
 11
58.0745104215931
 21
-69.3448691639041
 31
0.0
 12
54.5745104215931
 22
-68.8840854223482
 32
0.0
 13
54.5745104215931
 23
-68.8840854223482
 33
0.0
  0
MTEXT
  5
351
330
34B
100
AcDbEntity
  8
1
 62
     2
100
AcDbMText
 10
61.10038547341179
 20
-66.8840854223482
 30
0.0
 40
3.5
 41
0.0
 71
     7
 72
     1
  1
16
  7
CONVERTER_11
 11
0.9999999999970621
 21
2.424068405545307E-6
 31
0.0
 73
     1
 44
0.60024009603842
  0
ENDBLK
  5
353
330
34B
100
AcDbEntity
  8
0
100
AcDbBlockEnd
  0
BLOCK
  5
35D
330
356
100
AcDbEntity
  8
0
100
AcDbBlockBegin
  2
*D6
 70
     1
 71
     0
 10
0.0
 20
0.0
 30
0.0
  3
*D6
  1

  0
LINE
  5
357
330
356
100
AcDbEntity
  8
1
  6
Continuous
 62
     2
100
AcDbLine
 10
81.76616542466611
 20
15.38535147101111
 30
0.0
 11
81.76616542466611
 21
-56.6146485289887
 31
0.0
  0
LINE
  5
358
330
356
100
AcDbEntity
  8
1
  6
Continuous
 62
     2
100
AcDbLine
 10
70.5745104215931
 20
15.38535147101111
 30
0.0
 11
83.76616542466611
 21
15.38535147101111
 31
0.0
  0
LINE
  5
359
330
356
100
AcDbEntity
  8
1
  6
Continuous
 62
     2
100
AcDbLine
 10
70.57451042159312
 20
-56.6146485289887
 30
0.0
 11
83.76616542466611
 21
-56.6146485289887
 31
0.0
  0
SOLID
  5
35A
330
356
100
AcDbEntity
  8
1
 62
     2
100
AcDbTrace
 10
82.226949166222
 20
11.88535147101111
 30
0.0
 11
81.30538168311023
 21
11.88535147101111
 31
0.0
 12
81.76616542466611
 22
15.38535147101111
 32
0.0
 13
81.76616542466611
 23
15.38535147101111
 33
0.0
  0
SOLID
  5
35B
330
356
100
AcDbEntity
  8
1
 62
     2
100
AcDbTrace
 10
81.30538168311023
 20
-53.1146485289887
 30
0.0
 11
82.226949166222
 21
-53.1146485289887
 31
0.0
 12
81.76616542466611
 22
-56.6146485289887
 32
0.0
 13
81.76616542466611
 23
-56.6146485289887
 33
0.0
  0
MTEXT
  5
35C
330
356
100
AcDbEntity
  8
1
 62
     2
100
AcDbMText
 10
79.76616542466611
 20
-18.5224730646558
 30
0.0
 40
3.5
 41
0.0
 71
     7
 72
     1
  1
92
  7
CONVERTER_11
 11
0.0
 21
1.0
 31
0.0
 73
     1
 44
0.60024009603842
  0
ENDBLK
  5
35E
330
356
100
AcDbEntity
  8
0
100
AcDbBlockEnd
  0
BLOCK
  5
369
330
361
100
AcDbEntity
  8
0
100
AcDbBlockBegin
  2
*D7
 70
     1
 71
     0
 10
0.0
 20
0.0
 30
0.0
  3
*D7
  1

  0
LINE
  5
362
330
361
100
AcDbEntity
  8
1
  6
Continuous
 62
     2
100
AcDbLine
 10
-99.22890253451921
 20
-67.8759667281186
 30
0.0
 11
-90.35733264471742
 21
-67.8759667281186
 31
0.0
  0
LINE
  5
363
330
361
100
AcDbEntity
  8
1
  6
Continuous
 62
     2
100
AcDbLine
 10
-90.35733264471742
 20
-67.8759667281186
 30
0.0
 11
-74.35733264471742
 21
-67.8759667281186
 31
0.0
  0
LINE
  5
364
330
361
100
AcDbEntity
  8
1
  6
Continuous
 62
     2
100
AcDbLine
 10
-74.35733264471742
 20
-56.6146485289887
 30
0.0
 11
-74.35733264471742
 21
-69.8759667281186
 31
0.0
  0
LINE
  5
365
330
361
100
AcDbEntity
  8
1
  6
Continuous
 62
     2
100
AcDbLine
 10
-90.35733264471742
 20
-56.6146485289887
 30
0.0
 11
-90.35733264471742
 21
-69.8759667281186
 31
0.0
  0
SOLID
  5
366
330
361
100
AcDbEntity
  8
1
 62
     2
100
AcDbTrace
 10
-86.85733264471742
 20
-67.41518298656271
 30
0.0
 11
-86.85733264471742
 21
-68.33675046967448
 31
0.0
 12
-90.35733264471742
 22
-67.8759667281186
 32
0.0
 13
-90.35733264471742
 23
-67.8759667281186
 33
0.0
  0
SOLID
  5
367
330
361
100
AcDbEntity
  8
1
 62
     2
100
AcDbTrace
 10
-77.85733264471742
 20
-68.33675046967448
 30
0.0
 11
-77.85733264471742
 21
-67.41518298656271
 31
0.0
 12
-74.35733264471742
 22
-67.8759667281186
 32
0.0
 13
-74.35733264471742
 23
-67.8759667281186
 33
0.0
  0
MTEXT
  5
368
330
361
100
AcDbEntity
  8
1
 62
     2
100
AcDbMText
 10
-99.22890253451921
 20
-65.8759667281186
 30
0.0
 40
3.5
 41
0.0
 71
     7
 72
     1
  1
16
  7
CONVERTER_11
 11
0.9999999999970621
 21
2.424068405545307E-6
 31
0.0
 73
     1
 44
0.60024009603842
  0
ENDBLK
  5
36A
330
361
100
AcDbEntity
  8
0
100
AcDbBlockEnd
  0
BLOCK
  5
374
330
36D
100
AcDbEntity
  8
0
100
AcDbBlockBegin
  2
*D8
 70
     1
 71
     0
 10
0.0
 20
0.0
 30
0.0
  3
*D8
  1

  0
LINE
  5
36E
330
36D
100
AcDbEntity
  8
1
  6
Continuous
 62
     2
100
AcDbLine
 10
-99.961672611731
 20
-56.6146485289887
 30
0.0
 11
-99.961672611731
 21
15.3853514710111
 31
0.0
  0
LINE
  5
36F
330
36D
100
AcDbEntity
  8
1
  6
Continuous
 62
     2
100
AcDbLine
 10
-90.35733264471742
 20
-56.6146485289887
 30
0.0
 11
-101.961672611731
 21
-56.6146485289887
 31
0.0
  0
LINE
  5
370
330
36D
100
AcDbEntity
  8
1
  6
Continuous
 62
     2
100
AcDbLine
 10
-90.35733264471742
 20
15.38535147101111
 30
0.0
 11
-101.961672611731
 21
15.38535147101111
 31
0.0
  0
SOLID
  5
371
330
36D
100
AcDbEntity
  8
1
 62
     2
100
AcDbTrace
 10
-100.4224563532869
 20
-53.1146485289887
 30
0.0
 11
-99.50088887017512
 21
-53.1146485289887
 31
0.0
 12
-99.961672611731
 22
-56.6146485289887
 32
0.0
 13
-99.961672611731
 23
-56.6146485289887
 33
0.0
  0
SOLID
  5
372
330
36D
100
AcDbEntity
  8
1
 62
     2
100
AcDbTrace
 10
-99.50088887017512
 20
11.8853514710111
 30
0.0
 11
-100.4224563532869
 21
11.8853514710111
 31
0.0
 12
-99.961672611731
 22
15.3853514710111
 32
0.0
 13
-99.961672611731
 23
15.3853514710111
 33
0.0
  0
MTEXT
  5
373
330
36D
100
AcDbEntity
  8
1
 62
     2
100
AcDbMText
 10
-101.961672611731
 20
-18.3098188796581
 30
0.0
 40
3.5
 41
0.0
 71
     7
 72
     1
  1
92
  7
CONVERTER_11
 11
0.0
 21
1.0
 31
0.0
 73
     1
 44
0.60024009603842
  0
ENDBLK
  5
375
330
36D
100
AcDbEntity
  8
0
100
AcDbBlockEnd
  0
BLOCK
  5
37F
330
378
100
AcDbEntity
  8
0
100
AcDbBlockBegin
  2
*D9
 70
     1
 71
     0
 10
0.0
 20
0.0
 30
0.0
  3
*D9
  1

  0
LINE
  5
379
330
378
100
AcDbEntity
  8
1
  6
Continuous
 62
     2
100
AcDbLine
 10
157.787843915321
 20
34.5451568829076
 30
0.0
 11
138.787843915321
 21
34.5451568829076
 31
0.0
  0
LINE
  5
37A
330
378
100
AcDbEntity
  8
1
  6
Continuous
 62
     2
100
AcDbLine
 10
157.787843915321
 20
52.13535147101105
 30
0.0
 11
157.787843915321
 21
32.5451568829076
 31
0.0
  0
LINE
  5
37B
330
378
100
AcDbEntity
  8
1
  6
Continuous
 62
     2
100
AcDbLine
 10
138.787843915321
 20
52.13535147101105
 30
0.0
 11
138.787843915321
 21
32.5451568829076
 31
0.0
  0
SOLID
  5
37C
330
378
100
AcDbEntity
  8
1
 62
     2
100
AcDbTrace
 10
154.287843915321
 20
34.08437314135171
 30
0.0
 11
154.287843915321
 21
35.00594062446348
 31
0.0
 12
157.787843915321
 22
34.5451568829076
 32
0.0
 13
157.787843915321
 23
34.5451568829076
 33
0.0
  0
SOLID
  5
37D
330
378
100
AcDbEntity
  8
1
 62
     2
100
AcDbTrace
 10
142.287843915321
 20
35.00594062446348
 30
0.0
 11
142.287843915321
 21
34.08437314135171
 31
0.0
 12
138.787843915321
 22
34.5451568829076
 32
0.0
 13
138.787843915321
 23
34.5451568829076
 33
0.0
  0
MTEXT
  5
37E
330
378
100
AcDbEntity
  8
1
 62
     2
100
AcDbMText
 10
151.0029885688726
 20
36.5451568829076
 30
0.0
 40
3.5
 41
0.0
 71
     7
 72
     1
  1
19
  7
CONVERTER_11
 11
0.9999999999970621
 21
2.424068405545307E-6
 31
0.0
 73
     1
 44
0.60024009603842
  0
ENDBLK
  5
380
330
378
100
AcDbEntity
  8
0
100
AcDbBlockEnd
  0
BLOCK
  5
38C
330
383
100
AcDbEntity
  8
0
100
AcDbBlockBegin
  2
*D10
 70
     1
 71
     0
 10
0.0
 20
0.0
 30
0.0
  3
*D10
  1

  0
LINE
  5
384
330
383
100
AcDbEntity
  8
1
  6
Continuous
 62
     2
100
AcDbLine
 10
23.4118579323537
 20
-99.68918859156351
 30
0.0
 11
23.4118579323537
 21
-92.68918859156351
 31
0.0
  0
LINE
  5
385
330
383
100
AcDbEntity
  8
1
  6
Continuous
 62
     2
100
AcDbLine
 10
23.4118579323537
 20
-92.68918859156351
 30
0.0
 11
23.4118579323537
 21
-87.68918859156354
 31
0.0
  0
LINE
  5
386
330
383
100
AcDbEntity
  8
1
  6
Continuous
 62
     2
100
AcDbLine
 10
23.4118579323537
 20
-87.68918859156354
 30
0.0
 11
23.4118579323537
 21
-80.68918859156354
 31
0.0
  0
LINE
  5
387
330
383
100
AcDbEntity
  8
1
  6
Continuous
 62
     2
100
AcDbLine
 10
39.33123967983047
 20
-87.68918859156354
 30
0.0
 11
21.4118579323537
 21
-87.68918859156354
 31
0.0
  0
LINE
  5
388
330
383
100
AcDbEntity
  8
1
  6
Continuous
 62
     2
100
AcDbLine
 10
43.83123967983067
 20
-92.68918859156351
 30
0.0
 11
21.4118579323537
 21
-92.68918859156351
 31
0.0
  0
SOLID
  5
389
330
383
100
AcDbEntity
  8
1
 62
     2
100
AcDbTrace
 10
23.87264167390958
 20
-96.18918859156351
 30
0.0
 11
22.95107419079782
 21
-96.18918859156351
 31
0.0
 12
23.4118579323537
 22
-92.68918859156351
 32
0.0
 13
23.4118579323537
 23
-92.68918859156351
 33
0.0
  0
SOLID
  5
38A
330
383
100
AcDbEntity
  8
1
 62
     2
100
AcDbTrace
 10
22.95107419079782
 20
-84.18918859156354
 30
0.0
 11
23.87264167390959
 21
-84.18918859156354
 31
0.0
 12
23.4118579323537
 22
-87.68918859156354
 32
0.0
 13
23.4118579323537
 23
-87.68918859156354
 33
0.0
  0
MTEXT
  5
38B
330
383
100
AcDbEntity
  8
1
 62
     2
100
AcDbMText
 10
21.4118579323537
 20
-84.226156920623
 30
0.0
 40
3.5
 41
0.0
 71
     7
 72
     1
  1
5
  7
CONVERTER_11
 11
0.0
 21
1.0
 31
0.0
 73
     1
 44
0.60024009603842
  0
ENDBLK
  5
38D
330
383
100
AcDbEntity
  8
0
100
AcDbBlockEnd
  0
BLOCK
  5
397
330
390
100
AcDbEntity
  8
0
100
AcDbBlockBegin
  2
*D11
 70
     1
 71
     0
 10
0.0
 20
0.0
 30
0.0
  3
*D11
  1

  0
LINE
  5
391
330
390
100
AcDbEntity
  8
1
  6
Continuous
 62
     2
100
AcDbLine
 10
164.287843915321
 20
-128.729476198668
 30
0.0
 11
132.287843915321
 21
-128.729476198668
 31
0.0
  0
LINE
  5
392
330
390
100
AcDbEntity
  8
1
  6
Continuous
 62
     2
100
AcDbLine
 10
164.287843915321
 20
-94.61464852898891
 30
0.0
 11
164.287843915321
 21
-130.729476198668
 31
0.0
  0
LINE
  5
393
330
390
100
AcDbEntity
  8
1
  6
Continuous
 62
     2
100
AcDbLine
 10
132.287843915321
 20
-94.61464852898891
 30
0.0
 11
132.287843915321
 21
-130.729476198668
 31
0.0
  0
SOLID
  5
394
330
390
100
AcDbEntity
  8
1
 62
     2
100
AcDbTrace
 10
160.787843915321
 20
-129.1902599402239
 30
0.0
 11
160.787843915321
 21
-128.2686924571121
 31
0.0
 12
164.287843915321
 22
-128.729476198668
 32
0.0
 13
164.287843915321
 23
-128.729476198668
 33
0.0
  0
SOLID
  5
395
330
390
100
AcDbEntity
  8
1
 62
     2
100
AcDbTrace
 10
135.787843915321
 20
-128.2686924571121
 30
0.0
 11
135.787843915321
 21
-129.1902599402239
 31
0.0
 12
132.287843915321
 22
-128.729476198668
 32
0.0
 13
132.287843915321
 23
-128.729476198668
 33
0.0
  0
MTEXT
  5
396
330
390
100
AcDbEntity
  8
1
 62
     2
100
AcDbMText
 10
146.7311631501281
 20
-126.729476198668
 30
0.0
 40
3.5
 41
0.0
 71
     7
 72
     1
  1
32
  7
CONVERTER_11
 11
0.9999999999970621
 21
2.424068405545307E-6
 31
0.0
 73
     1
 44
0.60024009603842
  0
ENDBLK
  5
398
330
390
100
AcDbEntity
  8
0
100
AcDbBlockEnd
  0
BLOCK
  5
3A2
330
39B
100
AcDbEntity
  8
0
100
AcDbBlockBegin
  2
*D12
 70
     1
 71
     0
 10
0.0
 20
0.0
 30
0.0
  3
*D12
  1

  0
LINE
  5
39C
330
39B
100
AcDbEntity
  8
1
  6
Continuous
 62
     2
100
AcDbLine
 10
124.3742114205561
 20
47.88535147101105
 30
0.0
 11
124.3742114205561
 21
-89.11464852898895
 31
0.0
  0
LINE
  5
39D
330
39B
100
AcDbEntity
  8
1
  6
Continuous
 62
     2
100
AcDbLine
 10
144.287843915321
 20
47.88535147101105
 30
0.0
 11
122.3742114205561
 21
47.88535147101105
 31
0.0
  0
LINE
  5
39E
330
39B
100
AcDbEntity
  8
1
  6
Continuous
 62
     2
100
AcDbLine
 10
144.287843915321
 20
-89.11464852898895
 30
0.0
 11
122.3742114205561
 21
-89.11464852898895
 31
0.0
  0
SOLID
  5
39F
330
39B
100
AcDbEntity
  8
1
 62
     2
100
AcDbTrace
 10
124.834995162112
 20
44.38535147101105
 30
0.0
 11
123.9134276790002
 21
44.38535147101105
 31
0.0
 12
124.3742114205561
 22
47.88535147101105
 32
0.0
 13
124.3742114205561
 23
47.88535147101105
 33
0.0
  0
SOLID
  5
3A0
330
39B
100
AcDbEntity
  8
1
 62
     2
100
AcDbTrace
 10
123.9134276790002
 20
-85.61464852898895
 30
0.0
 11
124.834995162112
 21
-85.61464852898895
 31
0.0
 12
124.3742114205561
 22
-89.11464852898895
 32
0.0
 13
124.3742114205561
 23
-89.11464852898895
 33
0.0
  0
MTEXT
  5
3A1
330
39B
100
AcDbEntity
  8
1
 62
     2
100
AcDbMText
 10
122.3742114205561
 20
-19.21032038282324
 30
0.0
 40
3.5
 41
0.0
 71
     7
 72
     1
  1
157
  7
CONVERTER_11
 11
0.0
 21
1.0
 31
0.0
 73
     1
 44
0.60024009603842
  0
ENDBLK
  5
3A3
330
39B
100
AcDbEntity
  8
0
100
AcDbBlockEnd
  0
BLOCK
  5
3AD
330
3A6
100
AcDbEntity
  8
0
100
AcDbBlockBegin
  2
*D13
 70
     1
 71
     0
 10
0.0
 20
0.0
 30
0.0
  3
*D13
  1

  0
LINE
  5
3A7
330
3A6
100
AcDbEntity
  8
1
  6
Continuous
 62
     2
100
AcDbLine
 10
54.57451042159308
 20
-138.6142090488623
 30
0.0
 11
98.07451042159308
 21
-138.6142090488623
 31
0.0
  0
LINE
  5
3A8
330
3A6
100
AcDbEntity
  8
1
  6
Continuous
 62
     2
100
AcDbLine
 10
98.07451042159308
 20
-89.11464852898894
 30
0.0
 11
98.07451042159308
 21
-140.6142090488623
 31
0.0
  0
LINE
  5
3A9
330
3A6
100
AcDbEntity
  8
1
  6
Continuous
 62
     2
100
AcDbLine
 10
54.57451042159308
 20
-110.614648528989
 30
0.0
 11
54.57451042159308
 21
-140.6142090488623
 31
0.0
  0
SOLID
  5
3AA
330
3A6
100
AcDbEntity
  8
1
 62
     2
100
AcDbTrace
 10
58.07451042159308
 20
-138.1534253073064
 30
0.0
 11
58.07451042159308
 21
-139.0749927904182
 31
0.0
 12
54.57451042159308
 22
-138.6142090488623
 32
0.0
 13
54.57451042159308
 23
-138.6142090488623
 33
0.0
  0
SOLID
  5
3AB
330
3A6
100
AcDbEntity
  8
1
 62
     2
100
AcDbTrace
 10
94.57451042159308
 20
-139.0749927904182
 30
0.0
 11
94.57451042159308
 21
-138.1534253073064
 31
0.0
 12
98.07451042159308
 22
-138.6142090488623
 32
0.0
 13
98.07451042159308
 23
-138.6142090488623
 33
0.0
  0
MTEXT
  5
3AC
330
3A6
100
AcDbEntity
  8
1
 62
     2
100
AcDbMText
 10
71.62425197803731
 20
-136.6142090488623
 30
0.0
 40
3.5
 41
0.0
 71
     7
 72
     1
  1
43.5
  7
CONVERTER_11
 11
0.9999999999970621
 21
2.424068405545307E-6
 31
0.0
 73
     1
 44
0.60024009603842
  0
ENDBLK
  5
3AE
330
3A6
100
AcDbEntity
  8
0
100
AcDbBlockEnd
  0
BLOCK
  5
3B8
330
3B1
100
AcDbEntity
  8
0
100
AcDbBlockBegin
  2
*D14
 70
     1
 71
     0
 10
0.0
 20
0.0
 30
0.0
  3
*D14
  1

  0
LINE
  5
3B2
330
3B1
100
AcDbEntity
  8
1
  6
Continuous
 62
     2
100
AcDbLine
 10
64.5745104215931
 20
-128.729476198668
 30
0.0
 11
54.5745104215931
 21
-128.729476198668
 31
0.0
  0
LINE
  5
3B3
330
3B1
100
AcDbEntity
  8
1
  6
Continuous
 62
     2
100
AcDbLine
 10
54.5745104215931
 20
-120.614648528989
 30
0.0
 11
54.5745104215931
 21
-130.729476198668
 31
0.0
  0
LINE
  5
3B4
330
3B1
100
AcDbEntity
  8
1
  6
Continuous
 62
     2
100
AcDbLine
 10
64.5745104215931
 20
-110.614648528989
 30
0.0
 11
64.5745104215931
 21
-130.729476198668
 31
0.0
  0
SOLID
  5
3B5
330
3B1
100
AcDbEntity
  8
1
 62
     2
100
AcDbTrace
 10
61.0745104215931
 20
-129.1902599402239
 30
0.0
 11
61.0745104215931
 21
-128.2686924571121
 31
0.0
 12
64.5745104215931
 22
-128.729476198668
 32
0.0
 13
64.5745104215931
 23
-128.729476198668
 33
0.0
  0
SOLID
  5
3B6
330
3B1
100
AcDbEntity
  8
1
 62
     2
100
AcDbTrace
 10
58.0745104215931
 20
-128.2686924571121
 30
0.0
 11
58.0745104215931
 21
-129.1902599402239
 31
0.0
 12
54.5745104215931
 22
-128.729476198668
 32
0.0
 13
54.5745104215931
 23
-128.729476198668
 33
0.0
  0
MTEXT
  5
3B7
330
3B1
100
AcDbEntity
  8
1
 62
     2
100
AcDbMText
 10
57.95602208558331
 20
-126.729476198668
 30
0.0
 40
3.5
 41
0.0
 71
     7
 72
     1
  1
10
  7
CONVERTER_11
 11
0.9999999999970621
 21
2.424068405545307E-6
 31
0.0
 73
     1
 44
0.60024009603842
  0
ENDBLK
  5
3B9
330
3B1
100
AcDbEntity
  8
0
100
AcDbBlockEnd
  0
BLOCK
  5
3C3
330
3BC
100
AcDbEntity
  8
0
100
AcDbBlockBegin
  2
*D15
 70
     1
 71
     0
 10
0.0
 20
0.0
 30
0.0
  3
*D15
  1

  0
LINE
  5
3BD
330
3BC
100
AcDbEntity
  8
1
  6
Continuous
 62
     2
100
AcDbLine
 10
-126.444265640198
 20
69.3853514710111
 30
0.0
 11
-126.444265640198
 21
-110.6146485289887
 31
0.0
  0
LINE
  5
3BE
330
3BC
100
AcDbEntity
  8
1
  6
Continuous
 62
     2
100
AcDbLine
 10
-179.9148523042697
 20
-110.6146485289887
 30
0.0
 11
-124.444265640198
 21
-110.6146485289887
 31
0.0
  0
LINE
  5
3BF
330
3BC
100
AcDbEntity
  8
1
  6
Continuous
 62
     2
100
AcDbLine
 10
-179.91485230427
 20
69.38535147101109
 30
0.0
 11
-124.444265640198
 21
69.38535147101109
 31
0.0
  0
SOLID
  5
3C0
330
3BC
100
AcDbEntity
  8
1
 62
     2
100
AcDbTrace
 10
-125.9834818986421
 20
65.8853514710111
 30
0.0
 11
-126.9050493817539
 21
65.8853514710111
 31
0.0
 12
-126.444265640198
 22
69.3853514710111
 32
0.0
 13
-126.444265640198
 23
69.3853514710111
 33
0.0
  0
SOLID
  5
3C1
330
3BC
100
AcDbEntity
  8
1
 62
     2
100
AcDbTrace
 10
-126.9050493817539
 20
-107.1146485289887
 30
0.0
 11
-125.9834818986421
 21
-107.1146485289887
 31
0.0
 12
-126.444265640198
 22
-110.6146485289887
 32
0.0
 13
-126.444265640198
 23
-110.6146485289887
 33
0.0
  0
MTEXT
  5
3C2
330
3BC
100
AcDbEntity
  8
1
 62
     2
100
AcDbMText
 10
-128.444265640198
 20
-24.45914290622809
 30
0.0
 40
3.5
 41
0.0
 71
     7
 72
     1
  1
200
  7
CONVERTER_11
 11
0.0
 21
1.0
 31
0.0
 73
     1
 44
0.60024009603842
  0
ENDBLK
  5
3C4
330
3BC
100
AcDbEntity
  8
0
100
AcDbBlockEnd
  0
BLOCK
  5
3D0
330
3C7
100
AcDbEntity
  8
0
100
AcDbBlockBegin
  2
*D16
 70
     1
 71
     0
 10
0.0
 20
0.0
 30
0.0
  3
*D16
  1

  0
LINE
  5
3C8
330
3C7
100
AcDbEntity
  8
1
  6
Continuous
 62
     2
100
AcDbLine
 10
-30.17515141969547
 20
-99.68918859156351
 30
0.0
 11
-30.17515141969547
 21
-92.68918859156351
 31
0.0
  0
LINE
  5
3C9
330
3C7
100
AcDbEntity
  8
1
  6
Continuous
 62
     2
100
AcDbLine
 10
-30.17515141969547
 20
-92.68918859156351
 30
0.0
 11
-30.17515141969547
 21
-87.68918859156351
 31
0.0
  0
LINE
  5
3CA
330
3C7
100
AcDbEntity
  8
1
  6
Continuous
 62
     2
100
AcDbLine
 10
-30.17515141969547
 20
-87.68918859156351
 30
0.0
 11
-30.17515141969547
 21
-80.68918859156351
 31
0.0
  0
LINE
  5
3CB
330
3C7
100
AcDbEntity
  8
1
  6
Continuous
 62
     2
100
AcDbLine
 10
-49.16876032016917
 20
-87.68918859156351
 30
0.0
 11
-28.17515141969547
 21
-87.68918859156351
 31
0.0
  0
LINE
  5
3CC
330
3C7
100
AcDbEntity
  8
1
  6
Continuous
 62
     2
100
AcDbLine
 10
-52.66876032016923
 20
-92.68918859156351
 30
0.0
 11
-28.17515141969547
 21
-92.68918859156351
 31
0.0
  0
SOLID
  5
3CD
330
3C7
100
AcDbEntity
  8
1
 62
     2
100
AcDbTrace
 10
-29.71436767813959
 20
-96.18918859156351
 30
0.0
 11
-30.63593516125136
 21
-96.18918859156351
 31
0.0
 12
-30.17515141969547
 22
-92.68918859156351
 32
0.0
 13
-30.17515141969547
 23
-92.68918859156351
 33
0.0
  0
SOLID
  5
3CE
330
3C7
100
AcDbEntity
  8
1
 62
     2
100
AcDbTrace
 10
-30.63593516125136
 20
-84.18918859156351
 30
0.0
 11
-29.71436767813959
 21
-84.18918859156351
 31
0.0
 12
-30.17515141969547
 22
-87.68918859156351
 32
0.0
 13
-30.17515141969547
 23
-87.68918859156351
 33
0.0
  0
MTEXT
  5
3CF
330
3C7
100
AcDbEntity
  8
1
 62
     2
100
AcDbMText
 10
-31.754086635169
 20
-84.3647619791637
 30
0.0
 40
3.5
 41
0.0
 71
     7
 72
     1
  1
5
  7
CONVERTER_11
 11
0.0
 21
1.0
 31
0.0
 73
     1
 44
0.60024009603842
  0
ENDBLK
  5
3D1
330
3C7
100
AcDbEntity
  8
0
100
AcDbBlockEnd
  0
BLOCK
  5
3DB
330
3D4
100
AcDbEntity
  8
0
100
AcDbBlockBegin
  2
*D17
 70
     1
 71
     0
 10
0.0
 20
0.0
 30
0.0
  3
*D17
  1

  0
LINE
  5
3D5
330
3D4
100
AcDbEntity
  8
1
  6
Continuous
 62
     2
100
AcDbLine
 10
-74.35733264471742
 20
-131.2746447316279
 30
0.0
 11
-115.8573326447174
 21
-131.2746447316279
 31
0.0
  0
LINE
  5
3D6
330
3D4
100
AcDbEntity
  8
1
  6
Continuous
 62
     2
100
AcDbLine
 10
-115.8573326447174
 20
-89.11464852898898
 30
0.0
 11
-115.8573326447174
 21
-133.2746447316279
 31
0.0
  0
LINE
  5
3D7
330
3D4
100
AcDbEntity
  8
1
  6
Continuous
 62
     2
100
AcDbLine
 10
-74.35733264471742
 20
-110.6146485289887
 30
0.0
 11
-74.35733264471742
 21
-133.2746447316279
 31
0.0
  0
SOLID
  5
3D8
330
3D4
100
AcDbEntity
  8
1
 62
     2
100
AcDbTrace
 10
-77.85733264471742
 20
-131.7354284731838
 30
0.0
 11
-77.85733264471742
 21
-130.813860990072
 31
0.0
 12
-74.35733264471742
 22
-131.2746447316279
 32
0.0
 13
-74.35733264471742
 23
-131.2746447316279
 33
0.0
  0
SOLID
  5
3D9
330
3D4
100
AcDbEntity
  8
1
 62
     2
100
AcDbTrace
 10
-112.3573326447174
 20
-130.813860990072
 30
0.0
 11
-112.3573326447174
 21
-131.7354284731838
 31
0.0
 12
-115.8573326447174
 22
-131.2746447316279
 32
0.0
 13
-115.8573326447174
 23
-131.2746447316279
 33
0.0
  0
MTEXT
  5
3DA
330
3D4
100
AcDbEntity
  8
1
 62
     2
100
AcDbMText
 10
-99.64960698113445
 20
-129.2746447316279
 30
0.0
 40
3.5
 41
0.0
 71
     7
 72
     1
  1
41.5
  7
CONVERTER_11
 11
0.9999999999970621
 21
2.424068405545307E-6
 31
0.0
 73
     1
 44
0.60024009603842
  0
ENDBLK
  5
3DC
330
3D4
100
AcDbEntity
  8
0
100
AcDbBlockEnd
  0
BLOCK
  5
3E8
330
3DF
100
AcDbEntity
  8
0
100
AcDbBlockBegin
  2
*D18
 70
     1
 71
     0
 10
0.0
 20
0.0
 30
0.0
  3
*D18
  1

  0
LINE
  5
3E0
330
3DF
100
AcDbEntity
  8
1
  6
Continuous
 62
     2
100
AcDbLine
 10
164.287843915321
 20
-128.729476198668
 30
0.0
 11
157.287843915321
 21
-128.729476198668
 31
0.0
  0
LINE
  5
3E1
330
3DF
100
AcDbEntity
  8
1
  6
Continuous
 62
     2
100
AcDbLine
 10
169.287843915321
 20
-128.729476198668
 30
0.0
 11
164.287843915321
 21
-128.729476198668
 31
0.0
  0
LINE
  5
3E2
330
3DF
100
AcDbEntity
  8
1
  6
Continuous
 62
     2
100
AcDbLine
 10
176.287843915321
 20
-128.729476198668
 30
0.0
 11
169.287843915321
 21
-128.729476198668
 31
0.0
  0
LINE
  5
3E3
330
3DF
100
AcDbEntity
  8
1
  6
Continuous
 62
     2
100
AcDbLine
 10
169.287843915321
 20
-120.614648528989
 30
0.0
 11
169.287843915321
 21
-130.729476198668
 31
0.0
  0
LINE
  5
3E4
330
3DF
100
AcDbEntity
  8
1
  6
Continuous
 62
     2
100
AcDbLine
 10
164.287843915321
 20
-94.61464852898892
 30
0.0
 11
164.287843915321
 21
-130.729476198668
 31
0.0
  0
SOLID
  5
3E5
330
3DF
100
AcDbEntity
  8
1
 62
     2
100
AcDbTrace
 10
172.787843915321
 20
-128.2686924571121
 30
0.0
 11
172.787843915321
 21
-129.1902599402239
 31
0.0
 12
169.287843915321
 22
-128.729476198668
 32
0.0
 13
169.287843915321
 23
-128.729476198668
 33
0.0
  0
SOLID
  5
3E6
330
3DF
100
AcDbEntity
  8
1
 62
     2
100
AcDbTrace
 10
160.787843915321
 20
-129.1902599402239
 30
0.0
 11
160.787843915321
 21
-128.2686924571121
 31
0.0
 12
164.287843915321
 22
-128.729476198668
 32
0.0
 13
164.287843915321
 23
-128.729476198668
 33
0.0
  0
MTEXT
  5
3E7
330
3DF
100
AcDbEntity
  8
1
 62
     2
100
AcDbMText
 10
173.4013013909486
 20
-126.729476198668
 30
0.0
 40
3.5
 41
0.0
 71
     7
 72
     1
  1
5
  7
CONVERTER_11
 11
0.9999999999970621
 21
2.424068405545307E-6
 31
0.0
 73
     1
 44
0.60024009603842
  0
ENDBLK
  5
3E9
330
3DF
100
AcDbEntity
  8
0
100
AcDbBlockEnd
  0
BLOCK
  5
3F5
330
3EC
100
AcDbEntity
  8
0
100
AcDbBlockBegin
  2
*D19
 70
     1
 71
     0
 10
0.0
 20
0.0
 30
0.0
  3
*D19
  1

  0
LINE
  5
3ED
330
3EC
100
AcDbEntity
  8
1
  6
Continuous
 62
     2
100
AcDbLine
 10
-195.91485230427
 20
-130.2566310837739
 30
0.0
 11
-188.91485230427
 21
-130.2566310837739
 31
0.0
  0
LINE
  5
3EE
330
3EC
100
AcDbEntity
  8
1
  6
Continuous
 62
     2
100
AcDbLine
 10
-200.91485230427
 20
-130.2566310837739
 30
0.0
 11
-195.91485230427
 21
-130.2566310837739
 31
0.0
  0
LINE
  5
3EF
330
3EC
100
AcDbEntity
  8
1
  6
Continuous
 62
     2
100
AcDbLine
 10
-207.91485230427
 20
-130.2566310837739
 30
0.0
 11
-200.91485230427
 21
-130.2566310837739
 31
0.0
  0
LINE
  5
3F0
330
3EC
100
AcDbEntity
  8
1
  6
Continuous
 62
     2
100
AcDbLine
 10
-200.91485230427
 20
-120.614648528989
 30
0.0
 11
-200.91485230427
 21
-132.2566310837739
 31
0.0
  0
LINE
  5
3F1
330
3EC
100
AcDbEntity
  8
1
  6
Continuous
 62
     2
100
AcDbLine
 10
-195.91485230427
 20
-94.61464852898895
 30
0.0
 11
-195.91485230427
 21
-132.2566310837739
 31
0.0
  0
SOLID
  5
3F2
330
3EC
100
AcDbEntity
  8
1
 62
     2
100
AcDbTrace
 10
-204.41485230427
 20
-130.7174148253298
 30
0.0
 11
-204.41485230427
 21
-129.795847342218
 31
0.0
 12
-200.91485230427
 22
-130.2566310837739
 32
0.0
 13
-200.91485230427
 23
-130.2566310837739
 33
0.0
  0
SOLID
  5
3F3
330
3EC
100
AcDbEntity
  8
1
 62
     2
100
AcDbTrace
 10
-192.41485230427
 20
-129.795847342218
 30
0.0
 11
-192.41485230427
 21
-130.7174148253298
 31
0.0
 12
-195.91485230427
 22
-130.2566310837739
 32
0.0
 13
-195.91485230427
 23
-130.2566310837739
 33
0.0
  0
MTEXT
  5
3F4
330
3EC
100
AcDbEntity
  8
1
 62
     2
100
AcDbMText
 10
-204.826615557664
 20
-128.2566310837739
 30
0.0
 40
3.5
 41
0.0
 71
     7
 72
     1
  1
5
  7
CONVERTER_11
 11
0.9999999999970621
 21
2.424068405545307E-6
 31
0.0
 73
     1
 44
0.60024009603842
  0
ENDBLK
  5
3F6
330
3EC
100
AcDbEntity
  8
0
100
AcDbBlockEnd
  0
BLOCK
  5
400
330
3F9
100
AcDbEntity
  8
0
100
AcDbBlockBegin
  2
*D20
 70
     1
 71
     0
 10
0.0
 20
0.0
 30
0.0
  3
*D20
  1

  0
LINE
  5
3FA
330
3F9
100
AcDbEntity
  8
1
  6
Continuous
 62
     2
100
AcDbLine
 10
-195.91485230427
 20
-130.2566310837739
 30
0.0
 11
-163.91485230427
 21
-130.2566310837739
 31
0.0
  0
LINE
  5
3FB
330
3F9
100
AcDbEntity
  8
1
  6
Continuous
 62
     2
100
AcDbLine
 10
-195.91485230427
 20
-94.61464852898897
 30
0.0
 11
-195.91485230427
 21
-132.2566310837739
 31
0.0
  0
LINE
  5
3FC
330
3F9
100
AcDbEntity
  8
1
  6
Continuous
 62
     2
100
AcDbLine
 10
-163.91485230427
 20
-94.61464852898897
 30
0.0
 11
-163.91485230427
 21
-132.2566310837739
 31
0.0
  0
SOLID
  5
3FD
330
3F9
100
AcDbEntity
  8
1
 62
     2
100
AcDbTrace
 10
-192.41485230427
 20
-129.795847342218
 30
0.0
 11
-192.41485230427
 21
-130.7174148253298
 31
0.0
 12
-195.91485230427
 22
-130.2566310837739
 32
0.0
 13
-195.91485230427
 23
-130.2566310837739
 33
0.0
  0
SOLID
  5
3FE
330
3F9
100
AcDbEntity
  8
1
 62
     2
100
AcDbTrace
 10
-167.41485230427
 20
-130.7174148253298
 30
0.0
 11
-167.41485230427
 21
-129.795847342218
 31
0.0
 12
-163.91485230427
 22
-130.2566310837739
 32
0.0
 13
-163.91485230427
 23
-130.2566310837739
 33
0.0
  0
MTEXT
  5
3FF
330
3F9
100
AcDbEntity
  8
1
 62
     2
100
AcDbMText
 10
-183.077925376808
 20
-128.2566310837739
 30
0.0
 40
3.5
 41
0.0
 71
     7
 72
     1
  1
32
  7
CONVERTER_11
 11
0.9999999999970621
 21
2.424068405545307E-6
 31
0.0
 73
     1
 44
0.60024009603842
  0
ENDBLK
  5
401
330
3F9
100
AcDbEntity
  8
0
100
AcDbBlockEnd
  0
BLOCK
  5
40B
330
404
100
AcDbEntity
  8
0
100
AcDbBlockBegin
  2
*D21
 70
     1
 71
     0
 10
0.0
 20
0.0
 30
0.0
  3
*D21
  1

  0
LINE
  5
405
330
404
100
AcDbEntity
  8
1
  6
Continuous
 62
     2
100
AcDbLine
 10
116.6505966278901
 20
54.38535147101105
 30
0.0
 11
116.6505966278901
 21
-95.61464852898895
 31
0.0
  0
LINE
  5
406
330
404
100
AcDbEntity
  8
1
  6
Continuous
 62
     2
100
AcDbLine
 10
136.537843915321
 20
54.38535147101105
 30
0.0
 11
114.6505966278901
 21
54.38535147101105
 31
0.0
  0
LINE
  5
407
330
404
100
AcDbEntity
  8
1
  6
Continuous
 62
     2
100
AcDbLine
 10
136.537843915321
 20
-95.61464852898895
 30
0.0
 11
114.6505966278901
 21
-95.61464852898895
 31
0.0
  0
SOLID
  5
408
330
404
100
AcDbEntity
  8
1
 62
     2
100
AcDbTrace
 10
117.111380369446
 20
50.88535147101105
 30
0.0
 11
116.1898128863342
 21
50.88535147101105
 31
0.0
 12
116.6505966278901
 22
54.38535147101105
 32
0.0
 13
116.6505966278901
 23
54.38535147101105
 33
0.0
  0
SOLID
  5
409
330
404
100
AcDbEntity
  8
1
 62
     2
100
AcDbTrace
 10
116.1898128863342
 20
-92.11464852898895
 30
0.0
 11
117.111380369446
 21
-92.11464852898895
 31
0.0
 12
116.6505966278901
 22
-95.61464852898895
 32
0.0
 13
116.6505966278901
 23
-95.61464852898895
 33
0.0
  0
MTEXT
  5
40A
330
404
100
AcDbEntity
  8
1
 62
     2
100
AcDbMText
 10
114.6505966278901
 20
-21.28964852898897
 30
0.0
 40
3.5
 41
0.0
 71
     7
 72
     1
  1
170
  7
CONVERTER_11
 11
0.0
 21
1.0
 31
0.0
 73
     1
 44
0.60024009603842
  0
ENDBLK
  5
40C
330
404
100
AcDbEntity
  8
0
100
AcDbBlockEnd
  0
BLOCK
  5
413
330
40F
100
AcDbEntity
  8
0
100
AcDbBlockBegin
  2
*D22
 70
     1
 71
     0
 10
0.0
 20
0.0
 30
0.0
  3
*D22
  1

  0
LINE
  5
410
330
40F
100
AcDbEntity
  8
1
  6
Continuous
 62
     2
100
AcDbLine
 10
151.6046772707533
 20
-76.54601008087461
 30
0.0
 11
161.5109269320541
 21
-84.79154501562007
 31
0.0
  0
SOLID
  5
411
330
40F
100
AcDbEntity
  8
1
 62
     2
100
AcDbTrace
 10
158.5260786282864
 20
-82.9066040987802
 30
0.0
 11
159.1156434760609
 21
-82.19829631525842
 31
0.0
 12
161.5109269320541
 22
-84.79154501562007
 32
0.0
 13
161.5109269320541
 23
-84.79154501562007
 33
0.0
  0
MTEXT
  5
412
330
40F
100
AcDbEntity
  8
1
 62
     2
100
AcDbMText
 10
154.2729488458866
 20
-75.41929301966293
 30
0.0
 40
3.5
 41
0.0
 71
     7
 72
     1
  1
\C2;R\C2;12
  7
CONVERTER_11
 11
0.7685902513944264
 21
-0.6397413738859262
 31
0.0
 73
     1
 44
0.60024009603842
  0
ENDBLK
  5
414
330
40F
100
AcDbEntity
  8
0
100
AcDbBlockEnd
  0
BLOCK
  5
41B
330
416
100
AcDbEntity
  8
0
100
AcDbBlockBegin
  2
*D23
 70
     1
 71
     0
 10
0.0
 20
0.0
 30
0.0
  3
*D23
  1

  0
LINE
  5
417
330
416
100
AcDbEntity
  8
1
  6
Continuous
 62
     2
100
AcDbLine
 10
152.1726683544798
 20
-85.56868016934696
 30
0.0
 11
105.519567664517
 21
-139.092062456045
 31
0.0
  0
SOLID
  5
418
330
416
100
AcDbEntity
  8
1
 62
     2
100
AcDbTrace
 10
138.3554070086875
 20
-100.7194428748531
 30
0.0
 11
139.0501128664795
 21
-101.3249760259509
 31
0.0
 12
136.4030194761622
 22
-103.660616888631
 32
0.0
 13
136.4030194761622
 23
-103.660616888631
 33
0.0
  0
SOLID
  5
419
330
416
100
AcDbEntity
  8
1
 62
     2
100
AcDbTrace
 10
150.2202808219545
 20
-88.50985418312479
 30
0.0
 11
149.5255749641625
 21
-87.90432103202698
 31
0.0
 12
152.1726683544798
 22
-85.56868016934696
 32
0.0
 13
152.1726683544798
 23
-85.56868016934696
 33
0.0
  0
MTEXT
  5
41A
330
416
100
AcDbEntity
  8
1
 62
     2
100
AcDbMText
 10
105.0237920742688
 20
-136.6170257766978
 30
0.0
 40
3.5
 41
0.0
 71
     7
 72
     1
  1
\C2;Fräser ø\C2;24
  7
CONVERTER_11
 11
0.6570687032632325
 21
0.7538306966368338
 31
0.0
 73
     1
 44
0.60024009603842
  0
ENDBLK
  5
41C
330
416
100
AcDbEntity
  8
0
100
AcDbBlockEnd
  0
BLOCK
  5
423
330
41E
100
AcDbEntity
  8
0
100
AcDbBlockBegin
  2
*D24
 70
     1
 71
     0
 10
0.0
 20
0.0
 30
0.0
  3
*D24
  1

  0
LINE
  5
41F
330
41E
100
AcDbEntity
  8
1
  6
Continuous
 62
     2
100
AcDbLine
 10
-183.2076160542985
 20
-85.08492676567022
 30
0.0
 11
-134.288685012501
 21
-149.0090874496755
 31
0.0
  0
SOLID
  5
420
330
41E
100
AcDbEntity
  8
1
 62
     2
100
AcDbTrace
 10
-171.115073052174
 20
-101.6449003585916
 30
0.0
 11
-170.3832162438259
 21
-101.084835864088
 31
0.0
 12
-168.6220885542416
 22
-104.1443702923077
 32
0.0
 13
-168.6220885542416
 23
-104.1443702923077
 33
0.0
  0
SOLID
  5
421
330
41E
100
AcDbEntity
  8
1
 62
     2
100
AcDbTrace
 10
-180.7146315563661
 20
-87.58439669938639
 30
0.0
 11
-181.4464883647142
 21
-88.14446119388994
 31
0.0
 12
-183.2076160542985
 22
-85.08492676567022
 32
0.0
 13
-183.2076160542985
 23
-85.08492676567022
 33
0.0
  0
MTEXT
  5
422
330
41E
100
AcDbEntity
  8
1
 62
     2
100
AcDbMText
 10
-149.8444701676397
 20
-125.3908392460689
 30
0.0
 40
3.5
 41
0.0
 71
     7
 72
     1
  1
\C2;Fräser ø\C2;24
  7
CONVERTER_11
 11
0.6077303125023704
 21
-0.7941434802765627
 31
0.0
 73
     1
 44
0.60024009603842
  0
ENDBLK
  5
424
330
41E
100
AcDbEntity
  8
0
100
AcDbBlockEnd
  0
BLOCK
  5
42D
330
426
100
AcDbEntity
  8
0
100
AcDbBlockBegin
  2
*D25
 70
     1
 71
     0
 10
0.0
 20
0.0
 30
0.0
  3
*D25
  1

  0
LINE
  5
427
330
426
100
AcDbEntity
  8
1
  6
Continuous
 62
     2
100
AcDbLine
 10
109.1510030137471
 20
-110.614648528989
 30
0.0
 11
109.1510030137471
 21
69.38535147101105
 31
0.0
  0
LINE
  5
428
330
426
100
AcDbEntity
  8
1
  6
Continuous
 62
     2
100
AcDbLine
 10
148.287843915321
 20
-110.6146485289889
 30
0.0
 11
107.1510030137471
 21
-110.6146485289889
 31
0.0
  0
LINE
  5
429
330
426
100
AcDbEntity
  8
1
  6
Continuous
 62
     2
100
AcDbLine
 10
148.287843915321
 20
69.38535147101106
 30
0.0
 11
107.1510030137471
 21
69.38535147101106
 31
0.0
  0
SOLID
  5
42A
330
426
100
AcDbEntity
  8
1
 62
     2
100
AcDbTrace
 10
108.6902192721912
 20
-107.114648528989
 30
0.0
 11
109.611786755303
 21
-107.114648528989
 31
0.0
 12
109.1510030137471
 22
-110.614648528989
 32
0.0
 13
109.1510030137471
 23
-110.614648528989
 33
0.0
  0
SOLID
  5
42B
330
426
100
AcDbEntity
  8
1
 62
     2
100
AcDbTrace
 10
109.611786755303
 20
65.88535147101105
 30
0.0
 11
108.6902192721912
 21
65.88535147101105
 31
0.0
 12
109.1510030137471
 22
69.38535147101105
 32
0.0
 13
109.1510030137471
 23
69.38535147101105
 33
0.0
  0
MTEXT
  5
42C
330
426
100
AcDbEntity
  8
1
 62
     2
100
AcDbMText
 10
107.1510030137471
 20
-27.26197102600031
 30
0.0
 40
3.5
 41
0.0
 71
     7
 72
     1
  1
200
  7
CONVERTER_11
 11
0.0
 21
1.0
 31
0.0
 73
     1
 44
0.60024009603842
  0
ENDBLK
  5
42E
330
426
100
AcDbEntity
  8
0
100
AcDbBlockEnd
  0
ENDSEC
  0
SECTION
  2
ENTITIES
  0
INSERT
  5
40
330
1F
100
AcDbEntity
  8
0
100
AcDbBlockReference
  2
_art_A3_me10_pdm
 10
-14.90059265465243
 20
-28.74373545232265
 30
0.0
  0
INSERT
  5
41
330
1F
100
AcDbEntity
  8
0
100
AcDbBlockReference
  2
Fl_gel
 10
91.09441405009268
 20
-23.33719340352349
 30
0.0
  0
INSERT
  5
42
330
1F
100
AcDbEntity
  8
0
100
AcDbBlockReference
  2
Rahmen
 10
-136.2043947259831
 20
-9.00756272345865
 30
0.0
  0
INSERT
  5
43
330
1F
100
AcDbEntity
  8
0
100
AcDbBlockReference
  2
5_400520_0_00000_FRAES_4__a_1__Eingecheckt__nur_lesen_
 10
-23.23418651414653
 20
-26.74347679730169
 30
0.0
  0
CIRCLE
  5
343
330
1F
100
AcDbEntity
  8
1
  6
DOT_CENTER
 62
     2
100
AcDbCircle
 10
144.287843915321
 20
-94.61464852898895
 30
0.0
 40
12.0
  0
CIRCLE
  5
344
330
1F
100
AcDbEntity
  8
1
  6
DOT_CENTER
 62
     2
100
AcDbCircle
 10
-175.91485230427
 20
-94.61464852898895
 30
0.0
 40
12.0
  0
MTEXT
  5
345
330
1F
100
AcDbEntity
  8
1
 62
     2
100
AcDbMText
 10
175.438415315892
 20
-194.050586558831
 30
0.0
 40
2.5
 41
0.0
 71
     5
 72
     1
  1
2
  7
CONVERTER_11
 73
     1
 44
1.32052821128451
  0
MTEXT
  5
346
330
1F
100
AcDbEntity
  8
1
 62
     2
100
AcDbMText
 10
170.786045240213
 20
-149.414624618813
 30
0.0
 40
2.5
 41
0.0
 71
     5
 72
     1
  1
1:1
  7
CONVERTER_11
 73
     1
 44
1.32052821128451
  0
MTEXT
  5
347
330
1F
100
AcDbEntity
  8
1
 62
     2
100
AcDbMText
 10
-55.14128452862639
 20
-131.7487481199814
 30
0.0
 40
3.5
 41
0.0
 71
     4
 72
     1
  1
Fräsbild\PFutterzarge
  7
CONVERTER_11
 73
     1
 44
1.32052821128451
  0
MTEXT
  5
348
330
1F
100
AcDbEntity
  8
1
 62
     2
100
AcDbMText
 10
36.84999588852313
 20
-126.7487481199814
 30
0.0
 40
3.5
 41
0.0
 71
     5
 72
     1
  1
Fräsbild
  7
CONVERTER_11
 73
     1
 44
1.32052821128451
  0
MTEXT
  5
349
330
1F
100
AcDbEntity
  8
1
 62
     7
100
AcDbMText
 10
-37.66045484007687
 20
-145.1182392210103
 30
0.0
 40
5.0
 41
0.0
 71
     5
 72
     1
  1
Rahmen
  7
CONVERTER_11
 73
     1
 44
1.20048019207683
  0
MTEXT
  5
34A
330
1F
100
AcDbEntity
  8
1
 62
     7
100
AcDbMText
 10
36.65722620659244
 20
-135.1382832889033
 30
0.0
 40
5.0
 41
0.0
 71
     5
 72
     1
  1
Flügel
  7
CONVERTER_11
 73
     1
 44
1.20048019207683
  0
DIMENSION
  5
355
330
1F
100
AcDbEntity
  8
1
100
AcDbDimension
  2
*D5
 10
70.57451042159312
 20
-68.8840854223482
 30
0.0
 11
63.20038547341179
 21
-65.1340854223482
 31
0.0
 70
    32
  1
<>
 71
     5
 42
-1.0
 53
0.00013888888889
  3
ME10_DIM_10
100
AcDbAlignedDimension
 13
54.5745104215931
 23
-56.6146485289887
 33
0.0
 14
70.57451042159312
 24
-56.6146485289887
 34
0.0
100
AcDbRotatedDimension
  0
DIMENSION
  5
360
330
1F
100
AcDbEntity
  8
1
100
AcDbDimension
  2
*D6
 10
81.76616542466611
 20
15.38535147101111
 30
0.0
 11
78.01616542466611
 21
-15.8974730646558
 31
0.0
 70
    32
  1
92
 71
     5
 42
-1.0
 53
90.0
  3
ME10_DIM_11
100
AcDbAlignedDimension
 13
70.57451042159312
 23
-56.6146485289887
 33
0.0
 14
70.5745104215931
 24
15.38535147101111
 34
0.0
 50
90.0
100
AcDbRotatedDimension
  0
DIMENSION
  5
36C
330
1F
100
AcDbEntity
  8
1
100
AcDbDimension
  2
*D7
 10
-90.35733264471742
 20
-67.8759667281186
 30
0.0
 11
-97.12890253451921
 21
-64.1259667281186
 31
0.0
 70
    32
  1
<>
 71
     5
 42
-1.0
 53
0.00013888888889
  3
ME10_DIM_12
100
AcDbAlignedDimension
 13
-74.35733264471742
 23
-56.6146485289887
 33
0.0
 14
-90.35733264471742
 24
-56.6146485289887
 34
0.0
100
AcDbRotatedDimension
  0
DIMENSION
  5
377
330
1F
100
AcDbEntity
  8
1
100
AcDbDimension
  2
*D8
 10
-99.961672611731
 20
-56.6146485289887
 30
0.0
 11
-103.711672611731
 21
-15.6848188796581
 31
0.0
 70
    32
  1
92
 71
     5
 42
-1.0
 53
90.0
  3
ME10_DIM_13
100
AcDbAlignedDimension
 13
-90.35733264471742
 23
15.38535147101111
 33
0.0
 14
-90.35733264471742
 24
-56.6146485289887
 34
0.0
 50
90.0
100
AcDbRotatedDimension
  0
DIMENSION
  5
382
330
1F
100
AcDbEntity
  8
1
100
AcDbDimension
  2
*D9
 10
157.787843915321
 20
34.5451568829076
 30
0.0
 11
153.1029885688726
 21
38.2951568829076
 31
0.0
 70
    32
  1
<>
 71
     5
 42
-1.0
 53
0.00013888888889
  3
ME10_DIM_14
100
AcDbAlignedDimension
 13
138.787843915321
 23
52.13535147101105
 33
0.0
 14
157.787843915321
 24
52.13535147101105
 34
0.0
100
AcDbRotatedDimension
  0
DIMENSION
  5
38F
330
1F
100
AcDbEntity
  8
1
100
AcDbDimension
  2
*D10
 10
23.4118579323537
 20
-92.68918859156351
 30
0.0
 11
19.6618579323537
 21
-83.176156920623
 31
0.0
 70
    32
  1
<>
 71
     5
 42
-1.0
 53
90.0
  3
ME10_DIM_15
100
AcDbAlignedDimension
 13
39.33123967983048
 23
-87.68918859156354
 33
0.0
 14
43.83123967983067
 24
-92.68918859156351
 34
0.0
 50
90.0
100
AcDbRotatedDimension
  0
DIMENSION
  5
39A
330
1F
100
AcDbEntity
  8
1
100
AcDbDimension
  2
*D11
 10
164.287843915321
 20
-128.729476198668
 30
0.0
 11
149.3561631501281
 21
-124.979476198668
 31
0.0
 70
    32
  1
<>
 71
     5
 42
-1.0
 53
0.00013888888889
  3
ME10_DIM_16
100
AcDbAlignedDimension
 13
132.287843915321
 23
-94.61464852898895
 33
0.0
 14
164.287843915321
 24
-94.61464852898895
 34
0.0
100
AcDbRotatedDimension
  0
DIMENSION
  5
3A5
330
1F
100
AcDbEntity
  8
1
100
AcDbDimension
  2
*D12
 10
124.3742114205561
 20
47.88535147101105
 30
0.0
 11
120.6242114205561
 21
-15.53532038282324
 31
0.0
 70
    32
  1
157
 71
     5
 42
-1.0
 53
90.0
  3
ME10_DIM_17
100
AcDbAlignedDimension
 13
144.287843915321
 23
-89.11464852898895
 33
0.0
 14
144.287843915321
 24
47.88535147101105
 34
0.0
 50
90.0
100
AcDbRotatedDimension
  0
DIMENSION
  5
3B0
330
1F
100
AcDbEntity
  8
1
100
AcDbDimension
  2
*D13
 10
54.57451042159308
 20
-138.6142090488623
 30
0.0
 11
76.3930019780373
 21
-134.8642090488623
 31
0.0
 70
    32
  1
<>
 71
     5
 42
-1.0
 53
0.00013888888889
  3
ME10_DIM_18
100
AcDbAlignedDimension
 13
98.0745104215931
 23
-89.11464852898894
 33
0.0
 14
54.5745104215931
 24
-110.614648528989
 34
0.0
100
AcDbRotatedDimension
  0
DIMENSION
  5
3BB
330
1F
100
AcDbEntity
  8
1
100
AcDbDimension
  2
*D14
 10
64.5745104215931
 20
-128.729476198668
 30
0.0
 11
60.05602208558331
 21
-124.979476198668
 31
0.0
 70
    32
  1
<>
 71
     5
 42
-1.0
 53
0.00013888888889
  3
ME10_DIM_19
100
AcDbAlignedDimension
 13
54.5745104215931
 23
-120.614648528989
 33
0.0
 14
64.5745104215931
 24
-110.614648528989
 34
0.0
100
AcDbRotatedDimension
  0
DIMENSION
  5
3C6
330
1F
100
AcDbEntity
  8
1
100
AcDbDimension
  2
*D15
 10
-126.444265640198
 20
69.3853514710111
 30
0.0
 11
-130.194265640198
 21
-20.25914290622809
 31
0.0
 70
    32
  1
200
 71
     5
 42
-1.0
 53
90.0
  3
ME10_DIM_20
100
AcDbAlignedDimension
 13
-179.9148523042697
 23
-110.6146485289887
 33
0.0
 14
-179.91485230427
 24
69.3853514710111
 34
0.0
 50
90.0
100
AcDbRotatedDimension
  0
DIMENSION
  5
3D3
330
1F
100
AcDbEntity
  8
1
100
AcDbDimension
  2
*D16
 10
-30.17515141969547
 20
-92.68918859156351
 30
0.0
 11
-33.504086635169
 21
-83.3147619791637
 31
0.0
 70
    32
  1
<>
 71
     5
 42
-1.0
 53
90.0
  3
ME10_DIM_21
100
AcDbAlignedDimension
 13
-49.16876032016917
 23
-87.68918859156351
 33
0.0
 14
-52.66876032016923
 24
-92.68918859156351
 34
0.0
 50
90.0
100
AcDbRotatedDimension
  0
DIMENSION
  5
3DE
330
1F
100
AcDbEntity
  8
1
100
AcDbDimension
  2
*D17
 10
-74.35733264471742
 20
-131.2746447316279
 30
0.0
 11
-95.40585698113445
 21
-127.5246447316279
 31
0.0
 70
    32
  1
<>
 71
     5
 42
-1.0
 53
0.00013888888889
  3
ME10_DIM_22
100
AcDbAlignedDimension
 13
-115.8573326447174
 23
-89.11464852898897
 33
0.0
 14
-74.35733264471742
 24
-110.6146485289887
 34
0.0
100
AcDbRotatedDimension
  0
DIMENSION
  5
3EB
330
1F
100
AcDbEntity
  8
1
100
AcDbDimension
  2
*D18
 10
169.287843915321
 20
-128.729476198668
 30
0.0
 11
174.4513013909486
 21
-124.979476198668
 31
0.0
 70
    32
  1
<>
 71
     5
 42
-1.0
 53
0.00013888888889
  3
ME10_DIM_23
100
AcDbAlignedDimension
 13
164.287843915321
 23
-94.61464852898895
 33
0.0
 14
169.287843915321
 24
-120.614648528989
 34
0.0
100
AcDbRotatedDimension
  0
DIMENSION
  5
3F8
330
1F
100
AcDbEntity
  8
1
100
AcDbDimension
  2
*D19
 10
-200.91485230427
 20
-130.2566310837739
 30
0.0
 11
-203.776615557664
 21
-126.5066310837739
 31
0.0
 70
    32
  1
<>
 71
     5
 42
-1.0
 53
0.00013888888889
  3
ME10_DIM_24
100
AcDbAlignedDimension
 13
-195.91485230427
 23
-94.61464852898895
 33
0.0
 14
-200.91485230427
 24
-120.614648528989
 34
0.0
100
AcDbRotatedDimension
  0
DIMENSION
  5
403
330
1F
100
AcDbEntity
  8
1
100
AcDbDimension
  2
*D20
 10
-195.91485230427
 20
-130.2566310837739
 30
0.0
 11
-180.452925376808
 21
-126.5066310837739
 31
0.0
 70
    32
  1
<>
 71
     5
 42
-1.0
 53
0.00013888888889
  3
ME10_DIM_25
100
AcDbAlignedDimension
 13
-163.91485230427
 23
-94.61464852898895
 33
0.0
 14
-195.91485230427
 24
-94.61464852898895
 34
0.0
100
AcDbRotatedDimension
  0
DIMENSION
  5
40E
330
1F
100
AcDbEntity
  8
1
100
AcDbDimension
  2
*D21
 10
116.6505966278901
 20
54.38535147101105
 30
0.0
 11
112.9005966278901
 21
-17.61464852898897
 31
0.0
 70
    32
  1
170
 71
     5
 42
-1.0
 53
90.0
  3
ME10_DIM_26
100
AcDbAlignedDimension
 13
136.537843915321
 23
-95.61464852898895
 33
0.0
 14
136.537843915321
 24
54.38535147101105
 34
0.0
 50
90.0
100
AcDbRotatedDimension
  0
INSERT
  5
415
330
1F
100
AcDbEntity
  8
1
100
AcDbBlockReference
  2
*D22
 10
0.0
 20
0.0
 30
0.0
  0
INSERT
  5
41D
330
1F
100
AcDbEntity
  8
1
100
AcDbBlockReference
  2
*D23
 10
0.0
 20
0.0
 30
0.0
  0
INSERT
  5
425
330
1F
100
AcDbEntity
  8
1
100
AcDbBlockReference
  2
*D24
 10
0.0
 20
0.0
 30
0.0
  0
INSERT
  5
42F
330
1F
100
AcDbEntity
  8
1
100
AcDbBlockReference
  2
*D25
 10
0.0
 20
0.0
 30
0.0
  0
ENDSEC
  0
SECTION
  2
OBJECTS
  0
DICTIONARY
  5
C
330
0
100
AcDbDictionary
281
     1
  3
ACAD_GROUP
350
D
  3
ACAD_LAYOUT
350
1A
  3
ACAD_MLINESTYLE
350
17
  3
ACAD_PLOTSETTINGS
350
19
  3
ACAD_PLOTSTYLENAME
350
E
  0
DICTIONARY
  5
D
102
{ACAD_REACTORS
330
C
102
}
330
C
100
AcDbDictionary
281
     1
  0
DICTIONARY
  5
1A
102
{ACAD_REACTORS
330
C
102
}
330
C
100
AcDbDictionary
281
     1
  3
Layout1
350
1E
  3
Layout2
350
26
  3
Model
350
22
  0
DICTIONARY
  5
17
102
{ACAD_REACTORS
330
C
102
}
330
C
100
AcDbDictionary
281
     1
  3
Standard
350
18
  0
DICTIONARY
  5
19
102
{ACAD_REACTORS
330
C
102
}
330
C
100
AcDbDictionary
281
     1
  0
ACDBDICTIONARYWDFLT
  5
E
102
{ACAD_REACTORS
330
C
102
}
330
C
100
AcDbDictionary
281
     1
  3
Normal
350
F
100
AcDbDictionaryWithDefault
340
F
  0
LAYOUT
  5
1E
102
{ACAD_REACTORS
330
1A
102
}
330
1A
100
AcDbPlotSettings
  1

  2

  4

  6

 40
0.0
 41
0.0
 42
0.0
 43
0.0
 44
0.0
 45
0.0
 46
0.0
 47
0.0
 48
0.0
 49
0.0
140
0.0
141
0.0
142
1.0
143
1.0
 70
   688
 72
     0
 73
     0
 74
     5
  7

 75
    16
 76
     0
 77
     2
 78
   300
147
1.0
148
0.0
149
0.0
100
AcDbLayout
  1
Layout1
 70
     1
 71
     1
 10
0.0
 20
0.0
 11
0.0
 21
0.0
 12
0.0
 22
0.0
 32
0.0
 14
0.0
 24
0.0
 34
0.0
 15
0.0
 25
0.0
 35
0.0
146
0.0
 13
0.0
 23
0.0
 33
0.0
 16
1.0
 26
0.0
 36
0.0
 17
0.0
 27
1.0
 37
0.0
 76
     0
330
1B
  0
LAYOUT
  5
26
102
{ACAD_REACTORS
330
1A
102
}
330
1A
100
AcDbPlotSettings
  1

  2

  4

  6

 40
0.0
 41
0.0
 42
0.0
 43
0.0
 44
0.0
 45
0.0
 46
0.0
 47
0.0
 48
0.0
 49
0.0
140
0.0
141
0.0
142
1.0
143
1.0
 70
   688
 72
     0
 73
     0
 74
     5
  7

 75
    16
 76
     0
 77
     2
 78
   300
147
1.0
148
0.0
149
0.0
100
AcDbLayout
  1
Layout2
 70
     1
 71
     2
 10
0.0
 20
0.0
 11
0.0
 21
0.0
 12
0.0
 22
0.0
 32
0.0
 14
0.0
 24
0.0
 34
0.0
 15
0.0
 25
0.0
 35
0.0
146
0.0
 13
0.0
 23
0.0
 33
0.0
 16
1.0
 26
0.0
 36
0.0
 17
0.0
 27
1.0
 37
0.0
 76
     0
330
23
  0
LAYOUT
  5
22
102
{ACAD_REACTORS
330
1A
102
}
330
1A
100
AcDbPlotSettings
  1

  2

  4

  6

 40
0.0
 41
0.0
 42
0.0
 43
0.0
 44
0.0
 45
0.0
 46
0.0
 47
0.0
 48
0.0
 49
0.0
140
0.0
141
0.0
142
1.0
143
1.0
 70
  1712
 72
     0
 73
     0
 74
     0
  7

 75
     0
 76
     0
 77
     2
 78
   300
147
1.0
148
0.0
149
0.0
100
AcDbLayout
  1
Model
 70
     1
 71
     0
 10
0.0
 20
0.0
 11
0.0
 21
0.0
 12
0.0
 22
0.0
 32
0.0
 14
-227.4005926546524
 24
-199.2437354523227
 34
0.0
 15
182.5994073453476
 25
86.75626454767735
 35
0.0
146
0.0
 13
0.0
 23
0.0
 33
0.0
 16
1.0
 26
0.0
 36
0.0
 17
0.0
 27
1.0
 37
0.0
 76
     0
330
1F
  0
MLINESTYLE
  5
18
102
{ACAD_REACTORS
330
17
102
}
330
17
100
AcDbMlineStyle
  2
Standard
 70
     0
  3

 62
   256
 51
90.0
 52
90.0
 71
     2
 49
0.5
 62
   256
  6
BYLAYER
 49
-0.5
 62
   256
  6
BYLAYER
  0
ACDBPLACEHOLDER
  5
F
102
{ACAD_REACTORS
330
E
102
}
330
E
  0
ENDSEC
  0
EOF
