  0
SECTION
  2
HEADER
  9
$ACADVER
  1
AC1018
  9
$ACADMAINTVER
 70
     0
  9
$DWGCODEPAGE
  3
ANSI_1252
  9
$INSBASE
 10
0.0
 20
0.0
 30
0.0
  9
$EXTMIN
 10
741.5951171652669
 20
-128.360628410952
 30
0.0
  9
$EXTMAX
 10
875.221105804278
 20
-24.76424577186661
 30
0.0
  9
$LIMMIN
 10
0.0
 20
0.0
  9
$LIMMAX
 10
12.0
 20
9.0
  9
$ORTHOMODE
 70
     0
  9
$REGENMODE
 70
     1
  9
$FILLMODE
 70
     1
  9
$QTEXTMODE
 70
     0
  9
$MIRRTEXT
 70
     1
  9
$LTSCALE
 40
1.0
  9
$ATTMODE
 70
     1
  9
$TEXTSIZE
 40
0.2
  9
$TRACEWID
 40
0.05
  9
$TEXTSTYLE
  7
Standard
  9
$CLAYER
  8
0
  9
$CELTYPE
  6
ByLayer
  9
$CECOLOR
 62
   256
  9
$CELTSCALE
 40
1.0
  9
$DISPSILH
 70
     0
  9
$DIMSCALE
 40
1.0
  9
$DIMASZ
 40
0.18
  9
$DIMEXO
 40
0.0625
  9
$DIMDLI
 40
0.38
  9
$DIMRND
 40
0.0
  9
$DIMDLE
 40
0.0
  9
$DIMEXE
 40
0.18
  9
$DIMTP
 40
0.0
  9
$DIMTM
 40
0.0
  9
$DIMTXT
 40
0.18
  9
$DIMCEN
 40
0.09
  9
$DIMTSZ
 40
0.0
  9
$DIMTOL
 70
     0
  9
$DIMLIM
 70
     0
  9
$DIMTIH
 70
     1
  9
$DIMTOH
 70
     1
  9
$DIMSE1
 70
     0
  9
$DIMSE2
 70
     0
  9
$DIMTAD
 70
     0
  9
$DIMZIN
 70
     0
  9
$DIMBLK
  1

  9
$DIMASO
 70
     1
  9
$DIMSHO
 70
     1
  9
$DIMPOST
  1

  9
$DIMAPOST
  1

  9
$DIMALT
 70
     0
  9
$DIMALTD
 70
     2
  9
$DIMALTF
 40
25.4
  9
$DIMLFAC
 40
1.0
  9
$DIMTOFL
 70
     0
  9
$DIMTVP
 40
0.0
  9
$DIMTIX
 70
     0
  9
$DIMSOXD
 70
     0
  9
$DIMSAH
 70
     0
  9
$DIMBLK1
  1

  9
$DIMBLK2
  1

  9
$DIMSTYLE
  2
Standard
  9
$DIMCLRD
 70
     0
  9
$DIMCLRE
 70
     0
  9
$DIMCLRT
 70
     0
  9
$DIMTFAC
 40
1.0
  9
$DIMGAP
 40
0.09
  9
$DIMJUST
 70
     0
  9
$DIMSD1
 70
     0
  9
$DIMSD2
 70
     0
  9
$DIMTOLJ
 70
     1
  9
$DIMTZIN
 70
     0
  9
$DIMALTZ
 70
     0
  9
$DIMALTTZ
 70
     0
  9
$DIMUPT
 70
     0
  9
$DIMDEC
 70
     4
  9
$DIMTDEC
 70
     4
  9
$DIMALTU
 70
     2
  9
$DIMALTTD
 70
     2
  9
$DIMTXSTY
  7
Standard
  9
$DIMAUNIT
 70
     0
  9
$DIMADEC
 70
     0
  9
$DIMALTRND
 40
0.0
  9
$DIMAZIN
 70
     0
  9
$DIMDSEP
 70
    46
  9
$DIMATFIT
 70
     3
  9
$DIMFRAC
 70
     0
  9
$DIMLDRBLK
  1

  9
$DIMLUNIT
 70
     2
  9
$DIMLWD
 70
    -2
  9
$DIMLWE
 70
    -2
  9
$DIMTMOVE
 70
     0
  9
$LUNITS
 70
     2
  9
$LUPREC
 70
     4
  9
$SKETCHINC
 40
0.1
  9
$FILLETRAD
 40
0.5
  9
$AUNITS
 70
     0
  9
$AUPREC
 70
     0
  9
$MENU
  1
.
  9
$ELEVATION
 40
0.0
  9
$PELEVATION
 40
0.0
  9
$THICKNESS
 40
0.0
  9
$LIMCHECK
 70
     0
  9
$CHAMFERA
 40
0.5
  9
$CHAMFERB
 40
0.5
  9
$CHAMFERC
 40
1.0
  9
$CHAMFERD
 40
0.0
  9
$SKPOLY
 70
     0
  9
$TDCREATE
 40
2454803.394550243
  9
$TDUCREATE
 40
2454803.352883576
  9
$TDUPDATE
 40
2454803.394550255
  9
$TDUUPDATE
 40
2454803.352883588
  9
$TDINDWG
 40
0.0000000116
  9
$TDUSRTIMER
 40
0.0000000116
  9
$USRTIMER
 70
     1
  9
$ANGBASE
 50
0.0
  9
$ANGDIR
 70
     0
  9
$PDMODE
 70
     0
  9
$PDSIZE
 40
0.0
  9
$PLINEWID
 40
0.0
  9
$SPLFRAME
 70
     0
  9
$SPLINETYPE
 70
     6
  9
$SPLINESEGS
 70
     8
  9
$HANDSEED
  5
1C6
  9
$SURFTAB1
 70
     6
  9
$SURFTAB2
 70
     6
  9
$SURFTYPE
 70
     6
  9
$SURFU
 70
     6
  9
$SURFV
 70
     6
  9
$UCSBASE
  2

  9
$UCSNAME
  2

  9
$UCSORG
 10
0.0
 20
0.0
 30
0.0
  9
$UCSXDIR
 10
1.0
 20
0.0
 30
0.0
  9
$UCSYDIR
 10
0.0
 20
1.0
 30
0.0
  9
$UCSORTHOREF
  2

  9
$UCSORTHOVIEW
 70
     0
  9
$UCSORGTOP
 10
0.0
 20
0.0
 30
0.0
  9
$UCSORGBOTTOM
 10
0.0
 20
0.0
 30
0.0
  9
$UCSORGLEFT
 10
0.0
 20
0.0
 30
0.0
  9
$UCSORGRIGHT
 10
0.0
 20
0.0
 30
0.0
  9
$UCSORGFRONT
 10
0.0
 20
0.0
 30
0.0
  9
$UCSORGBACK
 10
0.0
 20
0.0
 30
0.0
  9
$PUCSBASE
  2

  9
$PUCSNAME
  2

  9
$PUCSORG
 10
0.0
 20
0.0
 30
0.0
  9
$PUCSXDIR
 10
1.0
 20
0.0
 30
0.0
  9
$PUCSYDIR
 10
0.0
 20
1.0
 30
0.0
  9
$PUCSORTHOREF
  2

  9
$PUCSORTHOVIEW
 70
     0
  9
$PUCSORGTOP
 10
0.0
 20
0.0
 30
0.0
  9
$PUCSORGBOTTOM
 10
0.0
 20
0.0
 30
0.0
  9
$PUCSORGLEFT
 10
0.0
 20
0.0
 30
0.0
  9
$PUCSORGRIGHT
 10
0.0
 20
0.0
 30
0.0
  9
$PUCSORGFRONT
 10
0.0
 20
0.0
 30
0.0
  9
$PUCSORGBACK
 10
0.0
 20
0.0
 30
0.0
  9
$USERI1
 70
     0
  9
$USERI2
 70
     0
  9
$USERI3
 70
     0
  9
$USERI4
 70
     0
  9
$USERI5
 70
     0
  9
$USERR1
 40
14.5
  9
$USERR2
 40
0.0
  9
$USERR3
 40
0.0
  9
$USERR4
 40
0.0
  9
$USERR5
 40
0.0
  9
$WORLDVIEW
 70
     1
  9
$SHADEDGE
 70
     3
  9
$SHADEDIF
 70
    70
  9
$TILEMODE
 70
     1
  9
$MAXACTVP
 70
    64
  9
$PINSBASE
 10
0.0
 20
0.0
 30
0.0
  9
$PLIMCHECK
 70
     0
  9
$PEXTMIN
 10
1.00000000000000E+20
 20
1.00000000000000E+20
 30
1.00000000000000E+20
  9
$PEXTMAX
 10
-1.00000000000000E+20
 20
-1.00000000000000E+20
 30
-1.00000000000000E+20
  9
$PLIMMIN
 10
0.0
 20
0.0
  9
$PLIMMAX
 10
12.0
 20
9.0
  9
$UNITMODE
 70
     0
  9
$VISRETAIN
 70
     1
  9
$PLINEGEN
 70
     0
  9
$PSLTSCALE
 70
     1
  9
$TREEDEPTH
 70
  3020
  9
$CMLSTYLE
  2
Standard
  9
$CMLJUST
 70
     0
  9
$CMLSCALE
 40
1.0
  9
$PROXYGRAPHICS
 70
     1
  9
$MEASUREMENT
 70
     1
  9
$CELWEIGHT
370
    -1
  9
$ENDCAPS
280
     0
  9
$JOINSTYLE
280
     0
  9
$LWDISPLAY
290
     0
  9
$INSUNITS
 70
     1
  9
$HYPERLINKBASE
  1

  9
$STYLESHEET
  1

  9
$XEDIT
290
     1
  9
$CEPSNTYPE
380
     0
  9
$PSTYLEMODE
290
     1
  9
$FINGERPRINTGUID
  2
{25867770-5C13-4406-BC4E-2C8DF0CC43D4}
  9
$VERSIONGUID
  2
{FAEB1C32-E019-11D5-929B-00C0DF256EC4}
  9
$EXTNAMES
290
     1
  9
$PSVPSCALE
 40
0.0
  9
$OLESTARTUP
290
     0
  9
$SORTENTS
280
   127
  9
$INDEXCTL
280
     0
  9
$HIDETEXT
280
     1
  9
$XCLIPFRAME
290
     0
  9
$HALOGAP
280
     0
  9
$OBSCOLOR
 70
   257
  9
$OBSLTYPE
280
     0
  9
$INTERSECTIONDISPLAY
280
     0
  9
$INTERSECTIONCOLOR
 70
   257
  9
$DIMASSOC
280
     2
  9
$PROJECTNAME
  1

  0
ENDSEC
  0
SECTION
  2
CLASSES
  0
CLASS
  1
ACDBDICTIONARYWDFLT
  2
AcDbDictionaryWithDefault
  3
ObjectDBX Classes
 90
        0
 91
        3
280
     0
281
     0
  0
CLASS
  1

  2
exOdDbCircle
  3

 90
        0
 91
        3
280
     0
281
     1
  0
CLASS
  1

  2
exOdDbSpline
  3

 90
        0
 91
        3
280
     0
281
     1
  0
ENDSEC
  0
SECTION
  2
TABLES
  0
TABLE
  2
VPORT
  5
8
330
0
100
AcDbSymbolTable
 70
     1
  0
VPORT
  5
29
330
8
100
AcDbSymbolTableRecord
100
AcDbViewportTableRecord
  2
*Active
 70
     0
 10
0.0
 20
0.0
 11
1.0
 21
1.0
 12
808.4081114847725
 22
-76.5624370914093
 13
0.0
 23
0.0
 14
0.5
 24
0.5
 15
0.5
 25
0.5
 16
0.0
 26
0.0
 36
1.0
 17
0.0
 27
0.0
 37
0.0
 40
113.9560209029939
 41
1.60267857142857
 42
50.0
 43
0.0
 44
0.0
 50
0.0
 51
0.0
 71
     0
 72
   100
 73
     1
 74
     3
 75
     0
 76
     0
 77
     0
 78
     0
281
     0
 65
     1
110
0.0
120
0.0
130
0.0
111
1.0
121
0.0
131
0.0
112
0.0
122
1.0
132
0.0
 79
     0
146
0.0
  0
ENDTAB
  0
TABLE
  2
LTYPE
  5
5
330
0
100
AcDbSymbolTable
 70
     8
  0
LTYPE
  5
14
330
5
100
AcDbSymbolTableRecord
100
AcDbLinetypeTableRecord
  2
ByBlock
 70
     0
  3

 72
    65
 73
     0
 40
0.0
  0
LTYPE
  5
15
330
5
100
AcDbSymbolTableRecord
100
AcDbLinetypeTableRecord
  2
ByLayer
 70
     0
  3

 72
    65
 73
     0
 40
0.0
  0
LTYPE
  5
16
330
5
100
AcDbSymbolTableRecord
100
AcDbLinetypeTableRecord
  2
Continuous
 70
     0
  3
Solid line
 72
    65
 73
     0
 40
0.0
  0
LTYPE
  5
2A
330
5
100
AcDbSymbolTableRecord
100
AcDbLinetypeTableRecord
  2
DASHED
 70
     0
  3
Dashed
 72
    65
 73
     2
 40
15.0
 49
7.0
 74
     0
 49
-8.0
 74
     0
  0
LTYPE
  5
2B
330
5
100
AcDbSymbolTableRecord
100
AcDbLinetypeTableRecord
  2
DOTTED
 70
     0
  3
Dotted
 72
    65
 73
     2
 40
1.0
 49
0.0
 74
     0
 49
-1.0
 74
     0
  0
LTYPE
  5
2C
330
5
100
AcDbSymbolTableRecord
100
AcDbLinetypeTableRecord
  2
DOT_CENTER
 70
     0
  3
Dot_Center
 72
    65
 73
     4
 40
14.0
 49
12.0
 74
     0
 49
-1.0
 74
     0
 49
0.0
 74
     0
 49
-1.0
 74
     0
  0
LTYPE
  5
2D
330
5
100
AcDbSymbolTableRecord
100
AcDbLinetypeTableRecord
  2
LONG_DASHED
 70
     0
  3
Long_Dashed
 72
    65
 73
     2
 40
15.0
 49
10.0
 74
     0
 49
-5.0
 74
     0
  0
LTYPE
  5
2E
330
5
100
AcDbSymbolTableRecord
100
AcDbLinetypeTableRecord
  2
DASH_CENTER
 70
     0
  3
Dash_Center
 72
    65
 73
     4
 40
14.0
 49
11.0
 74
     0
 49
-1.0
 74
     0
 49
1.0
 74
     0
 49
-1.0
 74
     0
  0
LTYPE
  5
2F
330
5
100
AcDbSymbolTableRecord
100
AcDbLinetypeTableRecord
  2
PHANTOM
 70
     0
  3
Phantom
 72
    65
 73
     6
 40
13.0
 49
10.0
 74
     0
 49
-1.0
 74
     0
 49
0.0
 74
     0
 49
-1.0
 74
     0
 49
0.0
 74
     0
 49
-1.0
 74
     0
  0
LTYPE
  5
30
330
5
100
AcDbSymbolTableRecord
100
AcDbLinetypeTableRecord
  2
CENTER_DASH_DASH
 70
     0
  3
Center_Dash_Dash
 72
    65
 73
     6
 40
14.0
 49
9.0
 74
     0
 49
-1.0
 74
     0
 49
1.0
 74
     0
 49
-1.0
 74
     0
 49
1.0
 74
     0
 49
-1.0
 74
     0
  0
ENDTAB
  0
TABLE
  2
LAYER
  5
2
330
0
100
AcDbSymbolTable
 70
     2
  0
LAYER
  5
10
330
2
100
AcDbSymbolTableRecord
100
AcDbLayerTableRecord
  2
0
 70
     0
 62
     7
  6
Continuous
370
    -3
390
F
  0
LAYER
  5
31
330
2
100
AcDbSymbolTableRecord
100
AcDbLayerTableRecord
  2
1
 70
     0
 62
     7
  6
Continuous
370
    -3
390
F
  0
ENDTAB
  0
TABLE
  2
STYLE
  5
3
330
0
100
AcDbSymbolTable
 70
     2
  0
STYLE
  5
11
330
3
100
AcDbSymbolTableRecord
100
AcDbTextStyleTableRecord
  2
Standard
 70
     0
 40
0.0
 41
1.0
 50
0.0
 71
     0
 42
0.2
  3
txt
  4

  0
STYLE
  5
156
330
3
100
AcDbSymbolTableRecord
100
AcDbTextStyleTableRecord
  2
CONVERTER_11
 70
     0
 40
0.0
 41
0.9
 50
0.0
 71
     0
 42
0.2
  3
txt.shx
  4

  0
ENDTAB
  0
TABLE
  2
VIEW
  5
6
330
0
100
AcDbSymbolTable
 70
     0
  0
ENDTAB
  0
TABLE
  2
UCS
  5
7
330
0
100
AcDbSymbolTable
 70
     0
  0
ENDTAB
  0
TABLE
  2
APPID
  5
9
330
0
100
AcDbSymbolTable
 70
     1
  0
APPID
  5
12
330
9
100
AcDbSymbolTableRecord
100
AcDbRegAppTableRecord
  2
ACAD
 70
     0
  0
ENDTAB
  0
TABLE
  2
DIMSTYLE
  5
A
330
0
100
AcDbSymbolTable
 70
    11
100
AcDbDimStyleTable
  0
DIMSTYLE
105
27
330
A
100
AcDbSymbolTableRecord
100
AcDbDimStyleTableRecord
  2
Standard
 70
     0
340
11
  0
DIMSTYLE
105
15A
102
{ACAD_REACTORS
330
15B
102
}
330
A
100
AcDbSymbolTableRecord
100
AcDbDimStyleTableRecord
  2
ME10_DIM_10
 70
     0
 41
3.5
 42
0.0
 44
2.0
 73
     0
 74
     0
 77
     1
 78
     8
140
3.5
147
2.0
172
     1
173
     1
176
     2
177
     2
178
     2
271
     3
340
156
  0
DIMSTYLE
105
165
102
{ACAD_REACTORS
330
166
102
}
330
A
100
AcDbSymbolTableRecord
100
AcDbDimStyleTableRecord
  2
ME10_DIM_11
 70
     0
 41
3.5
 42
0.0
 44
2.0
 73
     0
 74
     0
 77
     1
 78
     8
140
3.5
147
2.0
172
     1
173
     1
176
     2
177
     2
178
     2
271
     3
340
156
  0
DIMSTYLE
105
170
102
{ACAD_REACTORS
330
171
102
}
330
A
100
AcDbSymbolTableRecord
100
AcDbDimStyleTableRecord
  2
ME10_DIM_12
 70
     0
 41
3.5
 42
0.0
 44
2.0
 73
     0
 74
     0
 77
     1
 78
     8
140
3.5
147
2.0
172
     1
173
     1
176
     2
177
     2
178
     2
271
     3
340
156
  0
DIMSTYLE
105
17D
102
{ACAD_REACTORS
330
17E
102
}
330
A
100
AcDbSymbolTableRecord
100
AcDbDimStyleTableRecord
  2
ME10_DIM_13
 70
     0
 41
3.5
 42
0.0
 44
2.0
 73
     0
 74
     0
 77
     1
 78
     8
140
3.5
147
2.0
172
     1
173
     1
176
     2
177
     2
178
     2
271
     3
340
156
  0
DIMSTYLE
105
18A
102
{ACAD_REACTORS
330
18B
102
}
330
A
100
AcDbSymbolTableRecord
100
AcDbDimStyleTableRecord
  2
ME10_DIM_14
 70
     0
 41
3.5
 42
0.0
 44
2.0
 73
     0
 74
     0
 77
     1
 78
     8
140
3.5
147
2.0
172
     1
173
     1
176
     2
177
     2
178
     2
271
     3
340
156
  0
DIMSTYLE
105
195
102
{ACAD_REACTORS
330
196
102
}
330
A
100
AcDbSymbolTableRecord
100
AcDbDimStyleTableRecord
  2
ME10_DIM_15
 70
     0
 41
3.5
 42
0.0
 44
2.0
 73
     0
 74
     0
 77
     1
 78
     8
140
3.5
147
2.0
172
     1
173
     1
176
     2
177
     2
178
     2
271
     3
340
156
  0
DIMSTYLE
105
1A2
102
{ACAD_REACTORS
330
1A3
102
}
330
A
100
AcDbSymbolTableRecord
100
AcDbDimStyleTableRecord
  2
ME10_DIM_16
 70
     0
 41
3.5
 42
0.0
 44
2.0
 73
     0
 74
     0
 77
     1
 78
     8
140
3.5
147
2.0
172
     1
173
     1
176
     2
177
     2
178
     2
271
     3
340
156
  0
DIMSTYLE
105
1AD
102
{ACAD_REACTORS
330
1AE
102
}
330
A
100
AcDbSymbolTableRecord
100
AcDbDimStyleTableRecord
  2
ME10_DIM_17
 70
     0
 41
3.5
 42
0.0
 44
2.0
 73
     0
 74
     0
 77
     1
 78
     8
140
3.5
147
2.0
172
     1
173
     1
176
     2
177
     2
178
     2
271
     3
340
156
  0
DIMSTYLE
105
1B9
102
{ACAD_REACTORS
330
1BA
102
}
330
A
100
AcDbSymbolTableRecord
100
AcDbDimStyleTableRecord
  2
ME10_DIM_18
 70
     0
  3
min.<>
 41
3.5
 42
0.0
 44
2.0
 73
     0
 74
     0
 77
     1
 78
     8
140
3.5
147
2.0
172
     1
173
     1
176
     2
177
     2
178
     2
271
     3
340
156
  0
DIMSTYLE
105
1C4
102
{ACAD_REACTORS
330
1C5
102
}
330
A
100
AcDbSymbolTableRecord
100
AcDbDimStyleTableRecord
  2
ME10_DIM_19
 70
     0
 41
3.5
 42
0.0
 44
2.0
 73
     0
 74
     0
 77
     1
 78
     8
140
3.5
147
2.0
172
     1
173
     1
176
     2
177
     2
178
     2
271
     3
340
156
  0
ENDTAB
  0
TABLE
  2
BLOCK_RECORD
  5
1
330
0
100
AcDbSymbolTable
 70
    11
  0
BLOCK_RECORD
  5
1F
330
1
100
AcDbSymbolTableRecord
100
AcDbBlockTableRecord
  2
*Model_Space
340
22
  0
BLOCK_RECORD
  5
1B
330
1
100
AcDbSymbolTableRecord
100
AcDbBlockTableRecord
  2
*Paper_Space
340
1E
  0
BLOCK_RECORD
  5
23
330
1
100
AcDbSymbolTableRecord
100
AcDbBlockTableRecord
  2
*Paper_Space0
340
26
  0
BLOCK_RECORD
  5
14E
330
1
100
AcDbSymbolTableRecord
100
AcDbBlockTableRecord
  2
*D1
340
0
  0
BLOCK_RECORD
  5
15C
330
1
100
AcDbSymbolTableRecord
100
AcDbBlockTableRecord
  2
*D2
340
0
  0
BLOCK_RECORD
  5
167
330
1
100
AcDbSymbolTableRecord
100
AcDbBlockTableRecord
  2
*D3
340
0
  0
BLOCK_RECORD
  5
172
330
1
100
AcDbSymbolTableRecord
100
AcDbBlockTableRecord
  2
*D4
340
0
  0
BLOCK_RECORD
  5
17F
330
1
100
AcDbSymbolTableRecord
100
AcDbBlockTableRecord
  2
*D5
340
0
  0
BLOCK_RECORD
  5
18C
330
1
100
AcDbSymbolTableRecord
100
AcDbBlockTableRecord
  2
*D6
340
0
  0
BLOCK_RECORD
  5
197
330
1
100
AcDbSymbolTableRecord
100
AcDbBlockTableRecord
  2
*D7
340
0
  0
BLOCK_RECORD
  5
1A4
330
1
100
AcDbSymbolTableRecord
100
AcDbBlockTableRecord
  2
*D8
340
0
  0
BLOCK_RECORD
  5
1AF
330
1
100
AcDbSymbolTableRecord
100
AcDbBlockTableRecord
  2
*D9
340
0
  0
BLOCK_RECORD
  5
1BB
330
1
100
AcDbSymbolTableRecord
100
AcDbBlockTableRecord
  2
*D10
340
0
  0
ENDTAB
  0
ENDSEC
  0
SECTION
  2
BLOCKS
  0
BLOCK
  5
20
330
1F
100
AcDbEntity
  8
0
100
AcDbBlockBegin
  2
*Model_Space
 70
     0
 71
     0
 10
0.0
 20
0.0
 30
0.0
  3
*Model_Space
  1

  0
ENDBLK
  5
21
330
1F
100
AcDbEntity
  8
0
100
AcDbBlockEnd
  0
BLOCK
  5
1C
330
1B
100
AcDbEntity
 67
     1
  8
0
100
AcDbBlockBegin
  2
*Paper_Space
 70
     0
 71
     0
 10
0.0
 20
0.0
 30
0.0
  3
*Paper_Space
  1

  0
ENDBLK
  5
1D
330
1B
100
AcDbEntity
 67
     1
  8
0
100
AcDbBlockEnd
  0
BLOCK
  5
24
330
23
100
AcDbEntity
  8
0
100
AcDbBlockBegin
  2
*Paper_Space0
 70
     0
 71
     0
 10
0.0
 20
0.0
 30
0.0
  3
*Paper_Space0
  1

  0
ENDBLK
  5
25
330
23
100
AcDbEntity
  8
0
100
AcDbBlockEnd
  0
BLOCK
  5
158
330
14E
100
AcDbEntity
  8
0
100
AcDbBlockBegin
  2
*D1
 70
     1
 71
     0
 10
0.0
 20
0.0
 30
0.0
  3
*D1
  1

  0
LINE
  5
14F
330
14E
100
AcDbEntity
  8
1
  6
Continuous
 62
     2
100
AcDbLine
 10
863.480806376492
 20
-100.5530888845123
 30
0.0
 11
863.480806376492
 21
-93.55308888451229
 31
0.0
  0
LINE
  5
150
330
14E
100
AcDbEntity
  8
1
  6
Continuous
 62
     2
100
AcDbLine
 10
863.480806376492
 20
-101.5530888845123
 30
0.0
 11
863.480806376492
 21
-100.5530888845123
 31
0.0
  0
LINE
  5
151
330
14E
100
AcDbEntity
  8
1
  6
Continuous
 62
     2
100
AcDbLine
 10
863.480806376492
 20
-108.5530888845123
 30
0.0
 11
863.480806376492
 21
-101.5530888845123
 31
0.0
  0
LINE
  5
152
330
14E
100
AcDbEntity
  8
1
  6
Continuous
 62
     2
100
AcDbLine
 10
793.6408895036615
 20
-101.5530888845123
 30
0.0
 11
865.480806376492
 21
-101.5530888845123
 31
0.0
  0
LINE
  5
153
330
14E
100
AcDbEntity
  8
1
  6
Continuous
 62
     2
100
AcDbLine
 10
854.6408895036615
 20
-100.5530888845123
 30
0.0
 11
865.480806376492
 21
-100.5530888845123
 31
0.0
  0
SOLID
  5
154
330
14E
100
AcDbEntity
  8
1
 62
     2
100
AcDbTrace
 10
863.9415901180479
 20
-105.0530888845123
 30
0.0
 11
863.020022634936
 21
-105.0530888845123
 31
0.0
 12
863.480806376492
 22
-101.5530888845123
 32
0.0
 13
863.480806376492
 23
-101.5530888845123
 33
0.0
  0
SOLID
  5
155
330
14E
100
AcDbEntity
  8
1
 62
     2
100
AcDbTrace
 10
863.020022634936
 20
-97.05308888451229
 30
0.0
 11
863.9415901180479
 21
-97.05308888451229
 31
0.0
 12
863.480806376492
 22
-100.5530888845123
 32
0.0
 13
863.480806376492
 23
-100.5530888845123
 33
0.0
  0
MTEXT
  5
157
330
14E
100
AcDbEntity
  8
1
 62
     2
100
AcDbMText
 10
861.480806376492
 20
-105.400130967549
 30
0.0
 40
3.5
 41
0.0
 71
     7
 72
     1
  1
1
  7
CONVERTER_11
 11
0.0
 21
1.0
 31
0.0
 73
     1
 44
0.60024009603842
  0
ENDBLK
  5
159
330
14E
100
AcDbEntity
  8
0
100
AcDbBlockEnd
  0
BLOCK
  5
163
330
15C
100
AcDbEntity
  8
0
100
AcDbBlockBegin
  2
*D2
 70
     1
 71
     0
 10
0.0
 20
0.0
 30
0.0
  3
*D2
  1

  0
LINE
  5
15D
330
15C
100
AcDbEntity
  8
1
  6
Continuous
 62
     2
100
AcDbLine
 10
760.6408895036615
 20
-110.97686618736
 30
0.0
 11
796.1408895036615
 21
-110.97686618736
 31
0.0
  0
LINE
  5
15E
330
15C
100
AcDbEntity
  8
1
  6
Continuous
 62
     2
100
AcDbLine
 10
796.1408895036615
 20
-99.05308888451226
 30
0.0
 11
796.1408895036615
 21
-112.97686618736
 31
0.0
  0
LINE
  5
15F
330
15C
100
AcDbEntity
  8
1
  6
Continuous
 62
     2
100
AcDbLine
 10
760.6408895036615
 20
-93.98429126546647
 30
0.0
 11
760.6408895036615
 21
-112.97686618736
 31
0.0
  0
SOLID
  5
160
330
15C
100
AcDbEntity
  8
1
 62
     2
100
AcDbTrace
 10
764.1408895036615
 20
-110.5160824458041
 30
0.0
 11
764.1408895036615
 21
-111.4376499289159
 31
0.0
 12
760.6408895036615
 22
-110.97686618736
 32
0.0
 13
760.6408895036615
 23
-110.97686618736
 33
0.0
  0
SOLID
  5
161
330
15C
100
AcDbEntity
  8
1
 62
     2
100
AcDbTrace
 10
792.6408895036615
 20
-111.4376499289159
 30
0.0
 11
792.6408895036615
 21
-110.5160824458041
 31
0.0
 12
796.1408895036615
 22
-110.97686618736
 32
0.0
 13
796.1408895036615
 23
-110.97686618736
 33
0.0
  0
MTEXT
  5
162
330
15C
100
AcDbEntity
  8
1
 62
     2
100
AcDbMText
 10
772.9581013803439
 20
-108.97686618736
 30
0.0
 40
3.5
 41
0.0
 71
     7
 72
     1
  1
35.5
  7
CONVERTER_11
 11
0.9999999999970621
 21
2.424068405545307E-6
 31
0.0
 73
     1
 44
0.60024009603842
  0
ENDBLK
  5
164
330
15C
100
AcDbEntity
  8
0
100
AcDbBlockEnd
  0
BLOCK
  5
16E
330
167
100
AcDbEntity
  8
0
100
AcDbBlockBegin
  2
*D3
 70
     1
 71
     0
 10
0.0
 20
0.0
 30
0.0
  3
*D3
  1

  0
LINE
  5
168
330
167
100
AcDbEntity
  8
1
  6
Continuous
 62
     2
100
AcDbLine
 10
799.6408895036616
 20
-110.97686618736
 30
0.0
 11
834.6408895036615
 21
-110.97686618736
 31
0.0
  0
LINE
  5
169
330
167
100
AcDbEntity
  8
1
  6
Continuous
 62
     2
100
AcDbLine
 10
834.6408895036615
 20
-93.98429126545462
 30
0.0
 11
834.6408895036615
 21
-112.97686618736
 31
0.0
  0
LINE
  5
16A
330
167
100
AcDbEntity
  8
1
  6
Continuous
 62
     2
100
AcDbLine
 10
799.6408895036616
 20
-100.5530888845123
 30
0.0
 11
799.6408895036616
 21
-112.97686618736
 31
0.0
  0
SOLID
  5
16B
330
167
100
AcDbEntity
  8
1
 62
     2
100
AcDbTrace
 10
803.1408895036616
 20
-110.5160824458041
 30
0.0
 11
803.1408895036616
 21
-111.4376499289159
 31
0.0
 12
799.6408895036616
 22
-110.97686618736
 32
0.0
 13
799.6408895036616
 23
-110.97686618736
 33
0.0
  0
SOLID
  5
16C
330
167
100
AcDbEntity
  8
1
 62
     2
100
AcDbTrace
 10
831.1408895036615
 20
-111.4376499289159
 30
0.0
 11
831.1408895036615
 21
-110.5160824458041
 31
0.0
 12
834.6408895036615
 22
-110.97686618736
 32
0.0
 13
834.6408895036615
 23
-110.97686618736
 33
0.0
  0
MTEXT
  5
16D
330
167
100
AcDbEntity
  8
1
 62
     2
100
AcDbMText
 10
814.5158895036615
 20
-108.97686618736
 30
0.0
 40
3.5
 41
0.0
 71
     7
 72
     1
  1
35
  7
CONVERTER_11
 11
0.9999999999970621
 21
2.424068405545307E-6
 31
0.0
 73
     1
 44
0.60024009603842
  0
ENDBLK
  5
16F
330
167
100
AcDbEntity
  8
0
100
AcDbBlockEnd
  0
BLOCK
  5
17B
330
172
100
AcDbEntity
  8
0
100
AcDbBlockBegin
  2
*D4
 70
     1
 71
     0
 10
0.0
 20
0.0
 30
0.0
  3
*D4
  1

  0
LINE
  5
173
330
172
100
AcDbEntity
  8
1
  6
Continuous
 62
     2
100
AcDbLine
 10
789.1408895036615
 20
-110.97686618736
 30
0.0
 11
796.1408895036615
 21
-110.97686618736
 31
0.0
  0
LINE
  5
174
330
172
100
AcDbEntity
  8
1
  6
Continuous
 62
     2
100
AcDbLine
 10
796.1408895036615
 20
-110.97686618736
 30
0.0
 11
799.6408895036616
 21
-110.97686618736
 31
0.0
  0
LINE
  5
175
330
172
100
AcDbEntity
  8
1
  6
Continuous
 62
     2
100
AcDbLine
 10
799.6408895036616
 20
-110.97686618736
 30
0.0
 11
806.6408895036616
 21
-110.97686618736
 31
0.0
  0
LINE
  5
176
330
172
100
AcDbEntity
  8
1
  6
Continuous
 62
     2
100
AcDbLine
 10
799.6408895036616
 20
-100.5530888845123
 30
0.0
 11
799.6408895036616
 21
-112.97686618736
 31
0.0
  0
LINE
  5
177
330
172
100
AcDbEntity
  8
1
  6
Continuous
 62
     2
100
AcDbLine
 10
796.1408895036615
 20
-99.05308888451226
 30
0.0
 11
796.1408895036615
 21
-112.97686618736
 31
0.0
  0
SOLID
  5
178
330
172
100
AcDbEntity
  8
1
 62
     2
100
AcDbTrace
 10
792.6408895036615
 20
-111.4376499289159
 30
0.0
 11
792.6408895036615
 21
-110.5160824458041
 31
0.0
 12
796.1408895036615
 22
-110.97686618736
 32
0.0
 13
796.1408895036615
 23
-110.97686618736
 33
0.0
  0
SOLID
  5
179
330
172
100
AcDbEntity
  8
1
 62
     2
100
AcDbTrace
 10
803.1408895036616
 20
-110.5160824458041
 30
0.0
 11
803.1408895036616
 21
-111.4376499289159
 31
0.0
 12
799.6408895036616
 22
-110.97686618736
 32
0.0
 13
799.6408895036616
 23
-110.97686618736
 33
0.0
  0
MTEXT
  5
17A
330
172
100
AcDbEntity
  8
1
 62
     2
100
AcDbMText
 10
792.7586634665719
 20
-116.184728272119
 30
0.0
 40
3.5
 41
0.0
 71
     7
 72
     1
  1
3.5
  7
CONVERTER_11
 11
0.9999999999970621
 21
2.424068405545307E-6
 31
0.0
 73
     1
 44
0.60024009603842
  0
ENDBLK
  5
17C
330
172
100
AcDbEntity
  8
0
100
AcDbBlockEnd
  0
BLOCK
  5
188
330
17F
100
AcDbEntity
  8
0
100
AcDbBlockBegin
  2
*D5
 70
     1
 71
     0
 10
0.0
 20
0.0
 30
0.0
  3
*D5
  1

  0
LINE
  5
180
330
17F
100
AcDbEntity
  8
1
  6
Continuous
 62
     2
100
AcDbLine
 10
747.0951171652669
 20
-108.5530888845124
 30
0.0
 11
747.0951171652669
 21
-101.5530888845124
 31
0.0
  0
LINE
  5
181
330
17F
100
AcDbEntity
  8
1
  6
Continuous
 62
     2
100
AcDbLine
 10
747.0951171652669
 20
-101.5530888845124
 30
0.0
 11
747.0951171652669
 21
-96.55308888451235
 31
0.0
  0
LINE
  5
182
330
17F
100
AcDbEntity
  8
1
  6
Continuous
 62
     2
100
AcDbLine
 10
747.0951171652669
 20
-96.55308888451235
 30
0.0
 11
747.0951171652669
 21
-89.55308888451235
 31
0.0
  0
LINE
  5
183
330
17F
100
AcDbEntity
  8
1
  6
Continuous
 62
     2
100
AcDbLine
 10
769.6408895036615
 20
-96.55308888451235
 30
0.0
 11
745.0951171652669
 21
-96.55308888451235
 31
0.0
  0
LINE
  5
184
330
17F
100
AcDbEntity
  8
1
  6
Continuous
 62
     2
100
AcDbLine
 10
756.6408895036609
 20
-101.5530888845124
 30
0.0
 11
745.0951171652669
 21
-101.5530888845124
 31
0.0
  0
SOLID
  5
185
330
17F
100
AcDbEntity
  8
1
 62
     2
100
AcDbTrace
 10
747.5559009068228
 20
-105.0530888845124
 30
0.0
 11
746.6343334237109
 21
-105.0530888845124
 31
0.0
 12
747.0951171652669
 22
-101.5530888845124
 32
0.0
 13
747.0951171652669
 23
-101.5530888845124
 33
0.0
  0
SOLID
  5
186
330
17F
100
AcDbEntity
  8
1
 62
     2
100
AcDbTrace
 10
746.6343334237109
 20
-93.05308888451235
 30
0.0
 11
747.5559009068228
 21
-93.05308888451235
 31
0.0
 12
747.0951171652669
 22
-96.55308888451235
 32
0.0
 13
747.0951171652669
 23
-96.55308888451235
 33
0.0
  0
MTEXT
  5
187
330
17F
100
AcDbEntity
  8
1
 62
     2
100
AcDbMText
 10
745.0951171652669
 20
-106.159507457502
 30
0.0
 40
3.5
 41
0.0
 71
     7
 72
     1
  1
5
  7
CONVERTER_11
 11
0.0
 21
1.0
 31
0.0
 73
     1
 44
0.60024009603842
  0
ENDBLK
  5
189
330
17F
100
AcDbEntity
  8
0
100
AcDbBlockEnd
  0
BLOCK
  5
193
330
18C
100
AcDbEntity
  8
0
100
AcDbBlockBegin
  2
*D6
 70
     1
 71
     0
 10
0.0
 20
0.0
 30
0.0
  3
*D6
  1

  0
LINE
  5
18D
330
18C
100
AcDbEntity
  8
1
  6
Continuous
 62
     2
100
AcDbLine
 10
747.0951171652669
 20
-96.55308888451235
 30
0.0
 11
747.0951171652669
 21
-64.55308888451235
 31
0.0
  0
LINE
  5
18E
330
18C
100
AcDbEntity
  8
1
  6
Continuous
 62
     2
100
AcDbLine
 10
769.6408895036633
 20
-64.55308888451235
 30
0.0
 11
745.0951171652669
 21
-64.55308888451235
 31
0.0
  0
LINE
  5
18F
330
18C
100
AcDbEntity
  8
1
  6
Continuous
 62
     2
100
AcDbLine
 10
769.6408895036615
 20
-96.55308888451235
 30
0.0
 11
745.0951171652669
 21
-96.55308888451235
 31
0.0
  0
SOLID
  5
190
330
18C
100
AcDbEntity
  8
1
 62
     2
100
AcDbTrace
 10
746.6343334237109
 20
-93.05308888451235
 30
0.0
 11
747.5559009068228
 21
-93.05308888451235
 31
0.0
 12
747.0951171652669
 22
-96.55308888451235
 32
0.0
 13
747.0951171652669
 23
-96.55308888451235
 33
0.0
  0
SOLID
  5
191
330
18C
100
AcDbEntity
  8
1
 62
     2
100
AcDbTrace
 10
747.5559009068228
 20
-68.05308888451235
 30
0.0
 11
746.6343334237109
 21
-68.05308888451235
 31
0.0
 12
747.0951171652669
 22
-64.55308888451235
 32
0.0
 13
747.0951171652669
 23
-64.55308888451235
 33
0.0
  0
MTEXT
  5
192
330
18C
100
AcDbEntity
  8
1
 62
     2
100
AcDbMText
 10
745.0951171652669
 20
-83.17808888451235
 30
0.0
 40
3.5
 41
0.0
 71
     7
 72
     1
  1
32
  7
CONVERTER_11
 11
0.0
 21
1.0
 31
0.0
 73
     1
 44
0.60024009603842
  0
ENDBLK
  5
194
330
18C
100
AcDbEntity
  8
0
100
AcDbBlockEnd
  0
BLOCK
  5
1A0
330
197
100
AcDbEntity
  8
0
100
AcDbBlockBegin
  2
*D7
 70
     1
 71
     0
 10
0.0
 20
0.0
 30
0.0
  3
*D7
  1

  0
LINE
  5
198
330
197
100
AcDbEntity
  8
1
  6
Continuous
 62
     2
100
AcDbLine
 10
873.221105804278
 20
-107.5530888845123
 30
0.0
 11
873.221105804278
 21
-100.5530888845123
 31
0.0
  0
LINE
  5
199
330
197
100
AcDbEntity
  8
1
  6
Continuous
 62
     2
100
AcDbLine
 10
873.221105804278
 20
-100.5530888845123
 30
0.0
 11
873.221105804278
 21
-96.55308888450068
 31
0.0
  0
LINE
  5
19A
330
197
100
AcDbEntity
  8
1
  6
Continuous
 62
     2
100
AcDbLine
 10
873.221105804278
 20
-96.55308888450068
 30
0.0
 11
873.221105804278
 21
-89.55308888450068
 31
0.0
  0
LINE
  5
19B
330
197
100
AcDbEntity
  8
1
  6
Continuous
 62
     2
100
AcDbLine
 10
836.1408895036615
 20
-96.55308888450068
 30
0.0
 11
875.221105804278
 21
-96.55308888450068
 31
0.0
  0
LINE
  5
19C
330
197
100
AcDbEntity
  8
1
  6
Continuous
 62
     2
100
AcDbLine
 10
854.6408895036615
 20
-100.5530888845123
 30
0.0
 11
875.221105804278
 21
-100.5530888845123
 31
0.0
  0
SOLID
  5
19D
330
197
100
AcDbEntity
  8
1
 62
     2
100
AcDbTrace
 10
873.6818895458339
 20
-104.0530888845123
 30
0.0
 11
872.760322062722
 21
-104.0530888845123
 31
0.0
 12
873.221105804278
 22
-100.5530888845123
 32
0.0
 13
873.221105804278
 23
-100.5530888845123
 33
0.0
  0
SOLID
  5
19E
330
197
100
AcDbEntity
  8
1
 62
     2
100
AcDbTrace
 10
872.760322062722
 20
-93.05308888450068
 30
0.0
 11
873.6818895458339
 21
-93.05308888450068
 31
0.0
 12
873.221105804278
 22
-96.55308888450068
 32
0.0
 13
873.221105804278
 23
-96.55308888450068
 33
0.0
  0
MTEXT
  5
19F
330
197
100
AcDbEntity
  8
1
 62
     2
100
AcDbMText
 10
871.221105804278
 20
-105.352172177679
 30
0.0
 40
3.5
 41
0.0
 71
     7
 72
     1
  1
4
  7
CONVERTER_11
 11
0.0
 21
1.0
 31
0.0
 73
     1
 44
0.60024009603842
  0
ENDBLK
  5
1A1
330
197
100
AcDbEntity
  8
0
100
AcDbBlockEnd
  0
BLOCK
  5
1AB
330
1A4
100
AcDbEntity
  8
0
100
AcDbBlockBegin
  2
*D8
 70
     1
 71
     0
 10
0.0
 20
0.0
 30
0.0
  3
*D8
  1

  0
LINE
  5
1A5
330
1A4
100
AcDbEntity
  8
1
  6
Continuous
 62
     2
100
AcDbLine
 10
873.221105804278
 20
-96.5530888845007
 30
0.0
 11
873.221105804278
 21
-64.55308888451228
 31
0.0
  0
LINE
  5
1A6
330
1A4
100
AcDbEntity
  8
1
  6
Continuous
 62
     2
100
AcDbLine
 10
836.1408895036615
 20
-64.55308888451228
 30
0.0
 11
875.221105804278
 21
-64.55308888451228
 31
0.0
  0
LINE
  5
1A7
330
1A4
100
AcDbEntity
  8
1
  6
Continuous
 62
     2
100
AcDbLine
 10
836.1408895036615
 20
-96.5530888845007
 30
0.0
 11
875.221105804278
 21
-96.5530888845007
 31
0.0
  0
SOLID
  5
1A8
330
1A4
100
AcDbEntity
  8
1
 62
     2
100
AcDbTrace
 10
872.760322062722
 20
-93.0530888845007
 30
0.0
 11
873.6818895458339
 21
-93.0530888845007
 31
0.0
 12
873.221105804278
 22
-96.5530888845007
 32
0.0
 13
873.221105804278
 23
-96.5530888845007
 33
0.0
  0
SOLID
  5
1A9
330
1A4
100
AcDbEntity
  8
1
 62
     2
100
AcDbTrace
 10
873.6818895458339
 20
-68.05308888451228
 30
0.0
 11
872.760322062722
 21
-68.05308888451228
 31
0.0
 12
873.221105804278
 22
-64.55308888451228
 32
0.0
 13
873.221105804278
 23
-64.55308888451228
 33
0.0
  0
MTEXT
  5
1AA
330
1A4
100
AcDbEntity
  8
1
 62
     2
100
AcDbMText
 10
871.221105804278
 20
-83.1780888845065
 30
0.0
 40
3.5
 41
0.0
 71
     7
 72
     1
  1
32
  7
CONVERTER_11
 11
0.0
 21
1.0
 31
0.0
 73
     1
 44
0.60024009603842
  0
ENDBLK
  5
1AC
330
1A4
100
AcDbEntity
  8
0
100
AcDbBlockEnd
  0
BLOCK
  5
1B7
330
1AF
100
AcDbEntity
  8
0
100
AcDbBlockBegin
  2
*D9
 70
     1
 71
     0
 10
0.0
 20
0.0
 30
0.0
  3
*D9
  1

  0
LINE
  5
1B0
330
1AF
100
AcDbEntity
  8
1
  6
Continuous
 62
     2
100
AcDbLine
 10
754.140889503661
 20
-126.360628410952
 30
0.0
 11
796.1408895036615
 21
-126.360628410952
 31
0.0
  0
LINE
  5
1B1
330
1AF
100
AcDbEntity
  8
1
  6
Continuous
 62
     2
100
AcDbLine
 10
796.1408895036615
 20
-99.05308888451226
 30
0.0
 11
796.1408895036615
 21
-112.508717646036
 31
0.0
  0
LINE
  5
1B2
330
1AF
100
AcDbEntity
  8
1
  6
Continuous
 62
     2
100
AcDbLine
 10
796.1408895036615
 20
-118.159589909118
 30
0.0
 11
796.1408895036615
 21
-128.360628410952
 31
0.0
  0
LINE
  5
1B3
330
1AF
100
AcDbEntity
  8
1
  6
Continuous
 62
     2
100
AcDbLine
 10
754.140889503661
 20
-99.05308888451236
 30
0.0
 11
754.140889503661
 21
-128.360628410952
 31
0.0
  0
SOLID
  5
1B4
330
1AF
100
AcDbEntity
  8
1
 62
     2
100
AcDbTrace
 10
757.640889503661
 20
-125.8998446693961
 30
0.0
 11
757.640889503661
 21
-126.8214121525079
 31
0.0
 12
754.140889503661
 22
-126.360628410952
 32
0.0
 13
754.140889503661
 23
-126.360628410952
 33
0.0
  0
SOLID
  5
1B5
330
1AF
100
AcDbEntity
  8
1
 62
     2
100
AcDbTrace
 10
792.6408895036615
 20
-126.8214121525079
 30
0.0
 11
792.6408895036615
 21
-125.8998446693961
 31
0.0
 12
796.1408895036615
 22
-126.360628410952
 32
0.0
 13
796.1408895036615
 23
-126.360628410952
 33
0.0
  0
MTEXT
  5
1B6
330
1AF
100
AcDbEntity
  8
1
 62
     2
100
AcDbMText
 10
765.617661950408
 20
-124.3606562392573
 30
0.0
 40
3.5
 41
0.0
 71
     7
 72
     1
  1
\C2;min.\C2;42
  7
CONVERTER_11
 11
0.9999999999970621
 21
2.424068405545307E-6
 31
0.0
 73
     1
 44
0.60024009603842
  0
ENDBLK
  5
1B8
330
1AF
100
AcDbEntity
  8
0
100
AcDbBlockEnd
  0
BLOCK
  5
1C2
330
1BB
100
AcDbEntity
  8
0
100
AcDbBlockBegin
  2
*D10
 70
     1
 71
     0
 10
0.0
 20
0.0
 30
0.0
  3
*D10
  1

  0
LINE
  5
1BC
330
1BB
100
AcDbEntity
  8
1
  6
Continuous
 62
     2
100
AcDbLine
 10
799.6408895036616
 20
-126.360628410952
 30
0.0
 11
836.1408895036615
 21
-126.360628410952
 31
0.0
  0
LINE
  5
1BD
330
1BB
100
AcDbEntity
  8
1
  6
Continuous
 62
     2
100
AcDbLine
 10
836.1408895036615
 20
-96.5530888845007
 30
0.0
 11
836.1408895036615
 21
-128.360628410952
 31
0.0
  0
LINE
  5
1BE
330
1BB
100
AcDbEntity
  8
1
  6
Continuous
 62
     2
100
AcDbLine
 10
799.6408895036616
 20
-100.5530888845123
 30
0.0
 11
799.6408895036616
 21
-128.360628410952
 31
0.0
  0
SOLID
  5
1BF
330
1BB
100
AcDbEntity
  8
1
 62
     2
100
AcDbTrace
 10
803.1408895036616
 20
-125.8998446693961
 30
0.0
 11
803.1408895036616
 21
-126.8214121525079
 31
0.0
 12
799.6408895036616
 22
-126.360628410952
 32
0.0
 13
799.6408895036616
 23
-126.360628410952
 33
0.0
  0
SOLID
  5
1C0
330
1BB
100
AcDbEntity
  8
1
 62
     2
100
AcDbTrace
 10
832.6408895036615
 20
-126.8214121525079
 30
0.0
 11
832.6408895036615
 21
-125.8998446693961
 31
0.0
 12
836.1408895036615
 22
-126.360628410952
 32
0.0
 13
836.1408895036615
 23
-126.360628410952
 33
0.0
  0
MTEXT
  5
1C1
330
1BB
100
AcDbEntity
  8
1
 62
     2
100
AcDbMText
 10
813.1221395036615
 20
-124.360628410952
 30
0.0
 40
3.5
 41
0.0
 71
     7
 72
     1
  1
36.5
  7
CONVERTER_11
 11
0.9999999999970621
 21
2.424068405545307E-6
 31
0.0
 73
     1
 44
0.60024009603842
  0
ENDBLK
  5
1C3
330
1BB
100
AcDbEntity
  8
0
100
AcDbBlockEnd
  0
ENDSEC
  0
SECTION
  2
ENTITIES
  0
LINE
  5
32
330
1F
100
AcDbEntity
  8
1
  6
Continuous
 62
     7
100
AcDbLine
 10
794.6408895036615
 20
-96.55308888451232
 30
0.0
 11
783.1408895036615
 21
-96.55308888451235
 31
0.0
  0
LINE
  5
33
330
1F
100
AcDbEntity
  8
1
  6
Continuous
 62
     7
100
AcDbLine
 10
794.6408895036615
 20
-64.55308888451229
 30
0.0
 11
796.1408895036615
 21
-64.55308888451229
 31
0.0
  0
LINE
  5
34
330
1F
100
AcDbEntity
  8
1
  6
Continuous
 62
     7
100
AcDbLine
 10
794.6408895036615
 20
-64.55308888451229
 30
0.0
 11
794.6408895036615
 21
-44.05308888451236
 31
0.0
  0
LINE
  5
35
330
1F
100
AcDbEntity
  8
1
  6
Continuous
 62
     7
100
AcDbLine
 10
794.6408895036615
 20
-99.0530888845123
 30
0.0
 11
794.6408895036615
 21
-96.55308888451232
 31
0.0
  0
LINE
  5
36
330
1F
100
AcDbEntity
  8
1
  6
Continuous
 62
     7
100
AcDbLine
 10
796.1408895036615
 20
-96.55308888451233
 30
0.0
 11
796.1408895036615
 21
-99.0530888845123
 31
0.0
  0
LINE
  5
37
330
1F
100
AcDbEntity
  8
1
  6
Continuous
 62
     7
100
AcDbLine
 10
796.1408895036615
 20
-58.55308888451236
 30
0.0
 11
796.1408895036615
 21
-64.55308888451229
 31
0.0
  0
LINE
  5
38
330
1F
100
AcDbEntity
  8
1
  6
Continuous
 62
     7
100
AcDbLine
 10
809.6408895036615
 20
-55.05308888451236
 30
0.0
 11
809.6408895036615
 21
-24.96038604681189
 31
0.0
  0
LINE
  5
39
330
1F
100
AcDbEntity
  8
1
  6
Continuous
 62
     7
100
AcDbLine
 10
811.1408895036615
 20
-55.55308888451236
 30
0.0
 11
811.1408895036615
 21
-24.96038604681189
 31
0.0
  0
LINE
  5
3A
330
1F
100
AcDbEntity
  8
1
  6
Continuous
 62
     7
100
AcDbLine
 10
807.1300261515238
 20
-57.55308888451236
 30
0.0
 11
809.1408895036615
 21
-57.55308888451236
 31
0.0
  0
LINE
  5
3B
330
1F
100
AcDbEntity
  8
1
  6
Continuous
 62
     7
100
AcDbLine
 10
807.7816388379446
 20
-56.05308888451236
 30
0.0
 11
808.6408895036615
 21
-56.05308888451236
 31
0.0
  0
LINE
  5
3C
330
1F
100
AcDbEntity
  8
1
  6
Continuous
 62
     7
100
AcDbLine
 10
809.5897782430951
 20
-44.44131745216618
 30
0.0
 11
806.8157130116552
 21
-54.79426983940988
 31
0.0
  0
LINE
  5
3D
330
1F
100
AcDbEntity
  8
1
  6
Continuous
 62
     7
100
AcDbLine
 10
796.1408895036615
 20
-42.55308888451248
 30
0.0
 11
808.1408895036615
 21
-42.55308888451236
 31
0.0
  0
LINE
  5
3E
330
1F
100
AcDbEntity
  8
1
  6
Continuous
 62
     7
100
AcDbLine
 10
807.9722397303855
 20
-44.68249840706369
 30
0.0
 11
807.1289908640052
 21
-47.82954601981987
 31
0.0
  0
LINE
  5
3F
330
1F
100
AcDbEntity
  8
1
  6
Continuous
 62
     7
100
AcDbLine
 10
796.6408895036615
 20
-44.05308888451236
 30
0.0
 11
799.1408895036615
 21
-44.05308888451236
 31
0.0
  0
LINE
  5
40
330
1F
100
AcDbEntity
  8
1
  6
Continuous
 62
     7
100
AcDbLine
 10
796.1408895036615
 20
-58.55308888451236
 30
0.0
 11
796.1408895036615
 21
-47.05308888451236
 31
0.0
  0
LINE
  5
41
330
1F
100
AcDbEntity
  8
1
  6
Continuous
 62
     7
100
AcDbLine
 10
798.1408895036615
 20
-60.55308888451236
 30
0.0
 11
805.9468101949038
 21
-60.55308888451236
 31
0.0
  0
LINE
  5
42
330
1F
100
AcDbEntity
  8
1
  6
Continuous
 62
     7
100
AcDbLine
 10
799.1408895036615
 20
-44.05308888451236
 30
0.0
 11
804.231213385138
 21
-44.05308888451236
 31
0.0
  0
LINE
  5
43
330
1F
100
AcDbEntity
  8
1
  6
Continuous
 62
     7
100
AcDbLine
 10
796.1408895036615
 20
-47.05308888451236
 30
0.0
 11
796.1408895036615
 21
-44.55308888451236
 31
0.0
  0
LINE
  5
44
330
1F
100
AcDbEntity
  8
1
  6
Continuous
 62
     7
100
AcDbLine
 10
804.231213385138
 20
-44.05308888451236
 30
0.0
 11
807.4892768172409
 21
-44.05308888451236
 31
0.0
  0
LINE
  5
45
330
1F
100
AcDbEntity
  8
1
  6
Continuous
 62
     7
100
AcDbLine
 10
807.1289908640052
 20
-47.82954601981987
 30
0.0
 11
805.1981744989458
 21
-55.0354507943074
 31
0.0
  0
LINE
  5
46
330
1F
100
AcDbEntity
  8
1
  6
Continuous
 62
     7
100
AcDbLine
 10
798.1408895036615
 20
-59.55308888451236
 30
0.0
 11
805.9468101949038
 21
-59.55308888451236
 31
0.0
  0
LINE
  5
47
330
1F
100
AcDbEntity
  8
1
  6
Continuous
 62
     7
100
AcDbLine
 10
797.1408895036615
 20
-58.55308888451236
 30
0.0
 11
797.1408895036615
 21
-47.05308888451236
 31
0.0
  0
LINE
  5
48
330
1F
100
AcDbEntity
  8
1
  6
Continuous
 62
     7
100
AcDbLine
 10
799.1408895036615
 20
-45.05308888451236
 30
0.0
 11
804.231213385138
 21
-45.05308888451236
 31
0.0
  0
LINE
  5
49
330
1F
100
AcDbEntity
  8
1
  6
Continuous
 62
     7
100
AcDbLine
 10
806.1630650377161
 20
-47.57072697471745
 30
0.0
 11
804.2322486726565
 21
-54.77663174920485
 31
0.0
  0
LINE
  5
4A
330
1F
100
AcDbEntity
  8
1
  6
Continuous
 62
     7
100
AcDbLine
 10
754.140889503661
 20
-91.55308888451236
 30
0.0
 11
754.140889503661
 21
-99.0530888845124
 31
0.0
  0
LINE
  5
4B
330
1F
100
AcDbEntity
  8
1
  6
Continuous
 62
     7
100
AcDbLine
 10
756.640889503661
 20
-101.5530888845124
 30
0.0
 11
793.6408895036615
 21
-101.5530888845123
 31
0.0
  0
LINE
  5
4C
330
1F
100
AcDbEntity
  8
1
  6
Continuous
 62
     7
100
AcDbLine
 10
793.6408895036615
 20
-100.0530888845123
 30
0.0
 11
756.640889503661
 21
-100.0530888845124
 31
0.0
  0
LINE
  5
4D
330
1F
100
AcDbEntity
  8
1
  6
Continuous
 62
     7
100
AcDbLine
 10
755.640889503661
 20
-99.0530888845124
 30
0.0
 11
755.640889503661
 21
-91.55308888451236
 31
0.0
  0
LINE
  5
4E
330
1F
100
AcDbEntity
  8
1
  6
Continuous
 62
     7
100
AcDbLine
 10
754.140889503661
 20
-91.55308888451236
 30
0.0
 11
755.640889503661
 21
-91.55308888451236
 31
0.0
  0
LINE
  5
4F
330
1F
100
AcDbEntity
  8
1
  6
Continuous
 62
     7
100
AcDbLine
 10
761.9321298522214
 20
-95.4696933685788
 30
0.0
 11
769.6408895036615
 21
-96.55308888451235
 31
0.0
  0
LINE
  5
50
330
1F
100
AcDbEntity
  8
1
  6
Continuous
 62
     7
100
AcDbLine
 10
760.6408895036615
 20
-67.12188650355849
 30
0.0
 11
760.6408895036615
 21
-93.98429126546647
 31
0.0
  0
LINE
  5
51
330
1F
100
AcDbEntity
  8
1
  6
Continuous
 62
     7
100
AcDbLine
 10
761.9321298522214
 20
-65.63648440044614
 30
0.0
 11
769.6408895036633
 21
-64.55308888451235
 31
0.0
  0
LINE
  5
52
330
1F
100
AcDbEntity
  8
1
  6
Continuous
 62
     7
100
AcDbLine
 10
761.6408895036615
 20
-93.98429126546648
 30
0.0
 11
761.6408895036615
 21
-67.12188650355814
 31
0.0
  0
LINE
  5
53
330
1F
100
AcDbEntity
  8
1
  6
Continuous
 62
     7
100
AcDbLine
 10
769.7321561427863
 20
-95.55608800163681
 30
0.0
 11
762.0713029531814
 21
-94.47942529983726
 31
0.0
  0
LINE
  5
54
330
1F
100
AcDbEntity
  8
1
  6
Continuous
 62
     7
100
AcDbLine
 10
788.1408895036615
 20
-65.55308888451228
 30
0.0
 11
794.1408895036615
 21
-65.55308888451229
 31
0.0
  0
LINE
  5
55
330
1F
100
AcDbEntity
  8
1
  6
Continuous
 62
     7
100
AcDbLine
 10
788.1408895036615
 20
-64.55308888451228
 30
0.0
 11
794.1408895036615
 21
-64.55308888451229
 31
0.0
  0
LINE
  5
56
330
1F
100
AcDbEntity
  8
1
  6
Continuous
 62
     7
100
AcDbLine
 10
788.1408895036615
 20
-65.55308888451228
 30
0.0
 11
788.1408895036615
 21
-64.55308888451228
 31
0.0
  0
LINE
  5
57
330
1F
100
AcDbEntity
  8
1
  6
Continuous
 62
     7
100
AcDbLine
 10
796.1408895036615
 20
-96.55308888451233
 30
0.0
 11
794.6408895036615
 21
-96.55308888451232
 31
0.0
  0
LINE
  5
58
330
1F
100
AcDbEntity
  8
1
  6
Continuous
 62
     7
100
AcDbLine
 10
762.0713029531814
 20
-66.62675246918738
 30
0.0
 11
769.7108163156039
 21
-65.55308888451246
 31
0.0
  0
LINE
  5
59
330
1F
100
AcDbEntity
  8
1
  6
Continuous
 62
     7
100
AcDbLine
 10
769.7108163156039
 20
-65.55308888451246
 30
0.0
 11
788.1408895036615
 21
-65.55308888451228
 31
0.0
  0
LINE
  5
5A
330
1F
100
AcDbEntity
  8
1
  6
Continuous
 62
     7
100
AcDbLine
 10
794.1408895036615
 20
-64.55308888451229
 30
0.0
 11
794.6408895036615
 21
-64.55308888451229
 31
0.0
  0
LINE
  5
5B
330
1F
100
AcDbEntity
  8
1
  6
Continuous
 62
     7
100
AcDbLine
 10
794.1408895036615
 20
-64.55308888451229
 30
0.0
 11
794.1408895036615
 21
-65.55308888451229
 31
0.0
  0
LINE
  5
5C
330
1F
100
AcDbEntity
  8
1
  6
Continuous
 62
     7
100
AcDbLine
 10
769.6408895036633
 20
-64.55308888451235
 30
0.0
 11
788.1408895036615
 21
-64.55308888451228
 31
0.0
  0
LINE
  5
5D
330
1F
100
AcDbEntity
  8
1
  6
Continuous
 62
     7
100
AcDbLine
 10
783.1408895036615
 20
-96.55308888451235
 30
0.0
 11
783.1408895036616
 21
-95.55384440998266
 31
0.0
  0
LINE
  5
5E
330
1F
100
AcDbEntity
  8
1
  6
Continuous
 62
     7
100
AcDbLine
 10
783.1408895036615
 20
-96.55308888451235
 30
0.0
 11
769.6408895036615
 21
-96.55308888451235
 31
0.0
  0
LINE
  5
5F
330
1F
100
AcDbEntity
  8
1
  6
Continuous
 62
     7
100
AcDbLine
 10
783.1408895036616
 20
-95.55384440998266
 30
0.0
 11
769.7321561427863
 21
-95.55608800163681
 31
0.0
  0
LINE
  5
60
330
1F
100
AcDbEntity
  8
1
  6
Continuous
 62
     7
100
AcDbLine
 10
796.1408895036615
 20
-66.36934038571395
 30
0.0
 11
796.1408895036615
 21
-64.55308888451229
 31
0.0
  0
LINE
  5
61
330
1F
100
AcDbEntity
  8
1
  6
Continuous
 62
     7
100
AcDbLine
 10
796.1408895036615
 20
-96.55308888451233
 30
0.0
 11
796.1408895036615
 21
-77.2845259368882
 31
0.0
  0
LINE
  5
62
330
1F
100
AcDbEntity
  8
1
  6
Continuous
 62
     7
100
AcDbLine
 10
757.6408895036615
 20
-100.0530888845125
 30
0.0
 11
760.1408895036615
 21
-100.0530888845125
 31
0.0
  0
LINE
  5
63
330
1F
100
AcDbEntity
  8
1
  6
Continuous
 62
     7
100
AcDbLine
 10
792.1408895036615
 20
-100.0530888845125
 30
0.0
 11
792.1408895036615
 21
-97.5530888845125
 31
0.0
  0
LINE
  5
64
330
1F
100
AcDbEntity
  8
1
  6
Continuous
 62
     7
100
AcDbLine
 10
792.1408895036615
 20
-97.5530888845125
 30
0.0
 11
794.6408895036615
 21
-97.5530888845125
 31
0.0
  0
LINE
  5
65
330
1F
100
AcDbEntity
  8
1
  6
Continuous
 62
     7
100
AcDbLine
 10
794.1408895036615
 20
-61.55308888451246
 30
0.0
 11
760.6408895036615
 21
-61.55308888451246
 31
0.0
  0
LINE
  5
66
330
1F
100
AcDbEntity
  8
1
  6
Continuous
 62
     7
100
AcDbLine
 10
794.6408895036615
 20
-64.05308888451246
 30
0.0
 11
792.1408895036615
 21
-64.05308888451246
 31
0.0
  0
LINE
  5
67
330
1F
100
AcDbEntity
  8
1
  6
Continuous
 62
     7
100
AcDbLine
 10
794.1408895036615
 20
-64.05308888451246
 30
0.0
 11
794.1408895036615
 21
-61.55308888451246
 31
0.0
  0
LINE
  5
68
330
1F
100
AcDbEntity
  8
1
  6
Continuous
 62
     7
100
AcDbLine
 10
760.1408895036615
 20
-64.55308888451246
 30
0.0
 11
760.1408895036615
 21
-100.0530888845125
 31
0.0
  0
LINE
  5
69
330
1F
100
AcDbEntity
  8
1
  6
Continuous
 62
     7
100
AcDbLine
 10
760.1408895036615
 20
-100.0530888845125
 30
0.0
 11
770.9408895036615
 21
-100.0530888845125
 31
0.0
  0
LINE
  5
6A
330
1F
100
AcDbEntity
  8
1
  6
Continuous
 62
     7
100
AcDbLine
 10
792.1408895036615
 20
-64.05308888451246
 30
0.0
 11
760.6408895036615
 21
-64.05308888451246
 31
0.0
  0
LINE
  5
6B
330
1F
100
AcDbEntity
  8
1
  6
Continuous
 62
     7
100
AcDbLine
 10
770.9408895036615
 20
-100.0530888845125
 30
0.0
 11
770.9408895036615
 21
-97.05308888451246
 31
0.0
  0
LINE
  5
6C
330
1F
100
AcDbEntity
  8
1
  6
Continuous
 62
     7
100
AcDbLine
 10
770.9408895036615
 20
-97.05308888451246
 30
0.0
 11
781.1408895036615
 21
-97.05308888451246
 31
0.0
  0
LINE
  5
6D
330
1F
100
AcDbEntity
  8
1
  6
Continuous
 62
     7
100
AcDbLine
 10
781.1408895036615
 20
-97.05308888451246
 30
0.0
 11
781.1408895036615
 21
-100.0530888845125
 31
0.0
  0
LINE
  5
6E
330
1F
100
AcDbEntity
  8
1
  6
Continuous
 62
     7
100
AcDbLine
 10
781.1408895036615
 20
-100.0530888845125
 30
0.0
 11
792.1408895036615
 21
-100.0530888845125
 31
0.0
  0
LINE
  5
6F
330
1F
100
AcDbEntity
  8
1
  6
Continuous
 62
     7
100
AcDbLine
 10
757.6408895036615
 20
-64.55308888451246
 30
0.0
 11
757.6408895036615
 21
-100.0530888845125
 31
0.0
  0
LINE
  5
70
330
1F
100
AcDbEntity
  8
1
  6
Continuous
 62
     7
100
AcDbLine
 10
781.6408895036615
 20
-100.0530888845125
 30
0.0
 11
781.1408895036615
 21
-100.0530888845125
 31
0.0
  0
LINE
  5
71
330
1F
100
AcDbEntity
  8
1
  6
Continuous
 62
     7
100
AcDbLine
 10
781.6408895036615
 20
-97.05308888451246
 30
0.0
 11
782.6408895036615
 21
-97.05308888451246
 31
0.0
  0
LINE
  5
72
330
1F
100
AcDbEntity
  8
1
  6
Continuous
 62
     7
100
AcDbLine
 10
783.1408895036615
 20
-61.55308888451246
 30
0.0
 11
783.1408895036615
 21
-61.35308888451264
 31
0.0
  0
LINE
  5
73
330
1F
100
AcDbEntity
  8
1
  6
Continuous
 62
     7
100
AcDbLine
 10
786.1408895036615
 20
-60.05308888451246
 30
0.0
 11
786.1408895036615
 21
-61.35308888451264
 31
0.0
  0
LINE
  5
74
330
1F
100
AcDbEntity
  8
1
  6
Continuous
 62
     7
100
AcDbLine
 10
782.6408895036615
 20
-100.0530888845125
 30
0.0
 11
781.6408895036615
 21
-100.0530888845125
 31
0.0
  0
LINE
  5
75
330
1F
100
AcDbEntity
  8
1
  6
Continuous
 62
     7
100
AcDbLine
 10
771.1408895036615
 20
-100.0530888845125
 30
0.0
 11
771.1408895036615
 21
-97.05308888451246
 31
0.0
  0
LINE
  5
76
330
1F
100
AcDbEntity
  8
1
  6
Continuous
 62
     7
100
AcDbLine
 10
771.1408895036615
 20
-97.05308888451246
 30
0.0
 11
781.1408895036615
 21
-97.05308888451246
 31
0.0
  0
LINE
  5
77
330
1F
100
AcDbEntity
  8
1
  6
Continuous
 62
     7
100
AcDbLine
 10
783.1408895036615
 20
-60.05308888451246
 30
0.0
 11
786.1408895036615
 21
-60.05308888451246
 31
0.0
  0
LINE
  5
78
330
1F
100
AcDbEntity
  8
1
  6
Continuous
 62
     7
100
AcDbLine
 10
781.1408895036615
 20
-97.05308888451246
 30
0.0
 11
781.1408895036615
 21
-100.0530888845125
 31
0.0
  0
LINE
  5
79
330
1F
100
AcDbEntity
  8
1
  6
Continuous
 62
     7
100
AcDbLine
 10
781.1408895036615
 20
-100.0530888845125
 30
0.0
 11
771.1408895036615
 21
-100.0530888845125
 31
0.0
  0
LINE
  5
7A
330
1F
100
AcDbEntity
  8
1
  6
Continuous
 62
     7
100
AcDbLine
 10
781.1408895036615
 20
-97.05308888451246
 30
0.0
 11
781.6408895036615
 21
-97.05308888451246
 31
0.0
  0
LINE
  5
7B
330
1F
100
AcDbEntity
  8
1
  6
Continuous
 62
     7
100
AcDbLine
 10
782.6408895036615
 20
-97.05308888451246
 30
0.0
 11
782.6408895036615
 21
-100.0530888845125
 31
0.0
  0
LINE
  5
7C
330
1F
100
AcDbEntity
  8
1
  6
Continuous
 62
     7
100
AcDbLine
 10
786.1408895036615
 20
-61.35308888451264
 30
0.0
 11
783.1408895036615
 21
-61.35308888451264
 31
0.0
  0
LINE
  5
7D
330
1F
100
AcDbEntity
  8
1
  6
Continuous
 62
     7
100
AcDbLine
 10
786.1408895036615
 20
-61.35308888451264
 30
0.0
 11
786.1408895036615
 21
-61.55308888451246
 31
0.0
  0
LINE
  5
7E
330
1F
100
AcDbEntity
  8
1
  6
Continuous
 62
     7
100
AcDbLine
 10
783.1408895036615
 20
-61.35308888451264
 30
0.0
 11
783.1408895036615
 21
-60.05308888451246
 31
0.0
  0
LINE
  5
7F
330
1F
100
AcDbEntity
  8
1
  6
Continuous
 62
     7
100
AcDbLine
 10
783.1408895036615
 20
-64.55308888451229
 30
0.0
 11
783.1408895036615
 21
-64.05308888451246
 31
0.0
  0
LINE
  5
80
330
1F
100
AcDbEntity
  8
1
  6
Continuous
 62
     7
100
AcDbLine
 10
786.1408895036615
 20
-64.05308888451246
 30
0.0
 11
786.1408895036615
 21
-64.55308888451229
 31
0.0
  0
LINE
  5
81
330
1F
100
AcDbEntity
  8
1
  6
Continuous
 62
     7
100
AcDbLine
 10
792.1408895036615
 20
-64.55308888451229
 30
0.0
 11
792.1408895036615
 21
-64.05308888451246
 31
0.0
  0
LINE
  5
82
330
1F
100
AcDbEntity
  8
1
  6
Continuous
 62
     7
100
AcDbLine
 10
792.1408895036615
 20
-97.5530888845125
 30
0.0
 11
792.1408895036615
 21
-96.55308888451232
 31
0.0
  0
LINE
  5
83
330
1F
100
AcDbEntity
  8
1
  6
Continuous
 62
     7
100
AcDbLine
 10
806.5561995630719
 20
-72.64733113205587
 30
0.0
 11
809.7193166284076
 21
-75.81044819739161
 31
0.0
  0
LINE
  5
84
330
1F
100
AcDbEntity
  8
1
  6
DASHED
 62
     2
100
AcDbLine
 10
797.8908895036625
 20
-76.50537573759775
 30
0.0
 11
789.2255794442533
 21
-72.64733113205581
 31
0.0
  0
LINE
  5
85
330
1F
100
AcDbEntity
  8
1
  6
Continuous
 62
     7
100
AcDbLine
 10
789.2255794442533
 20
-72.64733113205581
 30
0.0
 11
789.0559699920973
 21
-72.5718161386565
 31
0.0
  0
LINE
  5
86
330
1F
100
AcDbEntity
  8
1
  6
Continuous
 62
     7
100
AcDbLine
 10
800.9222207605906
 20
-87.75164036386961
 30
0.0
 11
803.9200857405793
 21
-81.60510627886342
 31
0.0
  0
LINE
  5
87
330
1F
100
AcDbEntity
  8
1
  6
Continuous
 62
     7
100
AcDbLine
 10
810.8908895036615
 20
-78.63887532213793
 30
0.0
 11
810.8908895036614
 21
-86.85798368700563
 31
0.0
  0
LINE
  5
88
330
1F
100
AcDbEntity
  8
1
  6
Continuous
 62
     7
100
AcDbLine
 10
803.9200857405793
 20
-81.60510627886342
 30
0.0
 11
810.8908895036614
 21
-86.85798368700563
 31
0.0
  0
LINE
  5
89
330
1F
100
AcDbEntity
  8
1
  6
Continuous
 62
     7
100
AcDbLine
 10
803.9200857405793
 20
-81.60510627886342
 30
0.0
 11
803.9800658683585
 21
-81.48212879245959
 31
0.0
  0
LINE
  5
8A
330
1F
100
AcDbEntity
  8
1
  6
Continuous
 62
     7
100
AcDbLine
 10
810.8908895036614
 20
-86.85798368700563
 30
0.0
 11
810.8908895036614
 21
-90.05308888451218
 31
0.0
  0
LINE
  5
8B
330
1F
100
AcDbEntity
  8
1
  6
Continuous
 62
     7
100
AcDbLine
 10
802.9959510619117
 20
-78.77829558359637
 30
0.0
 11
797.8908895036625
 21
-76.50537573759775
 31
0.0
  0
LINE
  5
8C
330
1F
100
AcDbEntity
  8
1
  6
Continuous
 62
     7
100
AcDbLine
 10
772.1012550493913
 20
-73.54983011996994
 30
0.0
 11
773.0122098472225
 21
-72.63887532213896
 31
0.0
  0
LINE
  5
8D
330
1F
100
AcDbEntity
  8
1
  6
DASHED
 62
     2
100
AcDbLine
 10
801.4264234095954
 20
-67.5175549785793
 30
0.0
 11
806.5561995630719
 21
-72.64733113205587
 31
0.0
  0
LINE
  5
8E
330
1F
100
AcDbEntity
  8
1
  6
Continuous
 62
     7
100
AcDbLine
 10
765.0624623789164
 20
-74.22466175976597
 30
0.0
 11
769.9766759412896
 21
-69.31044819739309
 31
0.0
  0
LINE
  5
8F
330
1F
100
AcDbEntity
  8
1
  6
Continuous
 62
     7
100
AcDbLine
 10
777.4998962781992
 20
-72.05308888451222
 30
0.0
 11
780.8908895036618
 21
-67.55308888451222
 31
0.0
  0
LINE
  5
90
330
1F
100
AcDbEntity
  8
1
  6
Continuous
 62
     7
100
AcDbLine
 10
774.2193166284088
 20
-67.55308888451218
 30
0.0
 11
793.5607624847405
 21
-67.55308888451229
 31
0.0
  0
LINE
  5
91
330
1F
100
AcDbEntity
  8
1
  6
Continuous
 62
     7
100
AcDbLine
 10
774.4264234095954
 20
-72.05308888451229
 30
0.0
 11
786.6155501336427
 21
-72.05308888451229
 31
0.0
  0
LINE
  5
92
330
1F
100
AcDbEntity
  8
1
  6
DOT_CENTER
 62
     2
100
AcDbLine
 10
773.7908895036628
 20
-77.05308888451229
 30
0.0
 11
761.9908895036626
 21
-77.0530888845124
 31
0.0
  0
LINE
  5
93
330
1F
100
AcDbEntity
  8
1
  6
DOT_CENTER
 62
     2
100
AcDbLine
 10
767.8908895036627
 20
-82.95308888451193
 30
0.0
 11
767.8908895036627
 21
-71.15308888451231
 31
0.0
  0
LINE
  5
94
330
1F
100
AcDbEntity
  8
1
  6
DOT_CENTER
 62
     2
100
AcDbLine
 10
812.9158895036612
 20
-90.0530888845124
 30
0.0
 11
798.3658895036613
 21
-90.05308888451229
 31
0.0
  0
LINE
  5
95
330
1F
100
AcDbEntity
  8
1
  6
DOT_CENTER
 62
     2
100
AcDbLine
 10
805.6408895036615
 20
-97.32808888451251
 30
0.0
 11
805.6408895036616
 21
-82.77808888451231
 31
0.0
  0
LINE
  5
96
330
1F
100
AcDbEntity
  8
1
  6
Continuous
 62
     7
100
AcDbLine
 10
762.6408895036615
 20
-80.52364251829324
 30
0.0
 11
762.6408895036615
 21
-87.30308888451235
 31
0.0
  0
LINE
  5
97
330
1F
100
AcDbEntity
  8
1
  6
Continuous
 62
     7
100
AcDbLine
 10
762.6408895036615
 20
-71.26626075093854
 30
0.0
 11
762.6408895036615
 21
-80.52364251829324
 31
0.0
  0
LINE
  5
98
330
1F
100
AcDbEntity
  8
1
  6
DASHED
 62
     2
100
AcDbLine
 10
792.3140039679706
 20
-77.19508014559705
 30
0.0
 11
792.2107121986758
 21
-79.16600451422971
 31
0.0
  0
LINE
  5
99
330
1F
100
AcDbEntity
  8
1
  6
Continuous
 62
     7
100
AcDbLine
 10
762.6408895036615
 20
-70.30308888451235
 30
0.0
 11
762.6408895036615
 21
-71.26626075093854
 31
0.0
  0
LINE
  5
9A
330
1F
100
AcDbEntity
  8
1
  6
Continuous
 62
     7
100
AcDbLine
 10
785.1408895036615
 20
-95.30308888451235
 30
0.0
 11
785.1408895036615
 21
-93.30308888451195
 31
0.0
  0
LINE
  5
9B
330
1F
100
AcDbEntity
  8
1
  6
Continuous
 62
     7
100
AcDbLine
 10
796.1408895036615
 20
-95.30308888451235
 30
0.0
 11
785.1408895036615
 21
-95.30308888451235
 31
0.0
  0
LINE
  5
9C
330
1F
100
AcDbEntity
  8
1
  6
Continuous
 62
     7
100
AcDbLine
 10
796.1408895036615
 20
-65.80308888451235
 30
0.0
 11
792.1408895036615
 21
-65.80308888451235
 31
0.0
  0
LINE
  5
9D
330
1F
100
AcDbEntity
  8
1
  6
Continuous
 62
     7
100
AcDbLine
 10
792.1408895036615
 20
-65.80308888451235
 30
0.0
 11
792.1408895036615
 21
-66.30308888451235
 31
0.0
  0
LINE
  5
9E
330
1F
100
AcDbEntity
  8
1
  6
DASHED
 62
     2
100
AcDbLine
 10
790.1408895036615
 20
-68.30308888451235
 30
0.0
 11
771.3145791187533
 21
-68.30308888451235
 31
0.0
  0
LINE
  5
9F
330
1F
100
AcDbEntity
  8
1
  6
Continuous
 62
     7
100
AcDbLine
 10
781.1408895036617
 20
-89.30308888451235
 30
0.0
 11
764.6408895036615
 21
-89.30308888451235
 31
0.0
  0
LINE
  5
A0
330
1F
100
AcDbEntity
  8
1
  6
Continuous
 62
     7
100
AcDbLine
 10
771.3145791187533
 20
-68.30308888451235
 30
0.0
 11
764.6408895036615
 21
-68.30308888451235
 31
0.0
  0
LINE
  5
A1
330
1F
100
AcDbEntity
  8
1
  6
Continuous
 62
     7
100
AcDbLine
 10
792.2107121986758
 20
-79.16600451422971
 30
0.0
 11
792.0614229622331
 21
-82.0146128407991
 31
0.0
  0
LINE
  5
A2
330
1F
100
AcDbEntity
  8
1
  6
DASHED
 62
     2
100
AcDbLine
 10
792.0614229622331
 20
-82.0146128407991
 30
0.0
 11
792.0522586992457
 21
-82.18947739550389
 31
0.0
  0
LINE
  5
A3
330
1F
100
AcDbEntity
  8
1
  6
Continuous
 62
     7
100
AcDbLine
 10
834.6408895036611
 20
-89.55308888450067
 30
0.0
 11
834.6408895036612
 21
-81.05308888450065
 31
0.0
  0
LINE
  5
A4
330
1F
100
AcDbEntity
  8
1
  6
Continuous
 62
     7
100
AcDbLine
 10
833.6408895036611
 20
-67.11985527725055
 30
0.0
 11
833.6408895036615
 21
-73.05308888450065
 31
0.0
  0
LINE
  5
A5
330
1F
100
AcDbEntity
  8
1
  6
Continuous
 62
     7
100
AcDbLine
 10
833.6408895036612
 20
-89.55308888450065
 30
0.0
 11
833.6408895036612
 21
-93.98429126545491
 31
0.0
  0
LINE
  5
A6
330
1F
100
AcDbEntity
  8
1
  6
Continuous
 62
     7
100
AcDbLine
 10
833.6408895036612
 20
-89.55308888450065
 30
0.0
 11
834.6408895036611
 21
-89.55308888450067
 31
0.0
  0
LINE
  5
A7
330
1F
100
AcDbEntity
  8
1
  6
Continuous
 62
     7
100
AcDbLine
 10
825.6408895036617
 20
-64.55308888451232
 30
0.0
 11
836.1408895036615
 21
-64.55308888451228
 31
0.0
  0
LINE
  5
A8
330
1F
100
AcDbEntity
  8
1
  6
Continuous
 62
     7
100
AcDbLine
 10
833.3496491551016
 20
-65.63648440044587
 30
0.0
 11
825.6408895036617
 21
-64.55308888451232
 31
0.0
  0
LINE
  5
A9
330
1F
100
AcDbEntity
  8
1
  6
Continuous
 62
     7
100
AcDbLine
 10
834.6408895036615
 20
-93.98429126545462
 30
0.0
 11
834.6408895036611
 21
-89.55308888450067
 31
0.0
  0
LINE
  5
AA
330
1F
100
AcDbEntity
  8
1
  6
Continuous
 62
     7
100
AcDbLine
 10
825.6408895036615
 20
-96.55308888450047
 30
0.0
 11
814.1408895036617
 21
-96.55308888450068
 31
0.0
  0
LINE
  5
AB
330
1F
100
AcDbEntity
  8
1
  6
Continuous
 62
     7
100
AcDbLine
 10
825.6408895036615
 20
-96.55308888450047
 30
0.0
 11
833.3496491551016
 21
-95.46969336856705
 31
0.0
  0
LINE
  5
AC
330
1F
100
AcDbEntity
  8
1
  6
Continuous
 62
     7
100
AcDbLine
 10
814.1408895036617
 20
-96.55308888450068
 30
0.0
 11
814.1408895036617
 21
-95.5530888845007
 31
0.0
  0
LINE
  5
AD
330
1F
100
AcDbEntity
  8
1
  6
Continuous
 62
     7
100
AcDbLine
 10
825.5709626917184
 20
-95.5530888845007
 30
0.0
 11
814.1408895036617
 21
-95.5530888845007
 31
0.0
  0
LINE
  5
AE
330
1F
100
AcDbEntity
  8
1
  6
Continuous
 62
     7
100
AcDbLine
 10
833.2104760541413
 20
-94.47942529982569
 30
0.0
 11
825.5709626917184
 21
-95.5530888845007
 31
0.0
  0
LINE
  5
AF
330
1F
100
AcDbEntity
  8
1
  6
Continuous
 62
     7
100
AcDbLine
 10
825.6025155620404
 20
-65.55308888451236
 30
0.0
 11
833.2106294185359
 21
-66.62474282106189
 31
0.0
  0
LINE
  5
B0
330
1F
100
AcDbEntity
  8
1
  6
DASHED
 62
     2
100
AcDbLine
 10
801.6408895036618
 20
-65.55308888451269
 30
0.0
 11
803.6408895036617
 21
-65.55308888451269
 31
0.0
  0
LINE
  5
B1
330
1F
100
AcDbEntity
  8
1
  6
Continuous
 62
     7
100
AcDbLine
 10
801.6408895036617
 20
-64.55308888451269
 30
0.0
 11
807.6408895036617
 21
-64.55308888451201
 31
0.0
  0
LINE
  5
B2
330
1F
100
AcDbEntity
  8
1
  6
Continuous
 62
     7
100
AcDbLine
 10
801.6408895036617
 20
-64.55308888451269
 30
0.0
 11
801.6408895036617
 21
-65.05308888451235
 31
0.0
  0
LINE
  5
B3
330
1F
100
AcDbEntity
  8
1
  6
PHANTOM
 62
     2
100
AcDbLine
 10
854.6408895036615
 20
-100.5530888845123
 30
0.0
 11
854.6408895036615
 21
-60.55308888451235
 31
0.0
  0
LINE
  5
B4
330
1F
100
AcDbEntity
  8
1
  6
Continuous
 62
     7
100
AcDbLine
 10
817.1408895036617
 20
-100.5530888845123
 30
0.0
 11
854.6408895036615
 21
-100.5530888845123
 31
0.0
  0
LINE
  5
B5
330
1F
100
AcDbEntity
  8
1
  6
Continuous
 62
     7
100
AcDbLine
 10
799.6408895036617
 20
-60.55308888451229
 30
0.0
 11
854.6408895036615
 21
-60.55308888451235
 31
0.0
  0
LINE
  5
B6
330
1F
100
AcDbEntity
  8
1
  6
DOT_CENTER
 62
     2
100
AcDbLine
 10
854.6408895036615
 20
-60.55308888451235
 30
0.0
 11
854.6408895036615
 21
-57.80143388337716
 31
0.0
  0
LINE
  5
B7
330
1F
100
AcDbEntity
  8
1
  6
Continuous
 62
     7
100
AcDbLine
 10
799.6408895036617
 20
-60.55308888451229
 30
0.0
 11
799.6408895036617
 21
-64.55308888451269
 31
0.0
  0
LINE
  5
B8
330
1F
100
AcDbEntity
  8
1
  6
Continuous
 62
     7
100
AcDbLine
 10
799.6408895036617
 20
-64.55308888451269
 30
0.0
 11
801.6408895036617
 21
-64.55308888451269
 31
0.0
  0
LINE
  5
B9
330
1F
100
AcDbEntity
  8
1
  6
Continuous
 62
     7
100
AcDbLine
 10
836.1408895036615
 20
-64.55308888451228
 30
0.0
 11
836.1408895036615
 21
-96.5530888845007
 31
0.0
  0
LINE
  5
BA
330
1F
100
AcDbEntity
  8
1
  6
Continuous
 62
     7
100
AcDbLine
 10
836.1408895036615
 20
-96.5530888845007
 30
0.0
 11
825.6408895036615
 21
-96.55308888450047
 31
0.0
  0
LINE
  5
BB
330
1F
100
AcDbEntity
  8
1
  6
Continuous
 62
     7
100
AcDbLine
 10
799.6408895036616
 20
-100.5530888845123
 30
0.0
 11
816.1408895036617
 21
-100.5530888845123
 31
0.0
  0
LINE
  5
BC
330
1F
100
AcDbEntity
  8
1
  6
Continuous
 62
     7
100
AcDbLine
 10
816.1408895036617
 20
-100.5530888845123
 30
0.0
 11
817.1408895036617
 21
-100.5530888845123
 31
0.0
  0
LINE
  5
BD
330
1F
100
AcDbEntity
  8
1
  6
Continuous
 62
     7
100
AcDbLine
 10
799.6408895036617
 20
-64.55308888451269
 30
0.0
 11
799.6408895036617
 21
-66.3693403857132
 31
0.0
  0
LINE
  5
BE
330
1F
100
AcDbEntity
  8
1
  6
Continuous
 62
     7
100
AcDbLine
 10
807.6408895036617
 20
-65.55308888451269
 30
0.0
 11
807.6408895036617
 21
-64.55308888451201
 31
0.0
  0
LINE
  5
BF
330
1F
100
AcDbEntity
  8
1
  6
Continuous
 62
     7
100
AcDbLine
 10
807.6408895036617
 20
-65.55308888451269
 30
0.0
 11
825.6025155620404
 21
-65.55308888451236
 31
0.0
  0
LINE
  5
C0
330
1F
100
AcDbEntity
  8
1
  6
Continuous
 62
     7
100
AcDbLine
 10
807.6408895036617
 20
-64.55308888451201
 30
0.0
 11
825.6408895036617
 21
-64.55308888451232
 31
0.0
  0
LINE
  5
C1
330
1F
100
AcDbEntity
  8
1
  6
Continuous
 62
     7
100
AcDbLine
 10
814.1408895036617
 20
-96.55308888450068
 30
0.0
 11
799.6408895036616
 21
-96.5530888845007
 31
0.0
  0
LINE
  5
C2
330
1F
100
AcDbEntity
  8
1
  6
Continuous
 62
     7
100
AcDbLine
 10
799.6408895036616
 20
-96.5530888845007
 30
0.0
 11
799.6408895036616
 21
-100.5530888845123
 31
0.0
  0
LINE
  5
C3
330
1F
100
AcDbEntity
  8
1
  6
Continuous
 62
     7
100
AcDbLine
 10
799.6408895036617
 20
-77.28452593688738
 30
0.0
 11
799.6408895036616
 21
-96.5530888845007
 31
0.0
  0
LINE
  5
C4
330
1F
100
AcDbEntity
  8
1
  6
DASHED
 62
     2
100
AcDbLine
 10
801.6408895036617
 20
-65.05308888451235
 30
0.0
 11
801.6408895036618
 21
-65.55308888451269
 31
0.0
  0
LINE
  5
C5
330
1F
100
AcDbEntity
  8
1
  6
Continuous
 62
     7
100
AcDbLine
 10
803.6408895036617
 20
-65.55308888451269
 30
0.0
 11
807.6408895036617
 21
-65.55308888451269
 31
0.0
  0
LINE
  5
C6
330
1F
100
AcDbEntity
  8
1
  6
Continuous
 62
     7
100
AcDbLine
 10
833.6364117017504
 20
-67.05308888450064
 30
0.0
 11
834.6393109689415
 21
-67.05308888450067
 31
0.0
  0
LINE
  5
C7
330
1F
100
AcDbEntity
  8
1
  6
Continuous
 62
     7
100
AcDbLine
 10
833.6408895036615
 20
-73.05308888450065
 30
0.0
 11
834.6408895036614
 21
-73.05308888450065
 31
0.0
  0
LINE
  5
C8
330
1F
100
AcDbEntity
  8
1
  6
Continuous
 62
     7
100
AcDbLine
 10
834.6408895036614
 20
-73.05308888450065
 30
0.0
 11
834.6408895036615
 21
-67.12188650355829
 31
0.0
  0
LINE
  5
C9
330
1F
100
AcDbEntity
  8
1
  6
Continuous
 62
     7
100
AcDbLine
 10
833.6408895036615
 20
-73.05308888450065
 30
0.0
 11
833.6408895036614
 21
-81.05308888450065
 31
0.0
  0
LINE
  5
CA
330
1F
100
AcDbEntity
  8
1
  6
Continuous
 62
     7
100
AcDbLine
 10
833.6408895036614
 20
-81.05308888450065
 30
0.0
 11
834.6408895036612
 21
-81.05308888450065
 31
0.0
  0
LINE
  5
CB
330
1F
100
AcDbEntity
  8
1
  6
Continuous
 62
     7
100
AcDbLine
 10
834.6408895036612
 20
-81.05308888450065
 30
0.0
 11
834.6408895036614
 21
-73.05308888450065
 31
0.0
  0
LINE
  5
CC
330
1F
100
AcDbEntity
  8
1
  6
Continuous
 62
     7
100
AcDbLine
 10
833.6408895036614
 20
-81.05308888450065
 30
0.0
 11
833.6408895036612
 21
-89.55308888450065
 31
0.0
  0
LINE
  5
CD
330
1F
100
AcDbEntity
  8
1
  6
DOT_CENTER
 62
     2
100
AcDbLine
 10
854.6408895036615
 20
-100.5530888845123
 30
0.0
 11
854.6408895036615
 21
-103.5530888845123
 31
0.0
  0
LINE
  5
CE
330
1F
100
AcDbEntity
  8
1
  6
Continuous
 62
     7
100
AcDbLine
 10
832.6408895036615
 20
-81.15470700170934
 30
0.0
 11
832.6408895036615
 21
-71.69246003874731
 31
0.0
  0
LINE
  5
CF
330
1F
100
AcDbEntity
  8
1
  6
Continuous
 62
     7
100
AcDbLine
 10
832.6408895036615
 20
-82.55308888451235
 30
0.0
 11
832.6408895036615
 21
-81.15470700170934
 31
0.0
  0
LINE
  5
D0
330
1F
100
AcDbEntity
  8
1
  6
Continuous
 62
     7
100
AcDbLine
 10
810.6408895036615
 20
-93.55308888451235
 30
0.0
 11
810.6408895036615
 21
-96.05308888451235
 31
0.0
  0
LINE
  5
D1
330
1F
100
AcDbEntity
  8
1
  6
Continuous
 62
     7
100
AcDbLine
 10
810.6408895036615
 20
-96.05308888451235
 30
0.0
 11
799.6408895036615
 21
-96.05308888451235
 31
0.0
  0
LINE
  5
D2
330
1F
100
AcDbEntity
  8
1
  6
Continuous
 62
     7
100
AcDbLine
 10
830.6408895036615
 20
-84.55308888451235
 30
0.0
 11
829.6408895036615
 21
-84.55308888451235
 31
0.0
  0
LINE
  5
D3
330
1F
100
AcDbEntity
  8
1
  6
Continuous
 62
     7
100
AcDbLine
 10
803.6408895036618
 20
-65.05308888451235
 30
0.0
 11
799.6408895036615
 21
-65.05308888451235
 31
0.0
  0
LINE
  5
D4
330
1F
100
AcDbEntity
  8
1
  6
Continuous
 62
     7
100
AcDbLine
 10
803.6408895036615
 20
-66.55308888451235
 30
0.0
 11
803.6408895036618
 21
-65.05308888451235
 31
0.0
  0
LINE
  5
D5
330
1F
100
AcDbEntity
  8
1
  6
Continuous
 62
     7
100
AcDbLine
 10
828.1975001783755
 20
-68.55308888451235
 30
0.0
 11
805.6408895036616
 21
-68.55308888451235
 31
0.0
  0
LINE
  5
D6
330
1F
100
AcDbEntity
  8
1
  6
Continuous
 62
     7
100
AcDbLine
 10
825.6408895036615
 20
-89.55308888451235
 30
0.0
 11
814.6408895036615
 21
-89.55308888451235
 31
0.0
  0
LINE
  5
D7
330
1F
100
AcDbEntity
  8
1
  6
Continuous
 62
     7
100
AcDbLine
 10
827.6408895036615
 20
-86.55308888451235
 30
0.0
 11
827.6408895036615
 21
-87.55308888451235
 31
0.0
  0
LINE
  5
D8
330
1F
100
AcDbEntity
  8
1
  6
DASHED
 62
     2
100
AcDbLine
 10
803.7295203080793
 20
-82.18947739550389
 30
0.0
 11
803.7203560450919
 21
-82.01461284079882
 31
0.0
  0
LINE
  5
D9
330
1F
100
AcDbEntity
  8
1
  6
Continuous
 62
     7
100
AcDbLine
 10
803.7203560450919
 20
-82.01461284079882
 30
0.0
 11
803.5710668086492
 21
-79.1660045142299
 31
0.0
  0
LINE
  5
DA
330
1F
100
AcDbEntity
  8
1
  6
DASHED
 62
     2
100
AcDbLine
 10
803.5710668086492
 20
-79.1660045142299
 30
0.0
 11
803.4677750393544
 21
-77.19508014559705
 31
0.0
  0
LINE
  5
DB
330
1F
100
AcDbEntity
  8
1
  6
Continuous
 62
     7
100
AcDbLine
 10
829.0427367018569
 20
-68.74047331043904
 30
0.0
 11
831.4861260271429
 21
-69.87984446467401
 31
0.0
  0
LINE
  5
DC
330
1F
100
AcDbEntity
  8
1
  6
Continuous
 62
     7
100
AcDbLine
 10
818.2818827291258
 20
-72.05308888451222
 30
0.0
 11
821.355355597729
 21
-72.05308888451235
 31
0.0
  0
LINE
  5
DD
330
1F
100
AcDbEntity
  8
1
  6
Continuous
 62
     7
100
AcDbLine
 10
814.8908895036632
 20
-67.55308888451222
 30
0.0
 11
821.562462378916
 21
-67.55308888451235
 31
0.0
  0
LINE
  5
DE
330
1F
100
AcDbEntity
  8
1
  6
DASHED
 62
     2
100
AcDbLine
 10
818.2818827291258
 20
-72.05308888451222
 30
0.0
 11
814.8908895036632
 21
-67.55308888451222
 31
0.0
  0
LINE
  5
DF
330
1F
100
AcDbEntity
  8
1
  6
Continuous
 62
     7
100
AcDbLine
 10
784.8908895036635
 20
-90.05308888451235
 30
0.0
 11
784.8908895036635
 21
-78.63887532213796
 31
0.0
  0
LINE
  5
E0
330
1F
100
AcDbEntity
  8
1
  6
Continuous
 62
     7
100
AcDbLine
 10
806.7258090152276
 20
-72.57181613865667
 30
0.0
 11
792.7858279454132
 21
-78.77829558359637
 31
0.0
  0
LINE
  5
E1
330
1F
100
AcDbEntity
  8
1
  6
Continuous
 62
     7
100
AcDbLine
 10
809.1662288736823
 20
-72.05308888451235
 30
0.0
 11
818.2818827291258
 21
-72.05308888451222
 31
0.0
  0
LINE
  5
E2
330
1F
100
AcDbEntity
  8
1
  6
Continuous
 62
     7
100
AcDbLine
 10
822.7695691601017
 20
-72.63887532213877
 30
0.0
 11
823.6805239579336
 21
-73.54983011997
 31
0.0
  0
LINE
  5
E3
330
1F
100
AcDbEntity
  8
1
  6
Continuous
 62
     7
100
AcDbLine
 10
825.8051030660353
 20
-69.31044819739303
 30
0.0
 11
830.7193166284084
 21
-74.22466175976602
 31
0.0
  0
LINE
  5
E4
330
1F
100
AcDbEntity
  8
1
  6
Continuous
 62
     7
100
AcDbLine
 10
802.2210165225843
 20
-67.55308888451235
 30
0.0
 11
814.8908895036632
 21
-67.55308888451222
 31
0.0
  0
LINE
  5
E5
330
1F
100
AcDbEntity
  8
1
  6
Continuous
 62
     7
100
AcDbLine
 10
786.0624623789173
 20
-75.81044819739178
 30
0.0
 11
794.3553555977295
 21
-67.51755497857958
 31
0.0
  0
LINE
  5
E6
330
1F
100
AcDbEntity
  8
1
  6
Continuous
 62
     7
100
AcDbLine
 10
791.8017131389665
 20
-81.48212879245982
 30
0.0
 11
794.8595582467343
 21
-87.75164036386967
 31
0.0
  0
LINE
  5
E7
330
1F
100
AcDbEntity
  8
1
  6
DOT_CENTER
 62
     2
100
AcDbLine
 10
833.7908895036622
 20
-77.05308888451235
 30
0.0
 11
821.9908895036621
 21
-77.05308888451235
 31
0.0
  0
LINE
  5
E8
330
1F
100
AcDbEntity
  8
1
  6
DOT_CENTER
 62
     2
100
AcDbLine
 10
827.8908895036622
 20
-71.15308888451226
 30
0.0
 11
827.8908895036622
 21
-82.95308888451221
 31
0.0
  0
LINE
  5
E9
330
1F
100
AcDbEntity
  8
1
  6
DOT_CENTER
 62
     2
100
AcDbLine
 10
804.8908895036624
 20
-71.05308888451235
 30
0.0
 11
790.8908895036626
 21
-71.05308888451235
 31
0.0
  0
LINE
  5
EA
330
1F
100
AcDbEntity
  8
1
  6
DOT_CENTER
 62
     2
100
AcDbLine
 10
797.8908895036625
 20
-64.05308888451246
 30
0.0
 11
797.8908895036625
 21
-78.05308888451223
 31
0.0
  0
LINE
  5
EB
330
1F
100
AcDbEntity
  8
1
  6
DOT_CENTER
 62
     2
100
AcDbLine
 10
797.4158895036636
 20
-90.05308888451235
 30
0.0
 11
782.8658895036637
 21
-90.05308888451235
 31
0.0
  0
LINE
  5
EC
330
1F
100
AcDbEntity
  8
1
  6
DOT_CENTER
 62
     2
100
AcDbLine
 10
790.1408895036633
 20
-82.77808888451237
 30
0.0
 11
790.1408895036634
 21
-97.32808888451251
 31
0.0
  0
ARC
  5
ED
330
1F
100
AcDbEntity
  8
1
  6
Continuous
 62
     7
100
AcDbCircle
 10
798.1408895036615
 20
-58.55308888451236
 30
0.0
 40
2.0
100
AcDbArc
 50
180.0
 51
-90.0
  0
ARC
  5
EE
330
1F
100
AcDbEntity
  8
1
  6
Continuous
 62
     7
100
AcDbCircle
 10
805.9468101949038
 20
-58.95308888451234
 30
0.0
 40
1.600000000000023
100
AcDbArc
 50
-90.0
 51
70.81186354628234
  0
ARC
  5
EF
330
1F
100
AcDbEntity
  8
1
  6
Continuous
 62
     7
100
AcDbCircle
 10
799.1408895036615
 20
-47.05308888451236
 30
0.0
 40
3.0
100
AcDbArc
 50
90.0
 51
180.0
  0
ARC
  5
F0
330
1F
100
AcDbEntity
  8
1
  6
Continuous
 62
     7
100
AcDbCircle
 10
804.231213385138
 20
-47.05308888451236
 30
0.0
 40
3.000000000000062
100
AcDbArc
 50
-14.99999999999864
 51
90.0
  0
ARC
  5
F1
330
1F
100
AcDbEntity
  8
1
  6
Continuous
 62
     7
100
AcDbCircle
 10
798.1408895036615
 20
-58.55308888451236
 30
0.0
 40
1.0
100
AcDbArc
 50
180.0
 51
-90.0
  0
ARC
  5
F2
330
1F
100
AcDbEntity
  8
1
  6
Continuous
 62
     7
100
AcDbCircle
 10
799.1408895036615
 20
-47.05308888451236
 30
0.0
 40
2.0
100
AcDbArc
 50
90.0
 51
180.0
  0
ARC
  5
F3
330
1F
100
AcDbEntity
  8
1
  6
Continuous
 62
     7
100
AcDbCircle
 10
804.231213385138
 20
-47.05308888451236
 30
0.0
 40
2.000000000000063
100
AcDbArc
 50
-15.00000000000094
 51
90.0
  0
ARC
  5
F4
330
1F
100
AcDbEntity
  8
1
  6
Continuous
 62
     7
100
AcDbCircle
 10
805.9468101949038
 20
-58.95308888451234
 30
0.0
 40
0.6000000000000227
100
AcDbArc
 50
-90.0
 51
70.81186354627498
  0
ARC
  5
F5
330
1F
100
AcDbEntity
  8
1
  6
Continuous
 62
     7
100
AcDbCircle
 10
762.1408895036615
 20
-93.98429126546648
 30
0.0
 40
1.5
100
AcDbArc
 50
179.9999999999995
 51
-98.00000000000095
  0
ARC
  5
F6
330
1F
100
AcDbEntity
  8
1
  6
Continuous
 62
     7
100
AcDbCircle
 10
762.1408895036615
 20
-67.12188650355814
 30
0.0
 40
1.499999999999659
100
AcDbArc
 50
98.00000000000261
 51
-179.999999999987
  0
ARC
  5
F7
330
1F
100
AcDbEntity
  8
1
  6
Continuous
 62
     7
100
AcDbCircle
 10
767.8908895036623
 20
-77.0530888845124
 30
0.0
 40
3.999999999999952
100
AcDbArc
 50
134.9999999999943
 51
20.37568164783945
  0
ARC
  5
F8
330
1F
100
AcDbEntity
  8
1
  6
DASHED
 62
     2
100
AcDbCircle
 10
797.8908895036625
 20
-71.05308888451223
 30
0.0
 40
5.000000000000242
100
AcDbArc
 50
45.00000000000046
 51
89.99999999999739
  0
ARC
  5
F9
330
1F
100
AcDbEntity
  8
1
  6
Continuous
 62
     7
100
AcDbCircle
 10
805.6408895036614
 20
-90.0530888845124
 30
0.0
 40
5.25000000000021
100
AcDbArc
 50
153.9999999999995
 51
-45.0
  0
ARC
  5
FA
330
1F
100
AcDbEntity
  8
1
  6
Continuous
 62
     7
100
AcDbCircle
 10
797.8908895036625
 20
-71.05308888451223
 30
0.0
 40
4.999999999999943
100
AcDbArc
 50
89.99999999999739
 51
128.2132107017391
  0
ARC
  5
FB
330
1F
100
AcDbEntity
  8
1
  6
Continuous
 62
     7
100
AcDbCircle
 10
805.6408895036614
 20
-90.0530888845124
 30
0.0
 40
5.249999999999761
100
AcDbArc
 50
-45.0
 51
0.00000000000248
  0
ARC
  5
FC
330
1F
100
AcDbEntity
  8
1
  6
Continuous
 62
     7
100
AcDbCircle
 10
794.2344309241571
 20
55.35166112630374
 30
0.0
 40
139.5
100
AcDbArc
 50
-103.089746250876
 51
-93.84047722901197
  0
ARC
  5
FD
330
1F
100
AcDbEntity
  8
1
  6
Continuous
 62
     7
100
AcDbCircle
 10
794.2344309241571
 20
55.35166112630374
 30
0.0
 40
130.5
100
AcDbArc
 50
-99.65362553683211
 51
-93.2090249084504
  0
ARC
  5
FE
330
1F
100
AcDbEntity
  8
1
  6
DASHED
 62
     2
100
AcDbCircle
 10
794.2344309241571
 20
55.35166112630374
 30
0.0
 40
139.5
100
AcDbArc
 50
-93.84047722901197
 51
-91.7418230039667
  0
ARC
  5
FF
330
1F
100
AcDbEntity
  8
1
  6
DASHED
 62
     2
100
AcDbCircle
 10
794.2344309241571
 20
55.35166112630374
 30
0.0
 40
130.5
100
AcDbArc
 50
-93.2090249084504
 51
-91.69433655610698
  0
ARC
  5
100
330
1F
100
AcDbEntity
  8
1
  6
DOT_CENTER
 62
     2
100
AcDbCircle
 10
794.2344309241571
 20
55.35166112630374
 30
0.0
 40
135.0
100
AcDbArc
 50
-105.9199792784021
 51
-89.42511591406618
  0
ARC
  5
101
330
1F
100
AcDbEntity
  8
1
  6
Continuous
 62
     7
100
AcDbCircle
 10
794.2344309241571
 20
55.35166112630374
 30
0.0
 40
130.5
100
AcDbArc
 50
-104.0102871349166
 51
-102.0412395406185
  0
ARC
  5
102
330
1F
100
AcDbEntity
  8
1
  6
DASHED
 62
     2
100
AcDbCircle
 10
794.2344309241571
 20
55.35166112630374
 30
0.0
 40
130.5
100
AcDbArc
 50
-102.0412395406185
 51
-99.65362553683211
  0
ARC
  5
103
330
1F
100
AcDbEntity
  8
1
  6
Continuous
 62
     7
100
AcDbCircle
 10
801.5473480831679
 20
55.35166112630374
 30
0.0
 40
139.5
100
AcDbArc
 50
-86.15952277098809
 51
-77.12100366439547
  0
ARC
  5
104
330
1F
100
AcDbEntity
  8
1
  6
Continuous
 62
     7
100
AcDbCircle
 10
801.5473480831679
 20
55.35166112630374
 30
0.0
 40
130.5
100
AcDbArc
 50
-77.95876045938151
 51
-76.22588441544036
  0
ARC
  5
105
330
1F
100
AcDbEntity
  8
1
  6
DOT_CENTER
 62
     2
100
AcDbCircle
 10
801.5473480831679
 20
55.35166112630374
 30
0.0
 40
135.0
100
AcDbArc
 50
-90.57488408593383
 51
-74.08002072159793
  0
ARC
  5
106
330
1F
100
AcDbEntity
  8
1
  6
Continuous
 62
     7
100
AcDbCircle
 10
801.5473480831679
 20
55.35166112630374
 30
0.0
 40
130.5
100
AcDbArc
 50
-86.79097509154957
 51
-80.34637446316799
  0
ARC
  5
107
330
1F
100
AcDbEntity
  8
1
  6
Continuous
 62
     7
100
AcDbCircle
 10
801.5473480831679
 20
55.35166112630374
 30
0.0
 40
130.5
100
AcDbArc
 50
-80.34637446316799
 51
-77.95876045938151
  0
ARC
  5
108
330
1F
100
AcDbEntity
  8
1
  6
DASHED
 62
     2
100
AcDbCircle
 10
801.5473480831679
 20
55.35166112630374
 30
0.0
 40
130.5
100
AcDbArc
 50
-88.30566344389302
 51
-86.79097509154957
  0
ARC
  5
109
330
1F
100
AcDbEntity
  8
1
  6
DASHED
 62
     2
100
AcDbCircle
 10
801.5473480831679
 20
55.35166112630374
 30
0.0
 40
139.5
100
AcDbArc
 50
-88.25817699603331
 51
-86.15952277098809
  0
ARC
  5
10A
330
1F
100
AcDbEntity
  8
1
  6
Continuous
 62
     7
100
AcDbCircle
 10
827.8908895036624
 20
-77.05308888451235
 30
0.0
 40
4.000000000000188
100
AcDbArc
 50
159.6243183521609
 51
45.00000000000345
  0
ARC
  5
10B
330
1F
100
AcDbEntity
  8
1
  6
Continuous
 62
     7
100
AcDbCircle
 10
797.8908895036625
 20
-71.05308888451223
 30
0.0
 40
4.999999999999943
100
AcDbArc
 50
89.99999999999739
 51
135.0000000000028
  0
ARC
  5
10C
330
1F
100
AcDbEntity
  8
1
  6
Continuous
 62
     7
100
AcDbCircle
 10
790.1408895036634
 20
-90.05308888451246
 30
0.0
 40
5.24999999999968
100
AcDbArc
 50
-134.9999999999991
 51
26.0
  0
ARC
  5
10D
330
1F
100
AcDbEntity
  8
1
  6
Continuous
 62
     7
100
AcDbCircle
 10
797.8908895036625
 20
-71.05308888451223
 30
0.0
 40
4.999999999999701
100
AcDbArc
 50
51.78678929826436
 51
89.99999999999739
  0
ARC
  5
10E
330
1F
100
AcDbEntity
  8
1
  6
Continuous
 62
     7
100
AcDbCircle
 10
790.1408895036634
 20
-90.05308888451246
 30
0.0
 40
5.249999999999886
100
AcDbArc
 50
179.9999999999988
 51
-134.9999999999991
  0
CIRCLE
  5
10F
330
1F
100
AcDbEntity
  8
1
  6
Continuous
 62
     7
100
AcDbCircle
 10
805.6408895036614
 20
-90.0530888845124
 30
0.0
 40
2.75
  0
CIRCLE
  5
110
330
1F
100
AcDbEntity
  8
1
  6
Continuous
 62
     7
100
AcDbCircle
 10
767.8908895036623
 20
-77.0530888845124
 30
0.0
 40
2.499999999999773
  0
CIRCLE
  5
111
330
1F
100
AcDbEntity
  8
1
  6
Continuous
 62
     7
100
AcDbCircle
 10
797.8908895036625
 20
-71.05308888451223
 30
0.0
 40
2.5
  0
CIRCLE
  5
112
330
1F
100
AcDbEntity
  8
1
  6
Continuous
 62
     7
100
AcDbCircle
 10
790.1408895036634
 20
-90.05308888451246
 30
0.0
 40
2.749999999999886
  0
CIRCLE
  5
113
330
1F
100
AcDbEntity
  8
1
  6
Continuous
 62
     7
100
AcDbCircle
 10
827.8908895036624
 20
-77.05308888451235
 30
0.0
 40
2.5
  0
SPLINE
  5
114
330
1F
100
AcDbEntity
  8
1
  6
Continuous
 62
     2
100
AcDbSpline
210
0.0
220
0.0
230
1.0
 70
     8
 71
     3
 72
    12
 73
     8
 74
     6
 42
0.0000000001
 43
0.0000000001
 44
0.00000001
 40
0.0
 40
0.0
 40
0.0
 40
0.0
 40
0.2775291599796137
 40
0.5641738536599852
 40
0.8992522958636026
 40
1.297504019331857
 40
1.680834346735623
 40
1.680834346735623
 40
1.680834346735623
 40
1.680834346735623
 10
809.6408895036615
 20
-24.96038604681189
 30
0.0
 10
809.7288333776125
 20
-24.8911863400408
 30
0.0
 10
809.9076096700799
 20
-24.75051404007762
 30
0.0
 10
810.1087572536949
 20
-25.11526201877265
 30
0.0
 10
810.4783408970031
 20
-24.9511098106647
 30
0.0
 10
810.7971887124285
 20
-24.68632761686653
 30
0.0
 10
811.0277900643482
 20
-24.87020337759328
 30
0.0
 10
811.1408895036615
 20
-24.96038604681189
 30
0.0
 11
809.6408895036615
 21
-24.96038604681189
 31
0.0
 11
809.8919974432032
 21
-24.8422029797587
 31
0.0
 11
810.1162487112533
 21
-25.02074302902783
 31
0.0
 11
810.4436903851642
 21
-24.94961277796674
 31
0.0
 11
810.8033786330448
 21
-24.77864845542522
 31
0.0
 11
811.1408895036615
 21
-24.96038604681189
 31
0.0
  0
ARC
  5
115
330
1F
100
AcDbEntity
  8
1
  6
Continuous
 62
     7
100
AcDbCircle
 10
796.1408895036615
 20
-44.05308888451236
 30
0.0
 40
1.499999999999879
100
AcDbArc
 50
90.0
 51
180.0
  0
ARC
  5
116
330
1F
100
AcDbEntity
  8
1
  6
Continuous
 62
     7
100
AcDbCircle
 10
796.6408895036615
 20
-44.55308888451236
 30
0.0
 40
0.5
100
AcDbArc
 50
90.0
 51
180.0
  0
ARC
  5
117
330
1F
100
AcDbEntity
  8
1
  6
Continuous
 62
     7
100
AcDbCircle
 10
809.1408895036615
 20
-55.55308888451248
 30
0.0
 40
1.999999999999879
100
AcDbArc
 50
-90.0
 51
0.00000000000346
  0
ARC
  5
118
330
1F
100
AcDbEntity
  8
1
  6
Continuous
 62
     7
100
AcDbCircle
 10
807.1300261515238
 20
-55.55308888451248
 30
0.0
 40
1.999999999999718
100
AcDbArc
 50
-109.1881364537259
 51
-90.0
  0
ARC
  5
119
330
1F
100
AcDbEntity
  8
1
  6
Continuous
 62
     7
100
AcDbCircle
 10
808.6408895036615
 20
-55.05308888451236
 30
0.0
 40
1.0
100
AcDbArc
 50
-90.0
 51
0.0
  0
ARC
  5
11A
330
1F
100
AcDbEntity
  8
1
  6
Continuous
 62
     7
100
AcDbCircle
 10
807.7816388379446
 20
-55.05308888451236
 30
0.0
 40
1.000000000000235
100
AcDbArc
 50
165.0000000000058
 51
-90.0
  0
ARC
  5
11B
330
1F
100
AcDbEntity
  8
1
  6
Continuous
 62
     7
100
AcDbCircle
 10
808.1408895036615
 20
-44.05308888451236
 30
0.0
 40
1.500000000000048
100
AcDbArc
 50
-15.000000000001
 51
90.0
  0
ARC
  5
11C
330
1F
100
AcDbEntity
  8
1
  6
Continuous
 62
     7
100
AcDbCircle
 10
807.4892768172409
 20
-44.55308888451236
 30
0.0
 40
0.50000000000003
100
AcDbArc
 50
-15.00000000000703
 51
90.0
  0
ARC
  5
11D
330
1F
100
AcDbEntity
  8
1
  6
Continuous
 62
     7
100
AcDbCircle
 10
807.1300261515238
 20
-55.55308888451248
 30
0.0
 40
1.999999999999841
100
AcDbArc
 50
164.9999999999976
 51
-109.1881364537259
  0
ARC
  5
11E
330
1F
100
AcDbEntity
  8
1
  6
Continuous
 62
     7
100
AcDbCircle
 10
807.1300261515238
 20
-55.55308888451248
 30
0.0
 40
3.000000000000094
100
AcDbArc
 50
164.9999999999991
 51
-109.1881364537217
  0
ARC
  5
11F
330
1F
100
AcDbEntity
  8
1
  6
Continuous
 62
     7
100
AcDbCircle
 10
756.640889503661
 20
-99.0530888845124
 30
0.0
 40
1.0
100
AcDbArc
 50
180.0
 51
-90.0
  0
ARC
  5
120
330
1F
100
AcDbEntity
  8
1
  6
Continuous
 62
     7
100
AcDbCircle
 10
756.640889503661
 20
-99.0530888845124
 30
0.0
 40
2.5
100
AcDbArc
 50
180.0
 51
-90.0
  0
ARC
  5
121
330
1F
100
AcDbEntity
  8
1
  6
Continuous
 62
     7
100
AcDbCircle
 10
793.6408895036615
 20
-99.0530888845123
 30
0.0
 40
2.5
100
AcDbArc
 50
-90.0
 51
0.0
  0
ARC
  5
122
330
1F
100
AcDbEntity
  8
1
  6
Continuous
 62
     7
100
AcDbCircle
 10
793.6408895036615
 20
-99.0530888845123
 30
0.0
 40
1.0
100
AcDbArc
 50
-90.0
 51
0.0
  0
ARC
  5
123
330
1F
100
AcDbEntity
  8
1
  6
Continuous
 62
     7
100
AcDbCircle
 10
762.1408895036615
 20
-93.98429126546648
 30
0.0
 40
0.5
100
AcDbArc
 50
180.0
 51
-98.00000000000088
  0
ARC
  5
124
330
1F
100
AcDbEntity
  8
1
  6
Continuous
 62
     7
100
AcDbCircle
 10
762.1408895036615
 20
-67.12188650355814
 30
0.0
 40
0.4999999999999802
100
AcDbArc
 50
98.00000000000111
 51
180.0
  0
ARC
  5
125
330
1F
100
AcDbEntity
  8
1
  6
Continuous
 62
     7
100
AcDbCircle
 10
760.6408895036615
 20
-64.55308888451246
 30
0.0
 40
0.5
100
AcDbArc
 50
90.0
 51
180.0
  0
ARC
  5
126
330
1F
100
AcDbEntity
  8
1
  6
Continuous
 62
     7
100
AcDbCircle
 10
760.6408895036615
 20
-64.55308888451246
 30
0.0
 40
3.0
100
AcDbArc
 50
90.0
 51
180.0
  0
ARC
  5
127
330
1F
100
AcDbEntity
  8
1
  6
Continuous
 62
     7
100
AcDbCircle
 10
782.6408895036615
 20
-96.55308888451246
 30
0.0
 40
0.5
100
AcDbArc
 50
-90.0
 51
0.00000000001303
  0
ARC
  5
128
330
1F
100
AcDbEntity
  8
1
  6
Continuous
 62
     7
100
AcDbCircle
 10
782.6408895036615
 20
-96.55308888451246
 30
0.0
 40
3.500000000000043
100
AcDbArc
 50
-90.0
 51
0.0
  0
ARC
  5
129
330
1F
100
AcDbEntity
  8
1
  6
Continuous
 62
     7
100
AcDbCircle
 10
786.6155501336425
 20
-78.05308888451229
 30
0.0
 40
6.000000000000163
100
AcDbArc
 50
66.00000000000082
 51
89.99999999999784
  0
ARC
  5
12A
330
1F
100
AcDbEntity
  8
1
  6
Continuous
 62
     7
100
AcDbCircle
 10
773.5154686117644
 20
-74.96404368234339
 30
0.0
 40
2.000000000000257
100
AcDbArc
 50
134.9999999999931
 51
-159.6243183521747
  0
ARC
  5
12B
330
1F
100
AcDbEntity
  8
1
  6
Continuous
 62
     7
100
AcDbCircle
 10
793.5607624847405
 20
-65.55308888451229
 30
0.0
 40
2.0
100
AcDbArc
 50
-90.0
 51
-51.78678929826781
  0
ARC
  5
12C
330
1F
100
AcDbEntity
  8
1
  6
Continuous
 62
     7
100
AcDbCircle
 10
774.4264234095955
 20
-74.05308888451229
 30
0.0
 40
2.0
100
AcDbArc
 50
90.00000000000325
 51
134.9999999999931
  0
ARC
  5
12D
330
1F
100
AcDbEntity
  8
1
  6
Continuous
 62
     7
100
AcDbCircle
 10
774.2193166284087
 20
-73.5530888845124
 30
0.0
 40
6.000000000000227
100
AcDbArc
 50
89.99999999999892
 51
134.9999999999985
  0
ARC
  5
12E
330
1F
100
AcDbEntity
  8
1
  6
Continuous
 62
     7
100
AcDbCircle
 10
802.1824777757602
 20
-80.60538649888126
 30
0.0
 40
2.000000000000037
100
AcDbArc
 50
-26.00000000000511
 51
65.9999999999984
  0
ARC
  5
12F
330
1F
100
AcDbEntity
  8
1
  6
Continuous
 62
     7
100
AcDbCircle
 10
806.8908895036614
 20
-78.63887532213793
 30
0.0
 40
4.000000000000114
100
AcDbArc
 50
0.0
 51
45.00000000000115
  0
ARC
  5
130
330
1F
100
AcDbEntity
  8
1
  6
DASHED
 62
     2
100
AcDbCircle
 10
790.0549996297366
 20
-82.084805483018
 30
0.0
 40
2.000000000000029
100
AcDbArc
 50
-91.74182300396697
 51
-2.9999999999999
  0
ARC
  5
131
330
1F
100
AcDbEntity
  8
1
  6
DASHED
 62
     2
100
AcDbCircle
 10
790.3167448984615
 20
-77.09040823311115
 30
0.0
 40
1.999999999999994
100
AcDbArc
 50
-3.00000000000031
 51
88.30566344389297
  0
ARC
  5
132
330
1F
100
AcDbEntity
  8
1
  6
Continuous
 62
     7
100
AcDbCircle
 10
781.1408895036615
 20
-93.30308888451235
 30
0.0
 40
4.0
100
AcDbArc
 50
0.0000000000057
 51
89.99999999999675
  0
ARC
  5
133
330
1F
100
AcDbEntity
  8
1
  6
Continuous
 62
     7
100
AcDbCircle
 10
764.6408895036615
 20
-87.30308888451235
 30
0.0
 40
2.0
100
AcDbArc
 50
180.0
 51
-90.0
  0
ARC
  5
134
330
1F
100
AcDbEntity
  8
1
  6
Continuous
 62
     7
100
AcDbCircle
 10
764.6408895036615
 20
-70.30308888451235
 30
0.0
 40
2.0
100
AcDbArc
 50
90.0
 51
180.0
  0
ARC
  5
135
330
1F
100
AcDbEntity
  8
1
  6
Continuous
 62
     7
100
AcDbCircle
 10
790.1408895036615
 20
-66.30308888451235
 30
0.0
 40
2.00000000000002
100
AcDbArc
 50
-38.68218745348897
 51
0.0
  0
ARC
  5
136
330
1F
100
AcDbEntity
  8
1
  6
DASHED
 62
     2
100
AcDbCircle
 10
790.1408895036615
 20
-66.30308888451235
 30
0.0
 40
2.0
100
AcDbArc
 50
-90.0
 51
-38.68218745348897
  0
ARC
  5
137
330
1F
100
AcDbEntity
  8
1
  6
Continuous
 62
     7
100
AcDbCircle
 10
833.1408895036615
 20
-67.1218865035582
 30
0.0
 40
1.499999999999938
100
AcDbArc
 50
2.62879768383398
 51
81.99999999999912
  0
ARC
  5
138
330
1F
100
AcDbEntity
  8
1
  6
Continuous
 62
     7
100
AcDbCircle
 10
833.1408895036612
 20
-93.98429126545491
 30
0.0
 40
1.499999999999817
100
AcDbArc
 50
-81.99999999998947
 51
0.0000000000114
  0
ARC
  5
139
330
1F
100
AcDbEntity
  8
1
  6
Continuous
 62
     7
100
AcDbCircle
 10
833.1408895036612
 20
-93.98429126545491
 30
0.0
 40
0.4999999999999942
100
AcDbArc
 50
-81.99999999999912
 51
0.0
  0
ARC
  5
13A
330
1F
100
AcDbEntity
  8
1
  6
Continuous
 62
     7
100
AcDbCircle
 10
833.1408895036611
 20
-67.11985527725064
 30
0.0
 40
0.5000000000000463
100
AcDbArc
 50
7.67378653924756
 51
81.9822526359702
  0
ARC
  5
13B
330
1F
100
AcDbEntity
  8
1
  6
Continuous
 62
     7
100
AcDbCircle
 10
833.1408895036615
 20
-67.1218865035582
 30
0.0
 40
1.5
100
AcDbArc
 50
-0.00000000000326
 51
2.62879768383398
  0
ARC
  5
13C
330
1F
100
AcDbEntity
  8
1
  6
Continuous
 62
     7
100
AcDbCircle
 10
833.1408895036611
 20
-67.11985527725064
 30
0.0
 40
0.5
100
AcDbArc
 50
0.00000000000977
 51
7.67378653924756
  0
ARC
  5
13D
330
1F
100
AcDbEntity
  8
1
  6
Continuous
 62
     7
100
AcDbCircle
 10
825.6408895036615
 20
-87.55308888451235
 30
0.0
 40
2.0
100
AcDbArc
 50
-90.0
 51
0.0
  0
ARC
  5
13E
330
1F
100
AcDbEntity
  8
1
  6
Continuous
 62
     7
100
AcDbCircle
 10
829.6408895036615
 20
-86.55308888451235
 30
0.0
 40
2.0
100
AcDbArc
 50
90.0
 51
180.0
  0
ARC
  5
13F
330
1F
100
AcDbEntity
  8
1
  6
Continuous
 62
     7
100
AcDbCircle
 10
814.6408895036615
 20
-93.55308888451235
 30
0.0
 40
4.0
100
AcDbArc
 50
90.0
 51
180.0
  0
ARC
  5
140
330
1F
100
AcDbEntity
  8
1
  6
Continuous
 62
     7
100
AcDbCircle
 10
830.6408895036615
 20
-82.55308888451235
 30
0.0
 40
2.0
100
AcDbArc
 50
-90.0
 51
0.0
  0
ARC
  5
141
330
1F
100
AcDbEntity
  8
1
  6
Continuous
 62
     7
100
AcDbCircle
 10
805.6408895036615
 20
-66.55308888451235
 30
0.0
 40
2.0
100
AcDbArc
 50
180.0
 51
-89.99999999999675
  0
ARC
  5
142
330
1F
100
AcDbEntity
  8
1
  6
DASHED
 62
     2
100
AcDbCircle
 10
805.7267793775884
 20
-82.084805483018
 30
0.0
 40
1.999999999999993
100
AcDbArc
 50
-177.0000000000001
 51
-88.25817699603304
  0
ARC
  5
143
330
1F
100
AcDbEntity
  8
1
  6
DASHED
 62
     2
100
AcDbCircle
 10
805.4650341088635
 20
-77.09040823311115
 30
0.0
 40
1.999999999999982
100
AcDbArc
 50
91.69433655610703
 51
-176.9999999999997
  0
ARC
  5
144
330
1F
100
AcDbEntity
  8
1
  6
Continuous
 62
     7
100
AcDbCircle
 10
830.6408895036615
 20
-71.69246003874731
 30
0.0
 40
1.999999999999996
100
AcDbArc
 50
8.54138971020341
 51
65.00000000000031
  0
ARC
  5
145
330
1F
100
AcDbEntity
  8
1
  6
Continuous
 62
     7
100
AcDbCircle
 10
828.1975001783755
 20
-70.55308888451235
 30
0.0
 40
2.000000000000001
100
AcDbArc
 50
65.00000000000031
 51
90.0
  0
ARC
  5
146
330
1F
100
AcDbEntity
  8
1
  6
Continuous
 62
     7
100
AcDbCircle
 10
830.6408895036615
 20
-71.69246003874731
 30
0.0
 40
2.0
100
AcDbArc
 50
0.0
 51
8.54138971020341
  0
ARC
  5
147
330
1F
100
AcDbEntity
  8
1
  6
Continuous
 62
     7
100
AcDbCircle
 10
821.562462378916
 20
-73.55308888451235
 30
0.0
 40
5.999999999999968
100
AcDbArc
 50
45.00000000000077
 51
90.0
  0
ARC
  5
148
330
1F
100
AcDbEntity
  8
1
  6
Continuous
 62
     7
100
AcDbCircle
 10
821.355355597729
 20
-74.05308888451235
 30
0.0
 40
2.000000000000026
100
AcDbArc
 50
45.00000000001872
 51
90.0
  0
ARC
  5
149
330
1F
100
AcDbEntity
  8
1
  6
Continuous
 62
     7
100
AcDbCircle
 10
788.8908895036635
 20
-78.63887532213796
 30
0.0
 40
4.000000000000012
100
AcDbArc
 50
135.0000000000003
 51
180.0
  0
ARC
  5
14A
330
1F
100
AcDbEntity
  8
1
  6
Continuous
 62
     7
100
AcDbCircle
 10
793.5993012315648
 20
-80.60538649888156
 30
0.0
 40
1.999999999999996
100
AcDbArc
 50
114.0000000000011
 51
-153.9999999999967
  0
ARC
  5
14B
330
1F
100
AcDbEntity
  8
1
  6
Continuous
 62
     7
100
AcDbCircle
 10
809.1662288736825
 20
-78.05308888451235
 30
0.0
 40
6.0
100
AcDbArc
 50
90.00000000000217
 51
114.0000000000006
  0
ARC
  5
14C
330
1F
100
AcDbEntity
  8
1
  6
Continuous
 62
     7
100
AcDbCircle
 10
822.2663103955605
 20
-74.96404368234344
 30
0.0
 40
1.999999999999916
100
AcDbArc
 50
-20.37568164782532
 51
45.00000000000691
  0
ARC
  5
14D
330
1F
100
AcDbEntity
  8
1
  6
Continuous
 62
     7
100
AcDbCircle
 10
802.2210165225845
 20
-65.55308888451235
 30
0.0
 40
2.000000000000081
100
AcDbArc
 50
-128.2132107017419
 51
-90.00000000000651
  0
DIMENSION
  5
15B
330
1F
100
AcDbEntity
  8
1
100
AcDbDimension
  2
*D1
 10
863.480806376492
 20
-101.5530888845123
 30
0.0
 11
859.730806376492
 21
-104.875130967549
 31
0.0
 70
    32
  1
<>
 71
     5
 42
-1.0
 53
90.0
  3
ME10_DIM_10
100
AcDbAlignedDimension
 13
854.6408895036615
 23
-100.5530888845123
 33
0.0
 14
793.6408895036615
 24
-101.5530888845123
 34
0.0
 50
90.0
100
AcDbRotatedDimension
  0
DIMENSION
  5
166
330
1F
100
AcDbEntity
  8
1
100
AcDbDimension
  2
*D2
 10
760.6408895036615
 20
-110.97686618736
 30
0.0
 11
777.7268513803439
 21
-107.22686618736
 31
0.0
 70
    32
  1
<>
 71
     5
 42
-1.0
 53
0.00013888888889
  3
ME10_DIM_11
100
AcDbAlignedDimension
 13
796.1408895036615
 23
-99.0530888845123
 33
0.0
 14
760.6408895036615
 24
-93.98429126546647
 34
0.0
100
AcDbRotatedDimension
  0
DIMENSION
  5
171
330
1F
100
AcDbEntity
  8
1
100
AcDbDimension
  2
*D3
 10
799.6408895036616
 20
-110.97686618736
 30
0.0
 11
817.1408895036615
 21
-107.22686618736
 31
0.0
 70
    32
  1
<>
 71
     5
 42
-1.0
 53
0.00013888888889
  3
ME10_DIM_12
100
AcDbAlignedDimension
 13
834.6408895036615
 23
-93.98429126545462
 33
0.0
 14
799.6408895036616
 24
-100.5530888845123
 34
0.0
100
AcDbRotatedDimension
  0
DIMENSION
  5
17E
330
1F
100
AcDbEntity
  8
1
100
AcDbDimension
  2
*D4
 10
796.1408895036615
 20
-110.97686618736
 30
0.0
 11
795.9524134665719
 21
-114.434728272119
 31
0.0
 70
    32
  1
<>
 71
     5
 42
-1.0
 53
0.00013888888889
  3
ME10_DIM_13
100
AcDbAlignedDimension
 13
799.6408895036616
 23
-100.5530888845123
 33
0.0
 14
796.1408895036615
 24
-99.0530888845123
 34
0.0
100
AcDbRotatedDimension
  0
DIMENSION
  5
18B
330
1F
100
AcDbEntity
  8
1
100
AcDbDimension
  2
*D5
 10
747.0951171652669
 20
-101.5530888845124
 30
0.0
 11
743.3451171652669
 21
-105.109507457502
 31
0.0
 70
    32
  1
<>
 71
     5
 42
-1.0
 53
90.0
  3
ME10_DIM_14
100
AcDbAlignedDimension
 13
769.6408895036615
 23
-96.55308888451235
 33
0.0
 14
756.640889503661
 24
-101.5530888845124
 34
0.0
 50
90.0
100
AcDbRotatedDimension
  0
DIMENSION
  5
196
330
1F
100
AcDbEntity
  8
1
100
AcDbDimension
  2
*D6
 10
747.0951171652669
 20
-96.55308888451235
 30
0.0
 11
743.3451171652669
 21
-80.55308888451235
 31
0.0
 70
    32
  1
<>
 71
     5
 42
-1.0
 53
90.0
  3
ME10_DIM_15
100
AcDbAlignedDimension
 13
769.6408895036633
 23
-64.55308888451235
 33
0.0
 14
769.6408895036615
 24
-96.55308888451235
 34
0.0
 50
90.0
100
AcDbRotatedDimension
  0
DIMENSION
  5
1A3
330
1F
100
AcDbEntity
  8
1
100
AcDbDimension
  2
*D7
 10
873.221105804278
 20
-100.5530888845123
 30
0.0
 11
869.471105804278
 21
-104.302172177679
 31
0.0
 70
    32
  1
<>
 71
     5
 42
-1.0
 53
90.0
  3
ME10_DIM_16
100
AcDbAlignedDimension
 13
836.1408895036615
 23
-96.5530888845007
 33
0.0
 14
854.6408895036615
 24
-100.5530888845123
 34
0.0
 50
90.0
100
AcDbRotatedDimension
  0
DIMENSION
  5
1AE
330
1F
100
AcDbEntity
  8
1
100
AcDbDimension
  2
*D8
 10
873.221105804278
 20
-96.5530888845007
 30
0.0
 11
869.471105804278
 21
-80.5530888845065
 31
0.0
 70
    32
  1
<>
 71
     5
 42
-1.0
 53
90.0
  3
ME10_DIM_17
100
AcDbAlignedDimension
 13
836.1408895036615
 23
-64.55308888451228
 33
0.0
 14
836.1408895036615
 24
-96.5530888845007
 34
0.0
 50
90.0
100
AcDbRotatedDimension
  0
DIMENSION
  5
1BA
330
1F
100
AcDbEntity
  8
1
100
AcDbDimension
  2
*D9
 10
754.140889503661
 20
-126.360628410952
 30
0.0
 11
774.9539119503743
 21
-122.610628410952
 31
0.0
 70
    32
  1
<>
 71
     5
 42
-1.0
 53
0.00013888888889
  3
ME10_DIM_18
100
AcDbAlignedDimension
 13
796.1408895036615
 23
-99.0530888845123
 33
0.0
 14
754.140889503661
 24
-99.0530888845124
 34
0.0
100
AcDbRotatedDimension
  0
DIMENSION
  5
1C5
330
1F
100
AcDbEntity
  8
1
100
AcDbDimension
  2
*D10
 10
799.6408895036616
 20
-126.360628410952
 30
0.0
 11
817.8908895036615
 21
-122.610628410952
 31
0.0
 70
    32
  1
<>
 71
     5
 42
-1.0
 53
0.00013888888889
  3
ME10_DIM_19
100
AcDbAlignedDimension
 13
836.1408895036615
 23
-96.5530888845007
 33
0.0
 14
799.6408895036616
 24
-100.5530888845123
 34
0.0
100
AcDbRotatedDimension
  0
ENDSEC
  0
SECTION
  2
OBJECTS
  0
DICTIONARY
  5
C
330
0
100
AcDbDictionary
281
     1
  3
ACAD_GROUP
350
D
  3
ACAD_LAYOUT
350
1A
  3
ACAD_MLINESTYLE
350
17
  3
ACAD_PLOTSETTINGS
350
19
  3
ACAD_PLOTSTYLENAME
350
E
  0
DICTIONARY
  5
D
102
{ACAD_REACTORS
330
C
102
}
330
C
100
AcDbDictionary
281
     1
  0
DICTIONARY
  5
1A
102
{ACAD_REACTORS
330
C
102
}
330
C
100
AcDbDictionary
281
     1
  3
Layout1
350
1E
  3
Layout2
350
26
  3
Model
350
22
  0
DICTIONARY
  5
17
102
{ACAD_REACTORS
330
C
102
}
330
C
100
AcDbDictionary
281
     1
  3
Standard
350
18
  0
DICTIONARY
  5
19
102
{ACAD_REACTORS
330
C
102
}
330
C
100
AcDbDictionary
281
     1
  0
ACDBDICTIONARYWDFLT
  5
E
102
{ACAD_REACTORS
330
C
102
}
330
C
100
AcDbDictionary
281
     1
  3
Normal
350
F
100
AcDbDictionaryWithDefault
340
F
  0
LAYOUT
  5
1E
102
{ACAD_REACTORS
330
1A
102
}
330
1A
100
AcDbPlotSettings
  1

  2

  4

  6

 40
0.0
 41
0.0
 42
0.0
 43
0.0
 44
0.0
 45
0.0
 46
0.0
 47
0.0
 48
0.0
 49
0.0
140
0.0
141
0.0
142
1.0
143
1.0
 70
   688
 72
     0
 73
     0
 74
     5
  7

 75
    16
 76
     0
 77
     2
 78
   300
147
1.0
148
0.0
149
0.0
100
AcDbLayout
  1
Layout1
 70
     1
 71
     1
 10
0.0
 20
0.0
 11
0.0
 21
0.0
 12
0.0
 22
0.0
 32
0.0
 14
0.0
 24
0.0
 34
0.0
 15
0.0
 25
0.0
 35
0.0
146
0.0
 13
0.0
 23
0.0
 33
0.0
 16
1.0
 26
0.0
 36
0.0
 17
0.0
 27
1.0
 37
0.0
 76
     0
330
1B
  0
LAYOUT
  5
26
102
{ACAD_REACTORS
330
1A
102
}
330
1A
100
AcDbPlotSettings
  1

  2

  4

  6

 40
0.0
 41
0.0
 42
0.0
 43
0.0
 44
0.0
 45
0.0
 46
0.0
 47
0.0
 48
0.0
 49
0.0
140
0.0
141
0.0
142
1.0
143
1.0
 70
   688
 72
     0
 73
     0
 74
     5
  7

 75
    16
 76
     0
 77
     2
 78
   300
147
1.0
148
0.0
149
0.0
100
AcDbLayout
  1
Layout2
 70
     1
 71
     2
 10
0.0
 20
0.0
 11
0.0
 21
0.0
 12
0.0
 22
0.0
 32
0.0
 14
0.0
 24
0.0
 34
0.0
 15
0.0
 25
0.0
 35
0.0
146
0.0
 13
0.0
 23
0.0
 33
0.0
 16
1.0
 26
0.0
 36
0.0
 17
0.0
 27
1.0
 37
0.0
 76
     0
330
23
  0
LAYOUT
  5
22
102
{ACAD_REACTORS
330
1A
102
}
330
1A
100
AcDbPlotSettings
  1

  2

  4

  6

 40
0.0
 41
0.0
 42
0.0
 43
0.0
 44
0.0
 45
0.0
 46
0.0
 47
0.0
 48
0.0
 49
0.0
140
0.0
141
0.0
142
1.0
143
1.0
 70
  1712
 72
     0
 73
     0
 74
     0
  7

 75
     0
 76
     0
 77
     2
 78
   300
147
1.0
148
0.0
149
0.0
100
AcDbLayout
  1
Model
 70
     1
 71
     0
 10
0.0
 20
0.0
 11
0.0
 21
0.0
 12
0.0
 22
0.0
 32
0.0
 14
741.5951171652669
 24
-128.360628410952
 34
0.0
 15
875.221105804278
 25
-24.76424577186661
 35
0.0
146
0.0
 13
0.0
 23
0.0
 33
0.0
 16
1.0
 26
0.0
 36
0.0
 17
0.0
 27
1.0
 37
0.0
 76
     0
330
1F
  0
MLINESTYLE
  5
18
102
{ACAD_REACTORS
330
17
102
}
330
17
100
AcDbMlineStyle
  2
Standard
 70
     0
  3

 62
   256
 51
90.0
 52
90.0
 71
     2
 49
0.5
 62
   256
  6
BYLAYER
 49
-0.5
 62
   256
  6
BYLAYER
  0
ACDBPLACEHOLDER
  5
F
102
{ACAD_REACTORS
330
E
102
}
330
E
  0
ENDSEC
  0
EOF
