999
DXF file: d:\tmp\workingDir\0000104915\5_400561_0_04000_mkt_q_08_01.dxf
999
Pro/ENGINEER 2016380 by Parametric Technology Corporation
  0
SECTION
  2
HEADER
  9
$ACADVER
  1
AC1014
  9
$DWGCODEPAGE
  3
ANSI_1252
  9
$EXTMAX
 10
145.034
 20
105.0
 30
0.0
  9
$EXTMIN
 10
0.0
 20
0.0
 30
0.0
  9
$LIMMIN
 10
0.0
 20
0.0
  9
$LIMMAX
 10
145.034
 20
105.0
  9
$VIEWCTR
 10
72.517
 20
52.5
  9
$VIEWSIZE
 40
105.0
  9
$CLAYER
  8
0
  9
$LTSCALE
 40
7.97687
  9
$CELTYPE
  6
BYLAYER
  9
$DIMSCALE
 40
1.0
  9
$DIMASZ
 40
3.5
  9
$DIMEXO
 40
0.0
  9
$DIMDLI
 40
5.511292
  9
$DIMEXE
 40
2.0
  9
$DIMCEN
 40
1.305306
  9
$DIMLFAC
 40
1.0
  9
$DIMBLK
  1
_ARROW_FILLED
  9
$DIMALT
 70
1
  9
$DIMALTD
 70
1
  9
$DIMALTTD
 70
2
  9
$DIMALTF
 40
0.0393700787
  9
$DIMTXT
 40
3.5
  9
$DIMTOL
 70
1
  9
$DIMLIM
 70
0
  9
$DIMTFAC
 40
1.0
  9
$DIMTP
 40
0.01
  9
$DIMTM
 40
0.01
  9
$DIMGAP
 40
0.625
  9
$AUNITS
 70
0
  9
$PDMODE
 70
0
  9
$PDSIZE
 40
0.04
  9
$HANDSEED
  5
3C6
  9
$TILEMODE
 70
1
  9
$MEASUREMENT
 70
1
  0
ENDSEC
  0
SECTION
  2
CLASSES
  0
ENDSEC
  0
SECTION
  2
TABLES
  0
TABLE
  2
VPORT
  5
8
100
AcDbSymbolTable
 70
2
  0
VPORT
  5
1F4
100
AcDbSymbolTableRecord
100
AcDbViewportTableRecord
  2
*ACTIVE
 70
0
 10
0.0
 20
0.0
 11
1.0
 21
1.0
 12
72.517
 22
52.5
 13
0.0
 23
0.0
 14
1.0
 24
1.0
 15
0.0
 25
0.0
 16
0.0
 26
0.0
 36
1.0
 17
0.0
 27
0.0
 37
0.0
 40
105.0
 41
1.3812761905
 42
50.0
 43
0.0
 44
0.0
 50
0.0
 51
0.0
 71
0
 72
100
 73
1
 74
1
 75
0
 76
0
 77
0
 78
0
  0
ENDTAB
  0
TABLE
  2
LTYPE
  5
5
100
AcDbSymbolTable
 70
6
  0
LTYPE
  5
14
100
AcDbSymbolTableRecord
100
AcDbLinetypeTableRecord
  2
BYBLOCK
 70
0
  3

 72
65
 73
0
 40
0.0
  0
LTYPE
  5
15
100
AcDbSymbolTableRecord
100
AcDbLinetypeTableRecord
  2
BYLAYER
 70
0
  3

 72
65
 73
0
 40
0.0
  0
LTYPE
  5
16
100
AcDbSymbolTableRecord
100
AcDbLinetypeTableRecord
  2
CONTINUOUS
 70
64
  3
Solid line
 72
65
 73
0
 40
0.0
  0
LTYPE
  5
1F5
100
AcDbSymbolTableRecord
100
AcDbLinetypeTableRecord
  2
CENTER
 70
64
  3
____ _ ____ _ ____ _ ____ _ ____ _ ____ _ ____
 72
65
 73
4
 40
0.6
 49
0.375
 74
0
 49
-0.075
 74
0
 49
0.075
 74
0
 49
-0.075
 74
0
  0
LTYPE
  5
1F6
100
AcDbSymbolTableRecord
100
AcDbLinetypeTableRecord
  2
HIDDEN
 70
64
  3
- - - - - - - - - - - - - - - - - - - -
 72
65
 73
2
 40
0.2
 49
0.1
 74
0
 49
-0.1
 74
0
  0
LTYPE
  5
1F7
100
AcDbSymbolTableRecord
100
AcDbLinetypeTableRecord
  2
PHANTOM
 70
64
  3
_____ _ _ _____ _ _ _____ _ _ _____
 72
65
 73
6
 40
0.8
 49
0.45
 74
0
 49
-0.05
 74
0
 49
0.1
 74
0
 49
-0.05
 74
0
 49
0.1
 74
0
 49
-0.05
 74
0
  0
LTYPE
  5
1F8
100
AcDbSymbolTableRecord
100
AcDbLinetypeTableRecord
  2
DOT
 70
64
  3
. . . . . . . . . . . . . . . . . . . .
 72
65
 73
2
 40
0.2
 49
0.1
 74
0
 49
-0.1
 74
0
  0
LTYPE
  5
1F9
100
AcDbSymbolTableRecord
100
AcDbLinetypeTableRecord
  2
DASHED
 70
64
  3
- - - - - - - - - - - - - - - - - - - -
 72
65
 73
2
 40
0.2
 49
0.1
 74
0
 49
-0.1
 74
0
  0
ENDTAB
  0
TABLE
  2
LAYER
  5
2
100
AcDbSymbolTable
 70
36
  0
LAYER
  5
10
100
AcDbSymbolTableRecord
100
AcDbLayerTableRecord
  2
0
 70
0
 62
7
  6
CONTINUOUS
  0
LAYER
  5
1FA
100
AcDbSymbolTableRecord
100
AcDbLayerTableRecord
  2
DEFAULT_1
 70
0
 62
7
  6
CENTER
  0
LAYER
  5
1FB
100
AcDbSymbolTableRecord
100
AcDbLayerTableRecord
  2
DEFAULT_2
 70
0
 62
8
  6
HIDDEN
  0
LAYER
  5
1FC
100
AcDbSymbolTableRecord
100
AcDbLayerTableRecord
  2
DEFAULT_3
 70
0
 62
7
  6
PHANTOM
  0
LAYER
  5
1FD
100
AcDbSymbolTableRecord
100
AcDbLayerTableRecord
  2
A_ACHSEN
 70
0
 62
7
  6
CONTINUOUS
  0
LAYER
  5
1FE
100
AcDbSymbolTableRecord
100
AcDbLayerTableRecord
  2
A_BASISEBENEN
 70
0
 62
7
  6
CONTINUOUS
  0
LAYER
  5
1FF
100
AcDbSymbolTableRecord
100
AcDbLayerTableRecord
  2
A_BEMASSUNGEN
 70
0
 62
7
  6
CONTINUOUS
  0
LAYER
  5
200
100
AcDbSymbolTableRecord
100
AcDbLayerTableRecord
  2
A_BOHRUNGEN
 70
0
 62
7
  6
CONTINUOUS
  0
LAYER
  5
201
100
AcDbSymbolTableRecord
100
AcDbLayerTableRecord
  2
A_EBENEN
 70
0
 62
7
  6
CONTINUOUS
  0
LAYER
  5
202
100
AcDbSymbolTableRecord
100
AcDbLayerTableRecord
  2
A_FASEN
 70
0
 62
7
  6
CONTINUOUS
  0
LAYER
  5
203
100
AcDbSymbolTableRecord
100
AcDbLayerTableRecord
  2
A_FL_VERBAENDE
 70
0
 62
7
  6
CONTINUOUS
  0
LAYER
  5
204
100
AcDbSymbolTableRecord
100
AcDbLayerTableRecord
  2
A_KURVEN
 70
0
 62
7
  6
CONTINUOUS
  0
LAYER
  5
205
100
AcDbSymbolTableRecord
100
AcDbLayerTableRecord
  2
A_NOTIZEN_SYMB
 70
0
 62
7
  6
CONTINUOUS
  0
LAYER
  5
206
100
AcDbSymbolTableRecord
100
AcDbLayerTableRecord
  2
A_PUNKTE
 70
0
 62
7
  6
CONTINUOUS
  0
LAYER
  5
207
100
AcDbSymbolTableRecord
100
AcDbLayerTableRecord
  2
A_RUNDUNGEN
 70
0
 62
7
  6
CONTINUOUS
  0
LAYER
  5
208
100
AcDbSymbolTableRecord
100
AcDbLayerTableRecord
  2
BASISEBENEN
 70
0
 62
7
  6
CONTINUOUS
  0
LAYER
  5
209
100
AcDbSymbolTableRecord
100
AcDbLayerTableRecord
  2
INTF_2
 70
0
 62
7
  6
CONTINUOUS
  0
LAYER
  5
20A
100
AcDbSymbolTableRecord
100
AcDbLayerTableRecord
  2
XSEC_DATUMS
 70
0
 62
7
  6
CONTINUOUS
  0
ENDTAB
  0
TABLE
  2
STYLE
  5
3
100
AcDbSymbolTable
 70
1
  0
STYLE
  5
11
100
AcDbSymbolTableRecord
100
AcDbTextStyleTableRecord
  2
STANDARD
 70
0
 40
0.0
 41
1.0
 50
0.0
 71
0
 42
0.2
  3
txt
  4

  0
STYLE
  5
20B
100
AcDbSymbolTableRecord
100
AcDbTextStyleTableRecord
  2
TEXTSTYLE_1
 70
0
 40
0.0
 41
0.8
 50
0.0
 71
0
 42
0.2
  3
gdt
  4

  0
STYLE
  5
20C
100
AcDbSymbolTableRecord
100
AcDbTextStyleTableRecord
  2
TEXTSTYLE_2
 70
0
 40
0.0
 41
1.0
 50
0.0
 71
0
 42
0.2
  3
txt
  4

  0
ENDTAB
  0
TABLE
  2
VIEW
  5
6
100
AcDbSymbolTable
 70
0
  0
ENDTAB
  0
TABLE
  2
UCS
  5
7
100
AcDbSymbolTable
 70
0
  0
ENDTAB
  0
TABLE
  2
APPID
  5
9
100
AcDbSymbolTable
 70
1
  0
APPID
  5
20D
100
AcDbSymbolTableRecord
100
AcDbRegAppTableRecord
  2
ACAD
 70
0
  0
ENDTAB
  0
TABLE
  2
BLOCK_RECORD
  5
1
100
AcDbSymbolTable
 70
0
  0
BLOCK_RECORD
  5
1F
100
AcDbSymbolTableRecord
100
AcDbBlockTableRecord
  2
*MODEL_SPACE
  0
BLOCK_RECORD
  5
1B
100
AcDbSymbolTableRecord
100
AcDbBlockTableRecord
  2
*PAPER_SPACE
  0
BLOCK_RECORD
  5
20E
100
AcDbSymbolTableRecord
100
AcDbBlockTableRecord
  2
_ARROW_FILLED
  0
BLOCK_RECORD
  5
20F
100
AcDbSymbolTableRecord
100
AcDbBlockTableRecord
  2
*D0
  0
BLOCK_RECORD
  5
210
100
AcDbSymbolTableRecord
100
AcDbBlockTableRecord
  2
*D1
  0
BLOCK_RECORD
  5
211
100
AcDbSymbolTableRecord
100
AcDbBlockTableRecord
  2
*D2
  0
BLOCK_RECORD
  5
212
100
AcDbSymbolTableRecord
100
AcDbBlockTableRecord
  2
*D3
  0
BLOCK_RECORD
  5
213
100
AcDbSymbolTableRecord
100
AcDbBlockTableRecord
  2
*D4
  0
BLOCK_RECORD
  5
214
100
AcDbSymbolTableRecord
100
AcDbBlockTableRecord
  2
*D5
  0
BLOCK_RECORD
  5
215
100
AcDbSymbolTableRecord
100
AcDbBlockTableRecord
  2
*D6
  0
BLOCK_RECORD
  5
216
100
AcDbSymbolTableRecord
100
AcDbBlockTableRecord
  2
*D7
  0
ENDTAB
  0
TABLE
  2
DIMSTYLE
  5
A
100
AcDbSymbolTable
 70
1
  0
DIMSTYLE
105
217
100
AcDbSymbolTableRecord
100
AcDbDimStyleTableRecord
  2
STANDARD
 70
0
  3

  4

  5
_ARROW_FILLED
  6
_ARROW_FILLED
  7
_ARROW_FILLED
 40
1.0
 41
3.5
 42
0.0
 43
0.38
 44
2.0
 45
0.0
 46
0.0
 47
0.01
 48
0.01
140
3.5
141
0.09
142
0.0
143
0.0393700787
144
1.0
145
0.0
146
1.0
147
0.625
 71
1.0
 72
0.0
 73
0
 74
0
 75
0
 76
0
 77
1
 78
8
170
1
171
1
172
0
173
0
174
0
175
0
176
0
177
0
178
5
270
2
271
2
272
2
273
2
274
2
275
0
280
0
281
0
282
0
283
1
284
8
285
0
286
0
287
3
288
0
340
11
  0
DIMSTYLE
105
218
100
AcDbSymbolTableRecord
100
AcDbDimStyleTableRecord
  2
DIMSTYLE_1
 70
0
  3

  4

  5
_ARROW_FILLED
  6
_ARROW_FILLED
  7
_ARROW_FILLED
 40
1.0
 41
3.5
 42
0.0
 43
0.38
 44
2.0
 45
0.0
 46
0.0
 47
0.3
 48
0.3
140
3.5
141
0.09
142
0.0
143
0.0393700787
144
1.0
145
0.0
146
1.0
147
0.875
 71
0.0
 72
0.0
 73
0
 74
0
 75
0
 76
0
 77
1
 78
8
170
1
171
3
172
0
173
0
174
0
175
0
176
0
177
0
178
5
270
2
271
4
272
-1
273
2
274
0
275
0
280
0
281
0
282
0
283
1
284
8
285
0
286
0
287
3
288
0
340
20C
  0
DIMSTYLE
105
219
100
AcDbSymbolTableRecord
100
AcDbDimStyleTableRecord
  2
DIMSTYLE_2
 70
0
  3

  4

  5
_ARROW_FILLED
  6
_ARROW_FILLED
  7
_ARROW_FILLED
 40
1.0
 41
3.5
 42
0.0
 43
0.38
 44
2.0
 45
0.0
 46
0.0
 47
0.3
 48
0.3
140
3.5
141
0.09
142
0.0
143
0.0393700787
144
1.0
145
0.0
146
1.0
147
0.875
 71
0.0
 72
0.0
 73
0
 74
0
 75
0
 76
0
 77
1
 78
8
170
1
171
3
172
0
173
0
174
0
175
0
176
0
177
0
178
5
270
2
271
4
272
-1
273
2
274
3
275
0
280
0
281
0
282
0
283
1
284
8
285
0
286
0
287
3
288
0
340
20C
  0
DIMSTYLE
105
21A
100
AcDbSymbolTableRecord
100
AcDbDimStyleTableRecord
  2
DIMSTYLE_3
 70
0
  3

  4

  5
_ARROW_FILLED
  6
_ARROW_FILLED
  7
_ARROW_FILLED
 40
1.0
 41
3.5
 42
0.0
 43
0.38
 44
2.0
 45
0.0
 46
0.0
 47
0.1
 48
0.1
140
3.5
141
0.09
142
0.0
143
0.0393700787
144
1.0
145
0.0
146
1.0
147
0.875
 71
0.0
 72
0.0
 73
0
 74
0
 75
0
 76
0
 77
1
 78
8
170
1
171
3
172
0
173
0
174
0
175
0
176
0
177
0
178
5
270
2
271
4
272
-1
273
2
274
3
275
0
280
0
281
0
282
0
283
1
284
8
285
0
286
0
287
3
288
0
340
20C
  0
DIMSTYLE
105
21B
100
AcDbSymbolTableRecord
100
AcDbDimStyleTableRecord
  2
DIMSTYLE_4
 70
0
  3

  4

  5
_ARROW_FILLED
  6
_ARROW_FILLED
  7
_ARROW_FILLED
 40
1.0
 41
3.5
 42
0.0
 43
0.38
 44
2.0
 45
0.0
 46
0.0
 47
0.2
 48
0.2
140
3.5
141
0.09
142
0.0
143
0.0393700787
144
1.0
145
0.0
146
1.0
147
0.875
 71
0.0
 72
0.0
 73
0
 74
0
 75
0
 76
0
 77
1
 78
8
170
1
171
-1
172
0
173
0
174
0
175
0
176
0
177
0
178
5
270
2
271
0
272
-1
273
2
274
-1
275
0
280
0
281
0
282
0
283
1
284
8
285
0
286
0
287
3
288
0
340
20C
  0
DIMSTYLE
105
21C
100
AcDbSymbolTableRecord
100
AcDbDimStyleTableRecord
  2
DIMSTYLE_5
 70
0
  3

  4

  5
_ARROW_FILLED
  6
_ARROW_FILLED
  7
_ARROW_FILLED
 40
1.0
 41
3.5
 42
0.0
 43
0.38
 44
2.0
 45
0.0
 46
0.0
 47
0.2
 48
0.2
140
3.5
141
0.09
142
0.0
143
0.0393700787
144
1.0
145
0.0
146
1.0
147
0.875
 71
0.0
 72
0.0
 73
0
 74
0
 75
0
 76
0
 77
1
 78
8
170
1
171
3
172
0
173
0
174
0
175
0
176
0
177
0
178
5
270
2
271
4
272
-1
273
2
274
3
275
0
280
0
281
0
282
0
283
1
284
8
285
0
286
0
287
3
288
0
340
20C
  0
DIMSTYLE
105
21D
100
AcDbSymbolTableRecord
100
AcDbDimStyleTableRecord
  2
DIMSTYLE_6
 70
0
  3

  4

  5
_ARROW_FILLED
  6
_ARROW_FILLED
  7
_ARROW_FILLED
 40
1.0
 41
3.5
 42
0.0
 43
0.38
 44
2.0
 45
0.0
 46
0.0
 47
0.1
 48
0.1
140
3.5
141
0.09
142
0.0
143
0.0393700787
144
1.0
145
0.0
146
1.0
147
0.875
 71
0.0
 72
0.0
 73
0
 74
0
 75
0
 76
0
 77
1
 78
8
170
1
171
3
172
0
173
0
174
0
175
0
176
0
177
0
178
5
270
2
271
4
272
-1
273
2
274
1
275
0
280
0
281
0
282
0
283
1
284
8
285
0
286
0
287
3
288
0
340
20C
  0
ENDTAB
  0
ENDSEC
  0
SECTION
  2
BLOCKS
  0
BLOCK
  5
20
100
AcDbEntity
  8
0
100
AcDbBlockBegin
  2
*MODEL_SPACE
 70
0
 10
0.0
 20
0.0
 30
0.0
  3
*MODEL_SPACE
  1

  0
ENDBLK
  5
21
100
AcDbEntity
  8
0
100
AcDbBlockEnd
  0
BLOCK
  5
1C
100
AcDbEntity
  8
0
100
AcDbBlockBegin
  2
*PAPER_SPACE
 70
0
 10
0.0
 20
0.0
 30
0.0
  3
*PAPER_SPACE
  1

  0
ENDBLK
  5
1D
100
AcDbEntity
  8
0
100
AcDbBlockEnd
  0
BLOCK
  5
21E
100
AcDbEntity
  8
0
100
AcDbBlockBegin
  2
_ARROW_FILLED
 70
64
 10
0.0
 20
0.0
  3
_ARROW_FILLED
  1

  0
SOLID
  5
21F
100
AcDbEntity
  8
0
  6
BYBLOCK
 62
0
100
AcDbTrace
 10
0.0
 20
0.0
 11
-1.0
 21
0.1428571429
 12
-1.0
 22
-0.1428571429
 13
-1.0
 23
-0.1428571429
  0
ENDBLK
  5
220
100
AcDbEntity
  8
0
  6
BYBLOCK
 62
0
100
AcDbBlockEnd
  0
BLOCK
  5
221
100
AcDbEntity
  8
A_BEMASSUNGEN
100
AcDbBlockBegin
 62
2
  6
CONTINUOUS
  2
*D0
 70
65
 10
0.0
 20
0.0
  3
*D0
  1

  0
MTEXT
  5
222
100
AcDbEntity
  8
A_BEMASSUNGEN
100
AcDbMText
 62
5
  6
CONTINUOUS
  7
TEXTSTYLE_2
 71
2
 72
1
 10
37.3306558478
 20
11.3421177345
 30
0.0
 11
1.0
 21
0.0
 31
0.0
  1
34\P[1.339]
 40
3.5
 41
22.125
  0
LINE
  5
223
100
AcDbEntity
  8
A_BEMASSUNGEN
100
AcDbLine
 62
2
  6
CONTINUOUS
 10
25.0806558478
 20
33.6981140418
 11
25.0806558478
 21
31.5063597181
  0
LINE
  5
224
100
AcDbEntity
  8
A_BEMASSUNGEN
100
AcDbLine
 62
2
  6
CONTINUOUS
 10
25.0806558478
 20
30.1829128914
 11
25.0806558478
 21
4.9671177345
  0
LINE
  5
225
100
AcDbEntity
  8
A_BEMASSUNGEN
100
AcDbLine
 62
2
  6
CONTINUOUS
 10
59.0806558478
 20
28.4481140418
 11
59.0806558478
 21
4.9671177345
  0
LINE
  5
226
100
AcDbEntity
  8
A_BEMASSUNGEN
100
AcDbLine
 62
2
  6
CONTINUOUS
 10
25.0806558478
 20
6.9671177345
 11
42.0806558478
 21
6.9671177345
  0
LINE
  5
227
100
AcDbEntity
  8
A_BEMASSUNGEN
100
AcDbLine
 62
2
  6
CONTINUOUS
 10
59.0806558478
 20
6.9671177345
 11
42.0806558478
 21
6.9671177345
  0
INSERT
  5
228
100
AcDbEntity
  8
A_BEMASSUNGEN
100
AcDbBlockReference
 62
2
  6
CONTINUOUS
  2
_ARROW_FILLED
 10
25.0806558478
 20
6.9671177345
 41
3.5
 42
3.5
 43
3.5
 50
180.0
  0
INSERT
  5
229
100
AcDbEntity
  8
A_BEMASSUNGEN
100
AcDbBlockReference
 62
2
  6
CONTINUOUS
  2
_ARROW_FILLED
 10
59.0806558478
 20
6.9671177345
 41
3.5
 42
3.5
 43
3.5
  0
ENDBLK
  5
22A
100
AcDbEntity
  8
0
  6
BYBLOCK
 62
0
100
AcDbBlockEnd
  0
BLOCK
  5
22B
100
AcDbEntity
  8
A_BEMASSUNGEN
100
AcDbBlockBegin
 62
2
  6
CONTINUOUS
  2
*D1
 70
65
 10
0.0
 20
0.0
  3
*D1
  1

  0
MTEXT
  5
22C
100
AcDbEntity
  8
A_BEMASSUNGEN
100
AcDbMText
 62
5
  6
CONTINUOUS
  7
TEXTSTYLE_2
 71
2
 72
1
 10
82.9371767593
 20
11.3421177345
 30
0.0
 11
1.0
 21
0.0
 31
0.0
  1
37,5\P[1.476]
 40
3.5
 41
22.875
  0
LINE
  5
22D
100
AcDbEntity
  8
A_BEMASSUNGEN
100
AcDbLine
 62
2
  6
CONTINUOUS
 10
62.5806562847
 20
26.9480760385
 11
62.5806562847
 21
4.9671177345
  0
LINE
  5
22E
100
AcDbEntity
  8
A_BEMASSUNGEN
100
AcDbLine
 62
2
  6
CONTINUOUS
 10
100.0806562847
 20
30.9480760385
 11
100.0806562847
 21
4.9671177345
  0
LINE
  5
22F
100
AcDbEntity
  8
A_BEMASSUNGEN
100
AcDbLine
 62
2
  6
CONTINUOUS
 10
62.5806562847
 20
6.9671177345
 11
81.3306562847
 21
6.9671177345
  0
LINE
  5
230
100
AcDbEntity
  8
A_BEMASSUNGEN
100
AcDbLine
 62
2
  6
CONTINUOUS
 10
100.0806562847
 20
6.9671177345
 11
81.3306562847
 21
6.9671177345
  0
INSERT
  5
231
100
AcDbEntity
  8
A_BEMASSUNGEN
100
AcDbBlockReference
 62
2
  6
CONTINUOUS
  2
_ARROW_FILLED
 10
62.5806562847
 20
6.9671177345
 41
3.5
 42
3.5
 43
3.5
 50
180.0
  0
INSERT
  5
232
100
AcDbEntity
  8
A_BEMASSUNGEN
100
AcDbBlockReference
 62
2
  6
CONTINUOUS
  2
_ARROW_FILLED
 10
100.0806562847
 20
6.9671177345
 41
3.5
 42
3.5
 43
3.5
  0
ENDBLK
  5
233
100
AcDbEntity
  8
0
  6
BYBLOCK
 62
0
100
AcDbBlockEnd
  0
BLOCK
  5
234
100
AcDbEntity
  8
A_BEMASSUNGEN
100
AcDbBlockBegin
 62
2
  6
CONTINUOUS
  2
*D2
 70
65
 10
0.0
 20
0.0
  3
*D2
  1

  0
MTEXT
  5
235
100
AcDbEntity
  8
A_BEMASSUNGEN
100
AcDbMText
 62
5
  6
CONTINUOUS
  7
TEXTSTYLE_2
 71
3
 72
1
 10
4.6237402982
 20
11.9846921506
 30
0.0
 11
0.0
 21
1.0
 31
0.0
  1
5\P[.197]
 40
3.5
 41
18.75
  0
LINE
  5
236
100
AcDbEntity
  8
A_BEMASSUNGEN
100
AcDbLine
 62
2
  6
CONTINUOUS
 10
22.0806558478
 20
25.9481140418
 11
6.9987402982
 21
25.9481140418
  0
LINE
  5
237
100
AcDbEntity
  8
A_BEMASSUNGEN
100
AcDbLine
 62
2
  6
CONTINUOUS
 10
57.5806558478
 20
30.9481140418
 11
6.9987402982
 21
30.9481140418
  0
LINE
  5
238
100
AcDbEntity
  8
A_BEMASSUNGEN
100
AcDbLine
 62
2
  6
CONTINUOUS
 10
8.9987402982
 20
25.9481140418
 11
8.9987402982
 21
9.4846921506
  0
LINE
  5
239
100
AcDbEntity
  8
A_BEMASSUNGEN
100
AcDbLine
 62
2
  6
CONTINUOUS
 10
8.9987402982
 20
9.4846921506
 11
8.9987402982
 21
28.4481140418
  0
LINE
  5
23A
100
AcDbEntity
  8
A_BEMASSUNGEN
100
AcDbLine
 62
2
  6
CONTINUOUS
 10
8.9987402982
 20
30.9481140418
 11
8.9987402982
 21
38.4481140418
  0
LINE
  5
23B
100
AcDbEntity
  8
A_BEMASSUNGEN
100
AcDbLine
 62
2
  6
CONTINUOUS
 10
8.9987402982
 20
38.4481140418
 11
8.9987402982
 21
28.4481140418
  0
INSERT
  5
23C
100
AcDbEntity
  8
A_BEMASSUNGEN
100
AcDbBlockReference
 62
2
  6
CONTINUOUS
  2
_ARROW_FILLED
 10
8.9987402982
 20
25.9481140418
 41
3.5
 42
3.5
 43
3.5
 50
90.0
  0
INSERT
  5
23D
100
AcDbEntity
  8
A_BEMASSUNGEN
100
AcDbBlockReference
 62
2
  6
CONTINUOUS
  2
_ARROW_FILLED
 10
8.9987402982
 20
30.9481140418
 41
3.5
 42
3.5
 43
3.5
 50
270.0
  0
ENDBLK
  5
23E
100
AcDbEntity
  8
0
  6
BYBLOCK
 62
0
100
AcDbBlockEnd
  0
BLOCK
  5
23F
100
AcDbEntity
  8
A_BEMASSUNGEN
100
AcDbBlockBegin
 62
2
  6
CONTINUOUS
  2
*D3
 70
65
 10
0.0
 20
0.0
  3
*D3
  1

  0
MTEXT
  5
240
100
AcDbEntity
  8
A_BEMASSUNGEN
100
AcDbMText
 62
5
  6
CONTINUOUS
  7
TEXTSTYLE_2
 71
2
 72
1
 10
4.6237402982
 20
44.0481140418
 30
0.0
 11
0.0
 21
1.0
 31
0.0
  1
26\P[1.024]
 40
3.5
 41
22.875
  0
LINE
  5
241
100
AcDbEntity
  8
A_BEMASSUNGEN
100
AcDbLine
 62
2
  6
CONTINUOUS
 10
57.5806558478
 20
30.9481140418
 11
8.1237402982
 21
30.9481140418
  0
LINE
  5
242
100
AcDbEntity
  8
A_BEMASSUNGEN
100
AcDbLine
 62
2
  6
CONTINUOUS
 10
8.1237402982
 20
30.9481140418
 11
6.9987402982
 21
30.9481140418
  0
LINE
  5
243
100
AcDbEntity
  8
A_BEMASSUNGEN
100
AcDbLine
 62
2
  6
CONTINUOUS
 10
57.5806558478
 20
57.1481140418
 11
8.1237402982
 21
57.1481140418
  0
LINE
  5
244
100
AcDbEntity
  8
A_BEMASSUNGEN
100
AcDbLine
 62
2
  6
CONTINUOUS
 10
8.1237402982
 20
57.1481140418
 11
6.9987402982
 21
57.1481140418
  0
LINE
  5
245
100
AcDbEntity
  8
A_BEMASSUNGEN
100
AcDbLine
 62
2
  6
CONTINUOUS
 10
8.9987402982
 20
30.9481140418
 11
8.9987402982
 21
44.0481140418
  0
LINE
  5
246
100
AcDbEntity
  8
A_BEMASSUNGEN
100
AcDbLine
 62
2
  6
CONTINUOUS
 10
8.9987402982
 20
57.1481140418
 11
8.9987402982
 21
44.0481140418
  0
INSERT
  5
247
100
AcDbEntity
  8
A_BEMASSUNGEN
100
AcDbBlockReference
 62
2
  6
CONTINUOUS
  2
_ARROW_FILLED
 10
8.9987402982
 20
30.9481140418
 41
3.5
 42
3.5
 43
3.5
 50
270.0
  0
INSERT
  5
248
100
AcDbEntity
  8
A_BEMASSUNGEN
100
AcDbBlockReference
 62
2
  6
CONTINUOUS
  2
_ARROW_FILLED
 10
8.9987402982
 20
57.1481140418
 41
3.5
 42
3.5
 43
3.5
 50
90.0
  0
ENDBLK
  5
249
100
AcDbEntity
  8
0
  6
BYBLOCK
 62
0
100
AcDbBlockEnd
  0
BLOCK
  5
24A
100
AcDbEntity
  8
A_BEMASSUNGEN
100
AcDbBlockBegin
 62
2
  6
CONTINUOUS
  2
*D4
 70
65
 10
0.0
 20
0.0
  3
*D4
  1

  0
MTEXT
  5
24B
100
AcDbEntity
  8
A_BEMASSUNGEN
100
AcDbMText
 62
5
  6
CONTINUOUS
  7
TEXTSTYLE_2
 71
3
 72
1
 10
131.4993162376
 20
16.1504667907
 30
0.0
 11
0.0
 21
1.0
 31
0.0
  1
4\P[.157]
 40
3.5
 41
18.375
  0
LINE
  5
24C
100
AcDbEntity
  8
A_BEMASSUNGEN
100
AcDbLine
 62
2
  6
CONTINUOUS
 10
112.5806562847
 20
26.9480760385
 11
137.8743162376
 21
26.9480760385
  0
LINE
  5
24D
100
AcDbEntity
  8
A_BEMASSUNGEN
100
AcDbLine
 62
2
  6
CONTINUOUS
 10
100.0806562847
 20
30.9480760385
 11
121.4407788292
 21
30.9480760385
  0
LINE
  5
24E
100
AcDbEntity
  8
A_BEMASSUNGEN
100
AcDbLine
 62
2
  6
CONTINUOUS
 10
123.6561137348
 20
30.9480760385
 11
137.8743162376
 21
30.9480760385
  0
LINE
  5
24F
100
AcDbEntity
  8
A_BEMASSUNGEN
100
AcDbLine
 62
2
  6
CONTINUOUS
 10
135.8743162376
 20
26.9480760385
 11
135.8743162376
 21
13.4004667907
  0
LINE
  5
250
100
AcDbEntity
  8
A_BEMASSUNGEN
100
AcDbLine
 62
2
  6
CONTINUOUS
 10
135.8743162376
 20
13.4004667907
 11
135.8743162376
 21
28.9480760385
  0
LINE
  5
251
100
AcDbEntity
  8
A_BEMASSUNGEN
100
AcDbLine
 62
2
  6
CONTINUOUS
 10
135.8743162376
 20
30.9480760385
 11
135.8743162376
 21
38.4480760385
  0
LINE
  5
252
100
AcDbEntity
  8
A_BEMASSUNGEN
100
AcDbLine
 62
2
  6
CONTINUOUS
 10
135.8743162376
 20
38.4480760385
 11
135.8743162376
 21
28.9480760385
  0
INSERT
  5
253
100
AcDbEntity
  8
A_BEMASSUNGEN
100
AcDbBlockReference
 62
2
  6
CONTINUOUS
  2
_ARROW_FILLED
 10
135.8743162376
 20
26.9480760385
 41
3.5
 42
3.5
 43
3.5
 50
90.0
  0
INSERT
  5
254
100
AcDbEntity
  8
A_BEMASSUNGEN
100
AcDbBlockReference
 62
2
  6
CONTINUOUS
  2
_ARROW_FILLED
 10
135.8743162376
 20
30.9480760385
 41
3.5
 42
3.5
 43
3.5
 50
270.0
  0
ENDBLK
  5
255
100
AcDbEntity
  8
0
  6
BYBLOCK
 62
0
100
AcDbBlockEnd
  0
BLOCK
  5
256
100
AcDbEntity
  8
A_BEMASSUNGEN
100
AcDbBlockBegin
 62
2
  6
CONTINUOUS
  2
*D5
 70
65
 10
0.0
 20
0.0
  3
*D5
  1

  0
MTEXT
  5
257
100
AcDbEntity
  8
A_BEMASSUNGEN
100
AcDbMText
 62
5
  6
CONTINUOUS
  7
TEXTSTYLE_2
 71
2
 72
1
 10
131.4993162376
 20
39.0730760385
 30
0.0
 11
0.0
 21
1.0
 31
0.0
  1
26\P[1.024]
 40
3.5
 41
22.875
  0
LINE
  5
258
100
AcDbEntity
  8
A_BEMASSUNGEN
100
AcDbLine
 62
2
  6
CONTINUOUS
 10
124.3839321233
 20
30.9480760385
 11
137.8743162376
 21
30.9480760385
  0
LINE
  5
259
100
AcDbEntity
  8
A_BEMASSUNGEN
100
AcDbLine
 62
2
  6
CONTINUOUS
 10
100.0806562847
 20
56.9480760385
 11
137.8743162376
 21
56.9480760385
  0
LINE
  5
25A
100
AcDbEntity
  8
A_BEMASSUNGEN
100
AcDbLine
 62
2
  6
CONTINUOUS
 10
135.8743162376
 20
30.9480760385
 11
135.8743162376
 21
43.9480760385
  0
LINE
  5
25B
100
AcDbEntity
  8
A_BEMASSUNGEN
100
AcDbLine
 62
2
  6
CONTINUOUS
 10
135.8743162376
 20
56.9480760385
 11
135.8743162376
 21
43.9480760385
  0
INSERT
  5
25C
100
AcDbEntity
  8
A_BEMASSUNGEN
100
AcDbBlockReference
 62
2
  6
CONTINUOUS
  2
_ARROW_FILLED
 10
135.8743162376
 20
30.9480760385
 41
3.5
 42
3.5
 43
3.5
 50
270.0
  0
INSERT
  5
25D
100
AcDbEntity
  8
A_BEMASSUNGEN
100
AcDbBlockReference
 62
2
  6
CONTINUOUS
  2
_ARROW_FILLED
 10
135.8743162376
 20
56.9480760385
 41
3.5
 42
3.5
 43
3.5
 50
90.0
  0
ENDBLK
  5
25E
100
AcDbEntity
  8
0
  6
BYBLOCK
 62
0
100
AcDbBlockEnd
  0
BLOCK
  5
25F
100
AcDbEntity
  8
A_BEMASSUNGEN
100
AcDbBlockBegin
 62
2
  6
CONTINUOUS
  2
*D6
 70
65
 10
0.0
 20
0.0
  3
*D6
  1

  0
MTEXT
  5
260
100
AcDbEntity
  8
A_BEMASSUNGEN
100
AcDbMText
 62
5
  6
CONTINUOUS
  7
TEXTSTYLE_2
 71
1
 72
1
 10
66.7684506076
 20
24.0995016821
 30
0.0
 11
1.0
 21
0.0
 31
0.0
  1
3,5\P[.138]
 40
3.5
 41
18.375
  0
LINE
  5
261
100
AcDbEntity
  8
A_BEMASSUNGEN
100
AcDbLine
 62
2
  6
CONTINUOUS
 10
59.0806558478
 20
28.4481140418
 11
59.0806558478
 21
17.7245016821
  0
LINE
  5
262
100
AcDbEntity
  8
A_BEMASSUNGEN
100
AcDbLine
 62
2
  6
CONTINUOUS
 10
62.5806562847
 20
26.9480760385
 11
62.5806562847
 21
17.7245016821
  0
LINE
  5
263
100
AcDbEntity
  8
A_BEMASSUNGEN
100
AcDbLine
 62
2
  6
CONTINUOUS
 10
59.0806558478
 20
19.7245016821
 11
51.5806558478
 21
19.7245016821
  0
LINE
  5
264
100
AcDbEntity
  8
A_BEMASSUNGEN
100
AcDbLine
 62
2
  6
CONTINUOUS
 10
51.5806558478
 20
19.7245016821
 11
60.8306560663
 21
19.7245016821
  0
LINE
  5
265
100
AcDbEntity
  8
A_BEMASSUNGEN
100
AcDbLine
 62
2
  6
CONTINUOUS
 10
62.5806562847
 20
19.7245016821
 11
79.0184506076
 21
19.7245016821
  0
LINE
  5
266
100
AcDbEntity
  8
A_BEMASSUNGEN
100
AcDbLine
 62
2
  6
CONTINUOUS
 10
79.0184506076
 20
19.7245016821
 11
60.8306560663
 21
19.7245016821
  0
INSERT
  5
267
100
AcDbEntity
  8
A_BEMASSUNGEN
100
AcDbBlockReference
 62
2
  6
CONTINUOUS
  2
_ARROW_FILLED
 10
59.0806558478
 20
19.7245016821
 41
3.5
 42
3.5
 43
3.5
  0
INSERT
  5
268
100
AcDbEntity
  8
A_BEMASSUNGEN
100
AcDbBlockReference
 62
2
  6
CONTINUOUS
  2
_ARROW_FILLED
 10
62.5806562847
 20
19.7245016821
 41
3.5
 42
3.5
 43
3.5
 50
180.0
  0
ENDBLK
  5
269
100
AcDbEntity
  8
0
  6
BYBLOCK
 62
0
100
AcDbBlockEnd
  0
BLOCK
  5
26A
100
AcDbEntity
  8
A_BEMASSUNGEN
100
AcDbBlockBegin
 62
2
  6
CONTINUOUS
  2
*D7
 70
65
 10
0.0
 20
0.0
  3
*D7
  1

  0
MTEXT
  5
26B
100
AcDbEntity
  8
A_BEMASSUNGEN
100
AcDbMText
 62
5
  6
CONTINUOUS
  7
TEXTSTYLE_2
 71
3
 72
1
 10
118.2443767525
 20
12.8025758973
 30
0.0
 11
0.0
 21
1.0
 31
0.0
  1
1\P[.039]
 40
3.5
 41
19.5
  0
LINE
  5
26C
100
AcDbEntity
  8
A_BEMASSUNGEN
100
AcDbLine
 62
2
  6
CONTINUOUS
 10
112.5806562847
 20
26.9480760385
 11
124.6193767525
 21
26.9480760385
  0
LINE
  5
26D
100
AcDbEntity
  8
A_BEMASSUNGEN
100
AcDbLine
 62
2
  6
CONTINUOUS
 10
56.5806558478
 20
25.9481140418
 11
124.6193767525
 21
25.9481140418
  0
LINE
  5
26E
100
AcDbEntity
  8
A_BEMASSUNGEN
100
AcDbLine
 62
2
  6
CONTINUOUS
 10
122.6193767525
 20
26.9480760385
 11
122.6193767525
 21
34.4480760385
  0
LINE
  5
26F
100
AcDbEntity
  8
A_BEMASSUNGEN
100
AcDbLine
 62
2
  6
CONTINUOUS
 10
122.6193767525
 20
34.4480760385
 11
122.6193767525
 21
26.4480950402
  0
LINE
  5
270
100
AcDbEntity
  8
A_BEMASSUNGEN
100
AcDbLine
 62
2
  6
CONTINUOUS
 10
122.6193767525
 20
25.9481140418
 11
122.6193767525
 21
10.8025758973
  0
LINE
  5
271
100
AcDbEntity
  8
A_BEMASSUNGEN
100
AcDbLine
 62
2
  6
CONTINUOUS
 10
122.6193767525
 20
10.8025758973
 11
122.6193767525
 21
26.4480950402
  0
INSERT
  5
272
100
AcDbEntity
  8
A_BEMASSUNGEN
100
AcDbBlockReference
 62
2
  6
CONTINUOUS
  2
_ARROW_FILLED
 10
122.6193767525
 20
26.9480760385
 41
3.5
 42
3.5
 43
3.5
 50
270.0
  0
INSERT
  5
273
100
AcDbEntity
  8
A_BEMASSUNGEN
100
AcDbBlockReference
 62
2
  6
CONTINUOUS
  2
_ARROW_FILLED
 10
122.6193767525
 20
25.9481140418
 41
3.5
 42
3.5
 43
3.5
 50
90.0
  0
ENDBLK
  5
274
100
AcDbEntity
  8
0
  6
BYBLOCK
 62
0
100
AcDbBlockEnd
  0
ENDSEC
  0
SECTION
  2
ENTITIES
  0
DIMENSION
  5
275
100
AcDbEntity
  8
A_BEMASSUNGEN
100
AcDbDimension
 62
2
  6
CONTINUOUS
  2
*D0
 10
59.0806558478
 20
6.9671177345
 11
42.0806558478
 21
6.9671177345
 70
160
  1
<>\P[]
  3
DIMSTYLE_1
100
AcDbAlignedDimension
 13
25.0806558478
 23
33.6981140418
 14
59.0806558478
 24
28.4481140418
100
AcDbRotatedDimension
  0
DIMENSION
  5
276
100
AcDbEntity
  8
A_BEMASSUNGEN
100
AcDbDimension
 62
2
  6
CONTINUOUS
  2
*D1
 10
100.0806562847
 20
6.9671177345
 11
85.6871767593
 21
6.9671177345
 70
160
  1
<>\P[]
  3
DIMSTYLE_2
100
AcDbAlignedDimension
 13
62.5806562847
 23
26.9480760385
 14
100.0806562847
 24
30.9480760385
100
AcDbRotatedDimension
  0
DIMENSION
  5
277
100
AcDbEntity
  8
A_BEMASSUNGEN
100
AcDbDimension
 62
2
  6
CONTINUOUS
  2
*D2
 10
8.9987402982
 20
30.9481140418
 11
8.9987402982
 21
15.7346921506
 70
160
  1
<>\P[]
  3
DIMSTYLE_3
100
AcDbAlignedDimension
 13
22.0806558478
 23
25.9481140418
 14
57.5806558478
 24
30.9481140418
 50
90.0
100
AcDbRotatedDimension
  0
DIMENSION
  5
278
100
AcDbEntity
  8
A_BEMASSUNGEN
100
AcDbDimension
 62
2
  6
CONTINUOUS
  2
*D3
 10
8.9987402982
 20
57.1481140418
 11
8.9987402982
 21
44.0481140418
 70
160
  1
26\P[1.024]\P[]
  3
DIMSTYLE_4
100
AcDbAlignedDimension
 13
57.5806558478
 23
30.9481140418
 14
57.5806558478
 24
57.1481140418
 50
90.0
100
AcDbRotatedDimension
  0
DIMENSION
  5
279
100
AcDbEntity
  8
A_BEMASSUNGEN
100
AcDbDimension
 62
2
  6
CONTINUOUS
  2
*D4
 10
135.8743162376
 20
30.9480760385
 11
135.8743162376
 21
19.5254667907
 70
160
  1
<>\P[]
  3
DIMSTYLE_3
100
AcDbAlignedDimension
 13
112.5806562847
 23
26.9480760385
 14
100.0806562847
 24
30.9480760385
 50
90.0
100
AcDbRotatedDimension
  0
DIMENSION
  5
27A
100
AcDbEntity
  8
A_BEMASSUNGEN
100
AcDbDimension
 62
2
  6
CONTINUOUS
  2
*D5
 10
135.8743162376
 20
56.9480760385
 11
135.8743162376
 21
43.9480760385
 70
160
  1
<>\P[]
  3
DIMSTYLE_5
100
AcDbAlignedDimension
 13
124.3839321233
 23
30.9480760385
 14
100.0806562847
 24
56.9480760385
 50
90.0
100
AcDbRotatedDimension
  0
DIMENSION
  5
27B
100
AcDbEntity
  8
A_BEMASSUNGEN
100
AcDbDimension
 62
2
  6
CONTINUOUS
  2
*D6
 10
62.5806562847
 20
19.7245016821
 11
72.8934506076
 21
19.7245016821
 70
160
  1
<>\P[]
  3
DIMSTYLE_3
100
AcDbAlignedDimension
 13
59.0806558478
 23
28.4481140418
 14
62.5806562847
 24
26.9480760385
100
AcDbRotatedDimension
  0
DIMENSION
  5
27C
100
AcDbEntity
  8
A_BEMASSUNGEN
100
AcDbDimension
 62
2
  6
CONTINUOUS
  2
*D7
 10
122.6193767525
 20
25.9481140418
 11
122.6193767525
 21
17.3025758973
 70
160
  1
<>\P[]
  3
DIMSTYLE_6
100
AcDbAlignedDimension
 13
112.5806562847
 23
26.9480760385
 14
56.5806558478
 24
25.9481140418
 50
270.0
100
AcDbRotatedDimension
  0
LINE
  5
27D
100
AcDbEntity
  8
0
100
AcDbLine
 62
7
  6
CONTINUOUS
 10
27.0806558478
 20
30.255220823
 11
28.387762629
 21
28.9481140418
  0
LINE
  5
27E
100
AcDbEntity
  8
0
100
AcDbLine
 62
7
  6
CONTINUOUS
 10
19.0806558478
 20
35.9481140418
 11
19.0806558478
 21
28.4481140418
  0
LINE
  5
27F
100
AcDbEntity
  8
0
100
AcDbLine
 62
7
  6
CONTINUOUS
 10
20.5306558478
 20
28.9981140418
 11
20.5306558478
 21
35.9481140418
  0
LINE
  5
280
100
AcDbEntity
  8
0
100
AcDbLine
 62
7
  6
CONTINUOUS
 10
27.0806558478
 20
39.0112282561
 11
27.1309083795
 21
38.9405140418
  0
LINE
  5
281
100
AcDbEntity
  8
0
100
AcDbLine
 62
7
  6
CONTINUOUS
 10
25.0806558478
 20
57.5981140418
 11
25.0806558478
 21
33.2981140418
  0
LINE
  5
282
100
AcDbEntity
  8
0
100
AcDbLine
 62
7
  6
CONTINUOUS
 10
26.0806558478
 20
57.1981140418
 11
26.0806558478
 21
33.6981140418
  0
LINE
  5
283
100
AcDbEntity
  8
0
100
AcDbLine
 62
7
  6
CONTINUOUS
 10
26.0806558478
 20
29.2481140418
 11
26.0806558478
 21
32.2839004794
  0
LINE
  5
284
100
AcDbEntity
  8
0
100
AcDbLine
 62
7
  6
CONTINUOUS
 10
26.0806558478
 20
58.6123276042
 11
26.0806558478
 21
61.6481140418
  0
LINE
  5
285
100
AcDbEntity
  8
0
100
AcDbLine
 62
7
  6
CONTINUOUS
 10
27.0806558478
 20
29.2481140418
 11
27.0806558478
 21
33.2586632087
  0
LINE
  5
286
100
AcDbEntity
  8
A_ACHSEN
100
AcDbLine
 62
7
  6
CONTINUOUS
 10
27.0806558478
 20
33.2586632087
 11
27.0806558478
 21
38.9405140418
  0
LINE
  5
287
100
AcDbEntity
  8
0
100
AcDbLine
 62
7
  6
CONTINUOUS
 10
27.0806558478
 20
38.9405140418
 11
27.0806558478
 21
48.0993988505
  0
LINE
  5
288
100
AcDbEntity
  8
0
100
AcDbLine
 62
7
  6
CONTINUOUS
 10
27.0806558478
 20
48.1046320819
 11
27.0806558478
 21
61.6481140418
  0
LINE
  5
289
100
AcDbEntity
  8
0
100
AcDbLine
 62
7
  6
CONTINUOUS
 10
27.5806558478
 20
48.0979038122
 11
27.5806558478
 21
48.2844718105
  0
LINE
  5
28A
100
AcDbEntity
  8
A_ACHSEN
100
AcDbLine
 62
7
  6
CONTINUOUS
 10
28.5806558478
 20
38.9405140418
 11
28.5806558478
 21
32.7083274175
  0
LINE
  5
28B
100
AcDbEntity
  8
0
100
AcDbLine
 62
7
  6
CONTINUOUS
 10
22.0806558478
 20
25.9481140418
 11
56.5806558478
 21
25.9481140418
  0
LINE
  5
28C
100
AcDbEntity
  8
0
100
AcDbLine
 62
7
  6
CONTINUOUS
 10
62.5806562847
 20
26.9480760385
 11
112.5806562847
 21
26.9480760385
  0
LINE
  5
28D
100
AcDbEntity
  8
0
100
AcDbLine
 62
7
  6
CONTINUOUS
 10
56.5806558478
 20
27.4481140418
 11
22.0806558478
 21
27.4481140418
  0
LINE
  5
28E
100
AcDbEntity
  8
0
100
AcDbLine
 62
7
  6
CONTINUOUS
 10
30.5806558478
 20
27.9481140418
 11
27.3806558478
 21
27.9481140418
  0
LINE
  5
28F
100
AcDbEntity
  8
0
100
AcDbLine
 62
7
  6
CONTINUOUS
 10
47.3494169498
 20
27.9481140418
 11
54.2806558478
 21
27.9481140418
  0
LWPOLYLINE
  5
290
100
AcDbEntity
  8
0
100
AcDbPolyline
 62
7
  6
CONTINUOUS
 90
6
 70
0
 10
28.2969622717
 20
55.9405140418
 10
28.2508226359
 20
56.0739516813
 10
28.0901112664
 20
56.3484211151
 10
27.8858882591
 20
56.5907280684
 10
27.6489944223
 20
56.7999670033
 10
27.3858915698
 20
56.9782761584
  0
LINE
  5
291
100
AcDbEntity
  8
A_ACHSEN
100
AcDbLine
 62
7
  6
CONTINUOUS
 10
31.4387072821
 20
41.1322952868
 11
31.4800714274
 21
40.8125554269
  0
LINE
  5
292
100
AcDbEntity
  8
0
100
AcDbLine
 62
7
  6
CONTINUOUS
 10
30.0806558478
 20
31.9405140418
 11
30.0806558478
 21
55.9405140418
  0
LINE
  5
293
100
AcDbEntity
  8
0
100
AcDbLine
 62
7
  6
CONTINUOUS
 10
30.5806558478
 20
28.9481140418
 11
30.5806558478
 21
27.9481140418
  0
LINE
  5
294
100
AcDbEntity
  8
A_ACHSEN
100
AcDbLine
 62
7
  6
CONTINUOUS
 10
98.2926545061
 20
31.0491101712
 11
96.7927146301
 21
31.0356800421
  0
LINE
  5
295
100
AcDbEntity
  8
A_RUNDUNGEN
100
AcDbLine
 62
7
  6
CONTINUOUS
 10
96.7927146301
 20
31.0356800421
 11
95.2927747541
 21
31.0222499129
  0
LINE
  5
296
100
AcDbEntity
  8
0
100
AcDbLine
 62
7
  6
CONTINUOUS
 10
30.5806558478
 20
28.9481140418
 11
27.3806558478
 21
28.9481140418
  0
LINE
  5
297
100
AcDbEntity
  8
A_RUNDUNGEN
100
AcDbLine
 62
7
  6
CONTINUOUS
 10
28.287762629
 20
29.0481140418
 11
45.5745641296
 21
29.0481140418
  0
LINE
  5
298
100
AcDbEntity
  8
0
100
AcDbLine
 62
7
  6
CONTINUOUS
 10
100.0806562847
 20
30.9480760385
 11
62.5806562847
 21
30.9480760385
  0
LINE
  5
299
100
AcDbEntity
  8
0
100
AcDbLine
 62
7
  6
CONTINUOUS
 10
47.3494169498
 20
30.9481140418
 11
54.2806558478
 21
30.9481140418
  0
LINE
  5
29A
100
AcDbEntity
  8
0
100
AcDbLine
 62
7
  6
CONTINUOUS
 10
57.5806558478
 20
30.9481140418
 11
59.0806558478
 21
30.9481140418
  0
LINE
  5
29B
100
AcDbEntity
  8
A_RUNDUNGEN
100
AcDbLine
 62
7
  6
CONTINUOUS
 10
57.5806558478
 20
30.9905140418
 11
59.0806558478
 21
30.9905140418
  0
LINE
  5
29C
100
AcDbEntity
  8
A_RUNDUNGEN
100
AcDbLine
 62
7
  6
CONTINUOUS
 10
62.6103242847
 20
30.9980760385
 11
62.5806562847
 21
30.9980760385
  0
LINE
  5
29D
100
AcDbEntity
  8
A_RUNDUNGEN
100
AcDbLine
 62
7
  6
CONTINUOUS
 10
57.5806558478
 20
31.0405140418
 11
52.5806558478
 21
31.0405140418
  0
LINE
  5
29E
100
AcDbEntity
  8
A_RUNDUNGEN
100
AcDbLine
 62
7
  6
CONTINUOUS
 10
52.5806558478
 20
31.1481140418
 11
49.1074507671
 21
31.1481140418
  0
LINE
  5
29F
100
AcDbEntity
  8
A_RUNDUNGEN
100
AcDbLine
 62
7
  6
CONTINUOUS
 10
52.5806558478
 20
31.1905140418
 11
49.0806558478
 21
31.1905140418
  0
LINE
  5
2A0
100
AcDbEntity
  8
0
100
AcDbLine
 62
7
  6
CONTINUOUS
 10
59.0806558478
 20
31.9405140418
 11
54.8309633848
 21
31.9405140418
  0
LINE
  5
2A1
100
AcDbEntity
  8
0
100
AcDbLine
 62
7
  6
CONTINUOUS
 10
53.5540598151
 20
31.9405140418
 11
30.0806558478
 21
31.9405140418
  0
LINE
  5
2A2
100
AcDbEntity
  8
A_ACHSEN
100
AcDbLine
 62
7
  6
CONTINUOUS
 10
30.0806558478
 20
31.9405140418
 11
27.0806558478
 21
31.9405140418
  0
LINE
  5
2A3
100
AcDbEntity
  8
0
100
AcDbLine
 62
7
  6
CONTINUOUS
 10
67.1437535456
 20
31.9130750749
 11
66.61645282
 21
31.9786817552
  0
LINE
  5
2A4
100
AcDbEntity
  8
0
100
AcDbLine
 62
7
  6
CONTINUOUS
 10
36.8454422191
 20
35.686178601
 11
32.8760479358
 21
36.1800500658
  0
LINE
  5
2A5
100
AcDbEntity
  8
A_ACHSEN
100
AcDbLine
 62
7
  6
CONTINUOUS
 10
35.3542378718
 20
40.2620501276
 11
35.3542378718
 21
39.5368801276
  0
LINE
  5
2A6
100
AcDbEntity
  8
A_ACHSEN
100
AcDbLine
 62
7
  6
CENTER
 10
35.3542378718
 20
38.0865401276
 11
35.3542378718
 21
34.8594651276
  0
LINE
  5
2A7
100
AcDbEntity
  8
A_ACHSEN
100
AcDbLine
 62
7
  6
CENTER
 10
35.3542378718
 20
41.7123901276
 11
35.3542378718
 21
44.9394651276
  0
LINE
  5
2A8
100
AcDbEntity
  8
0
100
AcDbLine
 62
7
  6
CONTINUOUS
 10
31.1382865266
 20
38.4116829398
 11
31.3848435885
 21
40.3933365924
  0
LWPOLYLINE
  5
2A9
100
AcDbEntity
  8
A_RUNDUNGEN
100
AcDbPolyline
 62
7
  6
CONTINUOUS
 90
5
 70
0
 10
45.5745641296
 20
29.0481140418
 10
45.8835340592
 20
29.0970575255
 10
46.1622598594
 20
29.2390970474
 10
46.3834579068
 20
29.4603287895
 10
46.4917754614
 20
29.6729463428
  0
LINE
  5
2AA
100
AcDbEntity
  8
0
100
AcDbLine
 62
7
  6
CONTINUOUS
 10
54.5520970758
 20
31.9054756667
 11
55.0793182265
 21
31.9717187798
  0
LINE
  5
2AB
100
AcDbEntity
  8
0
100
AcDbLine
 62
7
  6
CONTINUOUS
 10
84.8458348973
 20
35.7151250077
 11
88.8146301594
 21
36.2137873864
  0
LINE
  5
2AC
100
AcDbEntity
  8
0
100
AcDbLine
 62
7
  6
CONTINUOUS
 10
26.5806558478
 20
33.1981140418
 11
27.0806558478
 21
33.1981140418
  0
LINE
  5
2AD
100
AcDbEntity
  8
A_RUNDUNGEN
100
AcDbLine
 62
7
  6
CONTINUOUS
 10
30.2806558478
 20
34.7905140418
 11
30.0806558478
 21
34.7905140418
  0
LINE
  5
2AE
100
AcDbEntity
  8
0
100
AcDbLine
 62
7
  6
CONTINUOUS
 10
54.9432408478
 20
35.9405140418
 11
54.2180708478
 21
35.9405140418
  0
LINE
  5
2AF
100
AcDbEntity
  8
DEFAULT_1
100
AcDbLine
 62
7
  6
CENTER
 10
52.7677308478
 20
35.9405140418
 11
51.5805558478
 21
35.9405140418
  0
LINE
  5
2B0
100
AcDbEntity
  8
A_ACHSEN
100
AcDbLine
 62
7
  6
CENTER
 10
49.465900797
 20
35.9405140418
 11
59.6954108986
 21
35.9405140418
  0
LINE
  5
2B1
100
AcDbEntity
  8
DEFAULT_1
100
AcDbLine
 62
7
  6
CENTER
 10
56.3935808478
 20
35.9405140418
 11
57.5807558478
 21
35.9405140418
  0
LINE
  5
2B2
100
AcDbEntity
  8
A_ACHSEN
100
AcDbLine
 62
7
  6
CENTER
 10
62.2286656541
 20
35.9480760385
 11
71.9919829153
 21
35.9480760385
  0
LINE
  5
2B3
100
AcDbEntity
  8
0
100
AcDbLine
 62
7
  6
CONTINUOUS
 10
20.5306558478
 20
35.9481140418
 11
19.0806558478
 21
35.9481140418
  0
LINE
  5
2B4
100
AcDbEntity
  8
A_ACHSEN
100
AcDbLine
 62
7
  6
CONTINUOUS
 10
39.2697684614
 20
38.6666349685
 11
39.250358531
 21
38.8166713922
  0
LINE
  5
2B5
100
AcDbEntity
  8
A_ACHSEN
100
AcDbLine
 62
7
  6
CONTINUOUS
 10
38.8654103687
 20
41.7922743068
 11
38.8271370342
 21
42.0881225718
  0
LINE
  5
2B6
100
AcDbEntity
  8
0
100
AcDbLine
 62
7
  6
CONTINUOUS
 10
28.387762629
 20
61.9481140418
 11
27.0806558478
 21
60.6410072606
  0
LINE
  5
2B7
100
AcDbEntity
  8
A_ACHSEN
100
AcDbLine
 62
7
  6
CONTINUOUS
 10
34.1214077126
 20
35.9839345379
 11
34.2836220308
 21
36.0049198997
  0
LINE
  5
2B8
100
AcDbEntity
  8
0
100
AcDbLine
 62
7
  6
CONTINUOUS
 10
98.2299805701
 20
38.0488295926
 11
95.2301008181
 21
38.0219693343
  0
LINE
  5
2B9
100
AcDbEntity
  8
0
100
AcDbLine
 62
7
  6
CONTINUOUS
 10
30.0806558478
 20
38.9405140418
 11
27.0806558478
 21
38.9405140418
  0
LINE
  5
2BA
100
AcDbEntity
  8
A_ACHSEN
100
AcDbLine
 62
7
  6
CONTINUOUS
 10
98.2219289168
 20
38.9480760385
 11
99.1306562847
 21
38.9480760385
  0
LINE
  5
2BB
100
AcDbEntity
  8
A_ACHSEN
100
AcDbLine
 62
7
  6
CONTINUOUS
 10
35.7168228718
 20
39.8994651276
 11
34.9916528718
 21
39.8994651276
  0
LINE
  5
2BC
100
AcDbEntity
  8
A_ACHSEN
100
AcDbLine
 62
7
  6
CENTER
 10
33.5413128718
 20
39.8994651276
 11
30.3142378718
 21
39.8994651276
  0
LINE
  5
2BD
100
AcDbEntity
  8
A_ACHSEN
100
AcDbLine
 62
7
  6
CENTER
 10
37.1671628718
 20
39.8994651276
 11
40.3942378718
 21
39.8994651276
  0
LINE
  5
2BE
100
AcDbEntity
  8
A_ACHSEN
100
AcDbLine
 62
7
  6
CONTINUOUS
 10
86.6945345863
 20
39.9302315673
 11
85.9693645863
 21
39.9302315673
  0
LINE
  5
2BF
100
AcDbEntity
  8
A_ACHSEN
100
AcDbLine
 62
7
  6
CENTER
 10
84.5190245863
 20
39.9302315673
 11
81.2919495863
 21
39.9302315673
  0
LINE
  5
2C0
100
AcDbEntity
  8
A_ACHSEN
100
AcDbLine
 62
7
  6
CENTER
 10
88.1448745863
 20
39.9302315673
 11
91.3719495863
 21
39.9302315673
  0
LINE
  5
2C1
100
AcDbEntity
  8
A_ACHSEN
100
AcDbLine
 62
7
  6
CONTINUOUS
 10
90.6103242847
 20
39.9480760385
 11
94.3806562847
 21
39.9480760385
  0
LINE
  5
2C2
100
AcDbEntity
  8
A_ACHSEN
100
AcDbLine
 62
7
  6
CONTINUOUS
 10
87.4405437218
 20
36.0411392233
 11
87.5901283937
 21
36.0227725351
  0
LINE
  5
2C3
100
AcDbEntity
  8
0
100
AcDbLine
 62
7
  6
CONTINUOUS
 10
74.8602509041
 20
38.3414373221
 11
82.6271943095
 21
37.3877765865
  0
LINE
  5
2C4
100
AcDbEntity
  8
0
100
AcDbLine
 62
7
  6
CONTINUOUS
 10
89.6582492062
 20
36.5244715983
 11
90.6103242847
 21
36.4075714778
  0
LINE
  5
2C5
100
AcDbEntity
  8
0
100
AcDbLine
 62
7
  6
CONTINUOUS
 10
46.0806558478
 20
59.6481140418
 11
46.0806558478
 21
55.9405140418
  0
LINE
  5
2C6
100
AcDbEntity
  8
0
100
AcDbLine
 62
7
  6
CONTINUOUS
 10
46.0806558478
 20
31.2481140418
 11
46.0806558478
 21
31.9405140418
  0
LINE
  5
2C7
100
AcDbEntity
  8
0
100
AcDbLine
 62
7
  6
CONTINUOUS
 10
39.3236321551
 20
39.4055936629
 11
39.0770750932
 21
37.4239400103
  0
LINE
  5
2C8
100
AcDbEntity
  8
0
100
AcDbLine
 62
7
  6
CONTINUOUS
 10
31.1388051909
 20
36.303914183
 11
32.140637434
 21
36.4335193393
  0
LINE
  5
2C9
100
AcDbEntity
  8
0
100
AcDbLine
 62
7
  6
CONTINUOUS
 10
39.0539773761
 20
37.3278851476
 11
46.8291891048
 21
38.3337496907
  0
LINE
  5
2CA
100
AcDbEntity
  8
0
100
AcDbLine
 62
2
  6
CONTINUOUS
 10
90.6103242847
 20
40.6980760385
 11
94.8806562847
 21
40.6980760385
  0
LINE
  5
2CB
100
AcDbEntity
  8
A_ACHSEN
100
AcDbLine
 62
7
  6
CONTINUOUS
 10
94.8806562847
 20
41.2980760385
 11
95.2007672849
 21
41.2980760385
  0
LINE
  5
2CC
100
AcDbEntity
  8
A_ACHSEN
100
AcDbLine
 62
7
  6
CONTINUOUS
 10
99.1306562847
 20
41.2980760385
 11
100.0806562847
 21
41.2980760385
  0
LINE
  5
2CD
100
AcDbEntity
  8
A_ACHSEN
100
AcDbLine
 62
7
  6
CENTER
 10
98.1306562847
 20
43.9480760385
 11
89.4377489912
 21
43.9480760385
  0
LWPOLYLINE
  5
2CE
100
AcDbEntity
  8
0
100
AcDbPolyline
 62
7
  6
CONTINUOUS
 90
5
 70
0
 10
27.3858915698
 20
56.9782761584
 10
27.2737300075
 20
57.0297570555
 10
27.1706406619
 20
57.048107674
 10
27.1023264417
 20
57.0281818922
 10
27.0806558478
 20
56.9751251782
  0
LINE
  5
2CF
100
AcDbEntity
  8
0
100
AcDbLine
 62
7
  6
CONTINUOUS
 10
49.1759817761
 20
58.6361311497
 11
49.1767647897
 21
58.559293177
  0
LINE
  5
2D0
100
AcDbEntity
  8
0
100
AcDbLine
 62
7
  6
CONTINUOUS
 10
49.1767647897
 20
58.559293177
 11
49.1770416146
 21
58.5052966952
  0
LINE
  5
2D1
100
AcDbEntity
  8
0
100
AcDbLine
 62
7
  6
CONTINUOUS
 10
46.5806558478
 20
61.9481140418
 11
46.5806558478
 21
62.9481140418
  0
LINE
  5
2D2
100
AcDbEntity
  8
0
100
AcDbLine
 62
7
  6
CONTINUOUS
 10
47.3494169498
 20
30.9481140418
 11
47.3494169498
 21
27.9481140418
  0
LINE
  5
2D3
100
AcDbEntity
  8
0
100
AcDbLine
 62
7
  6
CONTINUOUS
 10
47.3494169498
 20
59.9481140418
 11
47.3494169498
 21
62.9481140418
  0
LINE
  5
2D4
100
AcDbEntity
  8
0
100
AcDbLine
 62
7
  6
CONTINUOUS
 10
49.0806558478
 20
59.6481140418
 11
49.0806558478
 21
56.6905140418
  0
LINE
  5
2D5
100
AcDbEntity
  8
A_RUNDUNGEN
100
AcDbLine
 62
7
  6
CONTINUOUS
 10
49.0806558478
 20
31.1905140418
 11
49.0806558478
 21
31.9405140418
  0
LINE
  5
2D6
100
AcDbEntity
  8
A_RUNDUNGEN
100
AcDbLine
 62
7
  6
CONTINUOUS
 10
49.0806558478
 20
55.9405140418
 11
49.0806558478
 21
56.6905140418
  0
LINE
  5
2D7
100
AcDbEntity
  8
0
100
AcDbLine
 62
7
  6
CONTINUOUS
 10
31.8870785066
 20
41.8941595746
 11
37.6452792792
 21
51.9030106873
  0
LINE
  5
2D8
100
AcDbEntity
  8
0
100
AcDbLine
 62
7
  6
CONTINUOUS
 10
46.0593953182
 20
44.2841629139
 11
38.2274234176
 21
43.2709554138
  0
LINE
  5
2D9
100
AcDbEntity
  8
0
100
AcDbLine
 62
7
  6
CONTINUOUS
 10
31.7176734876
 20
42.4288012877
 11
30.0806558478
 21
42.2170233892
  0
LINE
  5
2DA
100
AcDbEntity
  8
A_ACHSEN
100
AcDbLine
 62
7
  6
CONTINUOUS
 10
94.8806562847
 20
46.5980760385
 11
95.1533122598
 21
46.5980760385
  0
LINE
  5
2DB
100
AcDbEntity
  8
A_ACHSEN
100
AcDbLine
 62
7
  6
CONTINUOUS
 10
99.1306562847
 20
46.5980760385
 11
100.0806562847
 21
46.5980760385
  0
LINE
  5
2DC
100
AcDbEntity
  8
0
100
AcDbLine
 62
2
  6
CONTINUOUS
 10
90.6103242847
 20
47.1980760385
 11
94.8806562847
 21
47.1980760385
  0
LINE
  5
2DD
100
AcDbEntity
  8
A_ACHSEN
100
AcDbLine
 62
7
  6
CONTINUOUS
 10
90.6103242847
 20
47.9480760385
 11
94.3806562847
 21
47.9480760385
  0
LINE
  5
2DE
100
AcDbEntity
  8
0
100
AcDbLine
 62
7
  6
CONTINUOUS
 10
27.5806558478
 20
48.0979038122
 11
27.0806558478
 21
48.0979038122
  0
LINE
  5
2DF
100
AcDbEntity
  8
0
100
AcDbLine
 62
7
  6
CONTINUOUS
 10
27.5806558478
 20
48.2844718105
 11
27.0806558478
 21
48.2844718105
  0
LINE
  5
2E0
100
AcDbEntity
  8
0
100
AcDbLine
 62
7
  6
CONTINUOUS
 10
90.6103242847
 20
42.4526304306
 11
89.9190981292
 21
42.5375023306
  0
LINE
  5
2E1
100
AcDbEntity
  8
0
100
AcDbLine
 62
7
  6
CONTINUOUS
 10
83.482110571
 20
43.3278650214
 11
75.5914669645
 21
44.2967142319
  0
LINE
  5
2E2
100
AcDbEntity
  8
0
100
AcDbLine
 62
7
  6
CONTINUOUS
 10
67.3547040417
 20
39.9406038762
 11
71.1020851647
 21
36.2046789948
  0
LWPOLYLINE
  5
2E3
100
AcDbEntity
  8
A_RUNDUNGEN
100
AcDbPolyline
 62
7
  6
CONTINUOUS
 90
3
 70
0
 10
46.4917754614
 20
61.2232817409
 10
46.3834579068
 20
61.4358992941
 10
46.1622598594
 20
61.6571310362
  0
LINE
  5
2E4
100
AcDbEntity
  8
0
100
AcDbLine
 62
7
  6
CONTINUOUS
 10
58.1452698585
 20
37.7553217326
 11
56.0622750591
 21
41.8467042432
  0
LINE
  5
2E5
100
AcDbEntity
  8
0
100
AcDbLine
 62
7
  6
CONTINUOUS
 10
50.5804935118
 20
35.4398939083
 11
50.6430716402
 21
34.9418419397
  0
LWPOLYLINE
  5
2E6
100
AcDbEntity
  8
0
100
AcDbPolyline
 62
7
  6
CONTINUOUS
 90
4
 70
0
 10
49.171901884
 20
58.7481140418
 10
49.1734387909
 20
58.73489785
 10
49.174839614
 20
58.6964397534
 10
49.1759817761
 20
58.6361311497
  0
LWPOLYLINE
  5
2E7
100
AcDbEntity
  8
0
100
AcDbPolyline
 62
7
  6
CONTINUOUS
 90
4
 70
0
 10
54.0781666075
 20
59.684487513
 10
54.0844913375
 20
59.4998361345
 10
54.0895106717
 20
59.2122348698
 10
54.0927332826
 20
58.8498361345
  0
LWPOLYLINE
  5
2E8
100
AcDbEntity
  8
0
100
AcDbPolyline
 62
7
  6
CONTINUOUS
 90
3
 70
0
 10
54.0753913783
 20
58.6244496175
 10
54.0761350577
 20
58.5408191401
 10
54.0763084991
 20
58.4780733191
  0
LINE
  5
2E9
100
AcDbEntity
  8
0
100
AcDbLine
 62
7
  6
CONTINUOUS
 10
54.0927332826
 20
58.8498361345
 11
54.0937609055
 21
58.4780733191
  0
LINE
  5
2EA
100
AcDbEntity
  8
0
100
AcDbLine
 62
7
  6
CONTINUOUS
 10
50.5934218232
 20
62.6481140418
 11
50.5934218232
 21
62.9481140418
  0
LINE
  5
2EB
100
AcDbEntity
  8
0
100
AcDbLine
 62
7
  6
CONTINUOUS
 10
50.6551239241
 20
62.9481140418
 11
50.6551239241
 21
62.6481140418
  0
LINE
  5
2EC
100
AcDbEntity
  8
0
100
AcDbLine
 62
7
  6
CONTINUOUS
 10
50.8785281527
 20
62.9481140418
 11
50.8785281527
 21
62.6481140418
  0
LINE
  5
2ED
100
AcDbEntity
  8
0
100
AcDbLine
 62
7
  6
CONTINUOUS
 10
50.9494499407
 20
62.6481140418
 11
50.9494499407
 21
62.9481140418
  0
LINE
  5
2EE
100
AcDbEntity
  8
0
100
AcDbLine
 62
7
  6
CONTINUOUS
 10
51.8444855761
 20
62.6481140418
 11
51.8444855761
 21
62.9481140418
  0
LINE
  5
2EF
100
AcDbEntity
  8
0
100
AcDbLine
 62
7
  6
CONTINUOUS
 10
51.9210814286
 20
62.9481140418
 11
51.9210814286
 21
62.6481140418
  0
LINE
  5
2F0
100
AcDbEntity
  8
0
100
AcDbLine
 62
7
  6
CONTINUOUS
 10
52.1444856573
 20
62.9481140418
 11
52.1444856573
 21
62.6481140418
  0
LINE
  5
2F1
100
AcDbEntity
  8
0
100
AcDbLine
 62
7
  6
CONTINUOUS
 10
52.2189537335
 20
62.6481140418
 11
52.2189537335
 21
62.9481140418
  0
LINE
  5
2F2
100
AcDbEntity
  8
A_RUNDUNGEN
100
AcDbLine
 62
7
  6
CONTINUOUS
 10
52.5806558478
 20
56.6905140418
 11
52.5806558478
 21
55.9405140418
  0
LINE
  5
2F3
100
AcDbEntity
  8
A_RUNDUNGEN
100
AcDbLine
 62
7
  6
CONTINUOUS
 10
52.5806558478
 20
31.0405140418
 11
52.5806558478
 21
31.9405140418
  0
LINE
  5
2F4
100
AcDbEntity
  8
A_RUNDUNGEN
100
AcDbLine
 62
7
  6
CONTINUOUS
 10
52.5806558478
 20
56.7643935743
 11
52.5806558478
 21
56.8405140418
  0
LINE
  5
2F5
100
AcDbEntity
  8
0
100
AcDbLine
 62
7
  6
CONTINUOUS
 10
53.7083154145
 20
62.6481140418
 11
53.7083154145
 21
62.9481140418
  0
LINE
  5
2F6
100
AcDbEntity
  8
0
100
AcDbLine
 62
7
  6
CONTINUOUS
 10
53.7827835168
 20
62.9481140418
 11
53.7827835168
 21
62.6481140418
  0
LINE
  5
2F7
100
AcDbEntity
  8
0
100
AcDbLine
 62
7
  6
CONTINUOUS
 10
54.0061877651
 20
62.9481140418
 11
54.0061877651
 21
62.6481140418
  0
LINE
  5
2F8
100
AcDbEntity
  8
0
100
AcDbLine
 62
7
  6
CONTINUOUS
 10
54.0827836242
 20
62.6481140418
 11
54.0827836242
 21
62.9481140418
  0
LINE
  5
2F9
100
AcDbEntity
  8
0
100
AcDbLine
 62
7
  6
CONTINUOUS
 10
50.5835453059
 20
44.8633488732
 11
50.5804935118
 21
35.4398939083
  0
LINE
  5
2FA
100
AcDbEntity
  8
0
100
AcDbLine
 62
7
  6
CONTINUOUS
 10
44.0350582642
 20
54.9883865244
 11
38.3462795422
 21
45.1002041753
  0
LINE
  5
2FB
100
AcDbEntity
  8
A_RUNDUNGEN
100
AcDbLine
 62
7
  6
CONTINUOUS
 10
54.1663168957
 20
50.9282775514
 11
42.8429565545
 21
50.9109425457
  0
LINE
  5
2FC
100
AcDbEntity
  8
A_ACHSEN
100
AcDbLine
 62
7
  6
CONTINUOUS
 10
98.1306562847
 20
48.9480760385
 11
99.1306562847
 21
48.9480760385
  0
LINE
  5
2FD
100
AcDbEntity
  8
DEFAULT_1
100
AcDbLine
 62
7
  6
CENTER
 10
56.0975316161
 20
51.9384891349
 11
65.5741426515
 21
51.9384891349
  0
LINE
  5
2FE
100
AcDbEntity
  8
0
100
AcDbLine
 62
7
  6
CONTINUOUS
 10
66.3127108962
 20
50.9367153921
 11
78.8299588399
 21
50.9326616704
  0
LINE
  5
2FF
100
AcDbEntity
  8
0
100
AcDbLine
 62
7
  6
CONTINUOUS
 10
64.8788799329
 20
46.4957529566
 11
64.0087216704
 21
47.3632510299
  0
LWPOLYLINE
  5
300
100
AcDbEntity
  8
0
100
AcDbPolyline
 62
7
  6
CONTINUOUS
 90
4
 70
0
 10
54.0711555903
 20
58.7481140418
 10
54.0727735173
 20
58.7334309967
 10
54.0742330704
 20
58.6908191401
 10
54.0753913783
 20
58.6244496175
  0
LINE
  5
301
100
AcDbEntity
  8
0
100
AcDbLine
 62
7
  6
CONTINUOUS
 10
54.0711555903
 20
59.7481140418
 11
54.0781666075
 21
59.684487513
  0
LINE
  5
302
100
AcDbEntity
  8
0
100
AcDbLine
 62
7
  6
CONTINUOUS
 10
54.2806558478
 20
27.9481140418
 11
54.2806558478
 21
30.9481140418
  0
LINE
  5
303
100
AcDbEntity
  8
0
100
AcDbLine
 62
7
  6
CONTINUOUS
 10
54.5806558478
 20
36.3030990418
 11
54.5806558478
 21
35.5779290418
  0
LINE
  5
304
100
AcDbEntity
  8
DEFAULT_1
100
AcDbLine
 62
7
  6
CENTER
 10
54.5806558478
 20
34.1275890418
 11
54.5806558478
 21
32.9404140418
  0
LINE
  5
305
100
AcDbEntity
  8
DEFAULT_1
100
AcDbLine
 62
7
  6
CENTER
 10
54.5806558478
 20
37.7534390418
 11
54.5806558478
 21
38.9406140418
  0
LINE
  5
306
100
AcDbEntity
  8
A_ACHSEN
100
AcDbLine
 62
7
  6
CENTER
 10
54.5806558478
 20
30.825758991
 11
54.5806558478
 21
41.0552690926
  0
LINE
  5
307
100
AcDbEntity
  8
0
100
AcDbLine
 62
7
  6
CONTINUOUS
 10
56.0806558478
 20
62.9481140418
 11
56.0806558478
 21
59.9481140418
  0
LINE
  5
308
100
AcDbEntity
  8
0
100
AcDbLine
 62
7
  6
CONTINUOUS
 10
57.5806558478
 20
28.4481140418
 11
57.5806558478
 21
30.9905140418
  0
LINE
  5
309
100
AcDbEntity
  8
A_RUNDUNGEN
100
AcDbLine
 62
7
  6
CONTINUOUS
 10
57.5806558478
 20
30.9905140418
 11
57.5806558478
 21
31.9405140418
  0
LINE
  5
30A
100
AcDbEntity
  8
A_RUNDUNGEN
100
AcDbLine
 62
7
  6
CONTINUOUS
 10
57.5806558478
 20
55.9405140418
 11
57.5806558478
 21
56.8905140418
  0
LINE
  5
30B
100
AcDbEntity
  8
0
100
AcDbLine
 62
7
  6
CONTINUOUS
 10
57.5806558478
 20
56.8905140418
 11
57.5806558478
 21
83.4481140418
  0
LINE
  5
30C
100
AcDbEntity
  8
0
100
AcDbLine
 62
7
  6
CONTINUOUS
 10
42.5049505022
 20
54.9012672347
 11
44.0350582642
 21
54.9883865244
  0
LINE
  5
30D
100
AcDbEntity
  8
A_RUNDUNGEN
100
AcDbLine
 62
7
  6
CONTINUOUS
 10
44.0350582642
 20
54.9883865244
 11
60.608458584
 21
55.9320212802
  0
LINE
  5
30E
100
AcDbEntity
  8
A_RUNDUNGEN
100
AcDbLine
 62
7
  6
CONTINUOUS
 10
30.0806558478
 20
53.0905140418
 11
30.2806558478
 21
53.0905140418
  0
LINE
  5
30F
100
AcDbEntity
  8
0
100
AcDbLine
 62
7
  6
CONTINUOUS
 10
86.5806562847
 20
53.8480760385
 11
94.5928542139
 21
53.8480760385
  0
LINE
  5
310
100
AcDbEntity
  8
0
100
AcDbLine
 62
7
  6
CONTINUOUS
 10
86.5806562847
 20
53.9480760385
 11
82.1023528788
 21
53.9480760385
  0
LINE
  5
311
100
AcDbEntity
  8
0
100
AcDbLine
 62
7
  6
CONTINUOUS
 10
27.0806558478
 20
55.9405140418
 11
59.0806558478
 21
55.9405140418
  0
LINE
  5
312
100
AcDbEntity
  8
A_RUNDUNGEN
100
AcDbLine
 62
7
  6
CONTINUOUS
 10
52.5806558478
 20
56.6905140418
 11
49.0806558478
 21
56.6905140418
  0
LINE
  5
313
100
AcDbEntity
  8
0
100
AcDbLine
 62
7
  6
CONTINUOUS
 10
79.1631481003
 20
54.9233673166
 11
61.0583938111
 21
55.9322695453
  0
LWPOLYLINE
  5
314
100
AcDbEntity
  8
A_RUNDUNGEN
100
AcDbPolyline
 62
7
  6
CONTINUOUS
 90
3
 70
0
 10
46.1622598594
 20
61.6571310362
 10
45.8835340592
 20
61.7991705581
 10
45.5745641296
 20
61.8481140418
  0
LINE
  5
315
100
AcDbEntity
  8
A_ACHSEN
100
AcDbLine
 62
7
  6
CONTINUOUS
 10
67.5066049341
 20
50.9363287485
 11
69.3328091877
 21
49.1157074437
  0
LINE
  5
316
100
AcDbEntity
  8
0
100
AcDbLine
 62
7
  6
CONTINUOUS
 10
59.0806558478
 20
55.9405140418
 11
59.0806558478
 21
55.845033231
  0
LINE
  5
317
100
AcDbEntity
  8
0
100
AcDbLine
 62
7
  6
CONTINUOUS
 10
59.0806558478
 20
48.0575275164
 11
59.0806558478
 21
31.9405140418
  0
LINE
  5
318
100
AcDbEntity
  8
0
100
AcDbLine
 62
7
  6
CONTINUOUS
 10
59.0806558478
 20
28.4481140418
 11
59.0806558478
 21
31.0601863578
  0
LINE
  5
319
100
AcDbEntity
  8
A_RUNDUNGEN
100
AcDbLine
 62
7
  6
CONTINUOUS
 10
59.0806558478
 20
30.9905140418
 11
59.0806558478
 21
31.9405140418
  0
LINE
  5
31A
100
AcDbEntity
  8
A_RUNDUNGEN
100
AcDbLine
 62
7
  6
CONTINUOUS
 10
59.0806558478
 20
55.9405140418
 11
59.0806558478
 21
56.8905140418
  0
LINE
  5
31B
100
AcDbEntity
  8
0
100
AcDbLine
 62
7
  6
CONTINUOUS
 10
59.0806558478
 20
56.8905140418
 11
59.0806558478
 21
82.9481140418
  0
LINE
  5
31C
100
AcDbEntity
  8
0
100
AcDbLine
 62
7
  6
CONTINUOUS
 10
60.0806558478
 20
68.9481140418
 11
60.0806558478
 21
80.4481140418
  0
LINE
  5
31D
100
AcDbEntity
  8
DEFAULT_1
100
AcDbLine
 62
7
  6
CENTER
 10
60.8358371338
 20
47.2001836172
 11
60.8358371338
 21
56.6767946526
  0
LINE
  5
31E
100
AcDbEntity
  8
A_RUNDUNGEN
100
AcDbLine
 62
7
  6
CONTINUOUS
 10
57.5806558478
 20
56.8405140418
 11
52.5806558478
 21
56.8405140418
  0
LINE
  5
31F
100
AcDbEntity
  8
0
100
AcDbLine
 62
7
  6
CONTINUOUS
 10
77.6103242847
 20
56.8480760385
 11
94.5928542139
 21
56.8480760385
  0
LINE
  5
320
100
AcDbEntity
  8
A_RUNDUNGEN
100
AcDbLine
 62
7
  6
CONTINUOUS
 10
57.5806558478
 20
56.8905140418
 11
59.0806558478
 21
56.8905140418
  0
LINE
  5
321
100
AcDbEntity
  8
A_RUNDUNGEN
100
AcDbLine
 62
7
  6
CONTINUOUS
 10
62.6103242847
 20
56.8980760385
 11
62.5806562847
 21
56.8980760385
  0
LINE
  5
322
100
AcDbEntity
  8
0
100
AcDbLine
 62
7
  6
CONTINUOUS
 10
100.0806562847
 20
56.9480760385
 11
62.5806562847
 21
56.9480760385
  0
LINE
  5
323
100
AcDbEntity
  8
0
100
AcDbLine
 62
7
  6
CONTINUOUS
 10
57.5806558478
 20
57.1481140418
 11
59.0806558478
 21
57.1481140418
  0
LINE
  5
324
100
AcDbEntity
  8
0
100
AcDbLine
 62
7
  6
CONTINUOUS
 10
26.5806558478
 20
57.6981140418
 11
27.0806558478
 21
57.6981140418
  0
LINE
  5
325
100
AcDbEntity
  8
0
100
AcDbLine
 62
7
  6
CONTINUOUS
 10
49.0858343053
 20
58.4782150776
 11
57.5806558478
 21
58.4780733191
  0
LINE
  5
326
100
AcDbEntity
  8
A_RUNDUNGEN
100
AcDbLine
 62
7
  6
CONTINUOUS
 10
49.0806558478
 20
58.7481140418
 11
54.0711555903
 21
58.7481140418
  0
LINE
  5
327
100
AcDbEntity
  8
A_RUNDUNGEN
100
AcDbLine
 62
7
  6
CONTINUOUS
 10
49.1074507671
 20
59.7481140418
 11
54.0711555903
 21
59.7481140418
  0
LINE
  5
328
100
AcDbEntity
  8
0
100
AcDbLine
 62
7
  6
CONTINUOUS
 10
56.0806558478
 20
59.9481140418
 11
47.3494169498
 21
59.9481140418
  0
LINE
  5
329
100
AcDbEntity
  8
0
100
AcDbLine
 62
7
  6
CONTINUOUS
 10
62.5806562847
 20
66.9480760385
 11
62.5806562847
 21
56.8368592364
  0
LINE
  5
32A
100
AcDbEntity
  8
0
100
AcDbLine
 62
7
  6
CONTINUOUS
 10
62.5806562847
 20
31.0592928407
 11
62.5806562847
 21
26.9480760385
  0
LINE
  5
32B
100
AcDbEntity
  8
A_RUNDUNGEN
100
AcDbLine
 62
7
  6
CONTINUOUS
 10
62.5806562847
 20
30.9980760385
 11
62.5806562847
 21
48.0608813606
  0
LINE
  5
32C
100
AcDbEntity
  8
A_RUNDUNGEN
100
AcDbLine
 62
7
  6
CONTINUOUS
 10
62.5806562847
 20
55.8474402249
 11
62.5806562847
 21
56.8980760385
  0
LINE
  5
32D
100
AcDbEntity
  8
0
100
AcDbLine
 62
7
  6
CONTINUOUS
 10
62.6103242847
 20
30.9480760385
 11
62.6103242847
 21
48.0584330501
  0
LINE
  5
32E
100
AcDbEntity
  8
0
100
AcDbLine
 62
7
  6
CONTINUOUS
 10
62.6103242847
 20
55.8457869513
 11
62.6103242847
 21
56.9480760385
  0
LINE
  5
32F
100
AcDbEntity
  8
0
100
AcDbLine
 62
7
  6
CONTINUOUS
 10
69.1028317635
 20
79.9304757271
 11
67.1720149743
 21
72.7245715139
  0
LINE
  5
330
100
AcDbEntity
  8
0
100
AcDbLine
 62
7
  6
CONTINUOUS
 10
68.1379408478
 20
72.4657520418
 11
70.912005716
 21
82.8187045498
  0
LINE
  5
331
100
AcDbEntity
  8
A_RUNDUNGEN
100
AcDbLine
 62
7
  6
CONTINUOUS
 10
28.287762629
 20
61.8481140418
 11
45.5745641296
 21
61.8481140418
  0
LINE
  5
332
100
AcDbEntity
  8
0
100
AcDbLine
 62
7
  6
CONTINUOUS
 10
27.3806558478
 20
61.9481140418
 11
46.5806558478
 21
61.9481140418
  0
LINE
  5
333
100
AcDbEntity
  8
0
100
AcDbLine
 62
7
  6
CONTINUOUS
 10
50.5934218232
 20
62.6481140418
 11
50.952996229
 21
62.6481140418
  0
LINE
  5
334
100
AcDbEntity
  8
0
100
AcDbLine
 62
7
  6
CONTINUOUS
 10
51.8466133523
 20
62.6481140418
 11
52.2189537335
 21
62.6481140418
  0
LINE
  5
335
100
AcDbEntity
  8
0
100
AcDbLine
 62
7
  6
CONTINUOUS
 10
53.7083154145
 20
62.6481140418
 11
54.0806558478
 21
62.6481140418
  0
LINE
  5
336
100
AcDbEntity
  8
0
100
AcDbLine
 62
7
  6
CONTINUOUS
 10
56.0806558478
 20
62.9481140418
 11
50.952996229
 21
62.9481140418
  0
LINE
  5
337
100
AcDbEntity
  8
0
100
AcDbLine
 62
7
  6
CONTINUOUS
 10
50.9494499407
 20
62.9481140418
 11
47.3494169498
 21
62.9481140418
  0
LINE
  5
338
100
AcDbEntity
  8
0
100
AcDbLine
 62
7
  6
CONTINUOUS
 10
27.3806558478
 20
62.9481140418
 11
46.5806558478
 21
62.9481140418
  0
LINE
  5
339
100
AcDbEntity
  8
A_ACHSEN
100
AcDbLine
 62
7
  6
CENTER
 10
67.1103242847
 20
31.0664174079
 11
67.1103242847
 21
40.8297346691
  0
LINE
  5
33A
100
AcDbEntity
  8
0
100
AcDbLine
 62
7
  6
CONTINUOUS
 10
69.7554793783
 20
72.7069329544
 11
72.3608945189
 21
82.4304760205
  0
LINE
  5
33B
100
AcDbEntity
  8
0
100
AcDbLine
 62
7
  6
CONTINUOUS
 10
58.0083426303
 20
54.7678156048
 11
52.3422785095
 21
49.1054202156
  0
LWPOLYLINE
  5
33C
100
AcDbEntity
  8
A_ACHSEN
100
AcDbPolyline
 62
7
  6
CONTINUOUS
 90
6
 70
0
 10
27.9614099482
 20
31.9405140418
 10
28.1551477307
 20
32.0944931048
 10
28.3241238438
 20
32.2625905491
 10
28.4593949841
 20
32.4301243848
 10
28.5495700169
 20
32.5851145811
 10
28.5806558478
 20
32.7083274175
  0
LINE
  5
33D
100
AcDbEntity
  8
0
100
AcDbLine
 62
7
  6
CONTINUOUS
 10
112.5806562847
 20
66.9480760385
 11
62.5806562847
 21
66.9480760385
  0
LINE
  5
33E
100
AcDbEntity
  8
0
100
AcDbLine
 62
7
  6
CONTINUOUS
 10
61.0806558478
 20
67.1370140418
 11
68.8865768478
 21
67.1370140418
  0
LINE
  5
33F
100
AcDbEntity
  8
0
100
AcDbLine
 62
7
  6
CONTINUOUS
 10
68.8865768478
 20
67.9481140418
 11
61.0806558478
 21
67.9481140418
  0
LINE
  5
340
100
AcDbEntity
  8
0
100
AcDbLine
 62
7
  6
CONTINUOUS
 10
71.0966615197
 20
44.8757620779
 11
71.1099361185
 21
36.2046910139
  0
LINE
  5
341
100
AcDbEntity
  8
0
100
AcDbLine
 62
7
  6
CONTINUOUS
 10
71.1103195974
 20
35.9541996572
 11
71.1110879823
 21
35.4522846822
  0
LINE
  5
342
100
AcDbEntity
  8
0
100
AcDbLine
 62
7
  6
CONTINUOUS
 10
72.5806558478
 20
102.5408170418
 11
72.5806558478
 21
72.4481140418
  0
LINE
  5
343
100
AcDbEntity
  8
0
100
AcDbLine
 62
7
  6
CONTINUOUS
 10
74.0806558478
 20
72.4481140418
 11
74.0806558478
 21
102.5408170418
  0
LINE
  5
344
100
AcDbEntity
  8
0
100
AcDbLine
 62
7
  6
CONTINUOUS
 10
56.7993780819
 20
46.490854899
 11
57.6685240689
 21
47.3594381208
  0
LINE
  5
345
100
AcDbEntity
  8
0
100
AcDbLine
 62
7
  6
CONTINUOUS
 10
70.7214049434
 20
69.9481140418
 11
71.5806558478
 21
69.9481140418
  0
LINE
  5
346
100
AcDbEntity
  8
0
100
AcDbLine
 62
7
  6
CONTINUOUS
 10
71.5806554068
 20
71.4481140418
 11
70.7214044068
 21
71.4481144207
  0
LINE
  5
347
100
AcDbEntity
  8
A_FASEN
100
AcDbLine
 62
7
  6
CONTINUOUS
 10
94.8806562847
 20
47.4480760385
 11
94.3806562847
 21
47.9480760385
  0
LINE
  5
348
100
AcDbEntity
  8
0
100
AcDbLine
 62
7
  6
CONTINUOUS
 10
80.5616857057
 20
49.9321007967
 11
83.333632522
 21
45.1273552701
  0
LINE
  5
349
100
AcDbEntity
  8
0
100
AcDbLine
 62
7
  6
CONTINUOUS
 10
71.1110879823
 20
35.4522846822
 11
71.0491110752
 21
34.9541575412
  0
LINE
  5
34A
100
AcDbEntity
  8
0
100
AcDbLine
 62
7
  6
CONTINUOUS
 10
63.5435222997
 20
37.7585797252
 11
65.62158816
 21
41.8524954073
  0
LINE
  5
34B
100
AcDbEntity
  8
0
100
AcDbLine
 62
7
  6
CONTINUOUS
 10
89.7966987215
 20
41.9291096101
 11
84.0264348409
 21
51.9309788395
  0
LINE
  5
34C
100
AcDbEntity
  8
0
100
AcDbLine
 62
7
  6
CONTINUOUS
 10
82.3631543242
 20
39.4315691886
 11
82.6121060769
 21
37.4501914493
  0
LINE
  5
34D
100
AcDbEntity
  8
A_ACHSEN
100
AcDbLine
 62
7
  6
CONTINUOUS
 10
86.3319495863
 20
40.2928165673
 11
86.3319495863
 21
39.5676465673
  0
LINE
  5
34E
100
AcDbEntity
  8
A_ACHSEN
100
AcDbLine
 62
7
  6
CENTER
 10
86.3319495863
 20
38.1173065673
 11
86.3319495863
 21
34.8902315673
  0
LINE
  5
34F
100
AcDbEntity
  8
A_ACHSEN
100
AcDbLine
 62
7
  6
CENTER
 10
86.3319495863
 20
41.7431565673
 11
86.3319495863
 21
44.9702315673
  0
LINE
  5
350
100
AcDbEntity
  8
A_ACHSEN
100
AcDbLine
 62
7
  6
CONTINUOUS
 10
82.8449397888
 20
42.0963369831
 11
82.8089807849
 21
41.8034743983
  0
LINE
  5
351
100
AcDbEntity
  8
A_ACHSEN
100
AcDbLine
 62
7
  6
CONTINUOUS
 10
82.441341124
 20
38.809289639
 11
82.4244905541
 21
38.6720527599
  0
LINE
  5
352
100
AcDbEntity
  8
0
100
AcDbLine
 62
7
  6
CONTINUOUS
 10
62.0806558478
 20
82.4481140418
 11
67.1709798478
 21
82.4481140418
  0
LINE
  5
353
100
AcDbEntity
  8
0
100
AcDbLine
 62
7
  6
CONTINUOUS
 10
59.5806558478
 20
83.4481140418
 11
70.4290428478
 21
83.4481140418
  0
LINE
  5
354
100
AcDbEntity
  8
0
100
AcDbLine
 62
7
  6
CONTINUOUS
 10
70.4290428478
 20
84.9481140418
 11
59.0806558478
 21
84.9481140418
  0
LINE
  5
355
100
AcDbEntity
  8
0
100
AcDbLine
 62
7
  6
CONTINUOUS
 10
86.5806562847
 20
56.8480760385
 11
86.5806562847
 21
53.8480760385
  0
LINE
  5
356
100
AcDbEntity
  8
0
100
AcDbLine
 62
7
  6
CONTINUOUS
 10
90.549696601
 20
38.4475162067
 11
90.3007448483
 21
40.428893946
  0
LINE
  5
357
100
AcDbEntity
  8
0
100
AcDbLine
 62
7
  6
CONTINUOUS
 10
90.6103242847
 20
53.8480760385
 11
90.6103242847
 21
30.9480760385
  0
LINE
  5
358
100
AcDbEntity
  8
A_FASEN
100
AcDbLine
 62
7
  6
CONTINUOUS
 10
94.3806562847
 20
39.9480760385
 11
94.3806562847
 21
47.9480760385
  0
LINE
  5
359
100
AcDbEntity
  8
A_ACHSEN
100
AcDbLine
 62
7
  6
CONTINUOUS
 10
90.2001982105
 20
40.869067228
 11
90.2394086185
 21
41.1884103747
  0
LINE
  5
35A
100
AcDbEntity
  8
0
100
AcDbLine
 62
7
  6
CONTINUOUS
 10
95.0928341726
 20
53.3525527482
 11
95.2301008181
 21
38.0219693343
  0
LINE
  5
35B
100
AcDbEntity
  8
A_RUNDUNGEN
100
AcDbLine
 62
7
  6
CONTINUOUS
 10
95.2927747541
 20
31.0222499129
 11
95.2301008181
 21
38.0219693343
  0
LINE
  5
35C
100
AcDbEntity
  8
A_RUNDUNGEN
100
AcDbLine
 62
7
  6
CONTINUOUS
 10
96.7927146301
 20
31.0356800421
 11
96.7300406941
 21
38.0353994634
  0
LINE
  5
35D
100
AcDbEntity
  8
0
100
AcDbLine
 62
7
  6
CONTINUOUS
 10
98.0927139246
 20
53.3794130066
 11
98.2299805701
 21
38.0488295926
  0
LINE
  5
35E
100
AcDbEntity
  8
A_ACHSEN
100
AcDbLine
 62
7
  6
CONTINUOUS
 10
98.2299805701
 20
38.0488295926
 11
98.2926545061
 21
31.0491101712
  0
LINE
  5
35F
100
AcDbEntity
  8
A_FASEN
100
AcDbLine
 62
7
  6
CONTINUOUS
 10
94.8806562847
 20
40.4481714803
 11
94.8806562847
 21
47.4479805968
  0
LINE
  5
360
100
AcDbEntity
  8
A_ACHSEN
100
AcDbLine
 62
7
  6
CONTINUOUS
 10
99.1306562847
 20
38.9480760385
 11
99.1306562847
 21
48.9480760385
  0
LINE
  5
361
100
AcDbEntity
  8
0
100
AcDbLine
 62
7
  6
CONTINUOUS
 10
100.0806562847
 20
30.9480760385
 11
100.0806562847
 21
56.9480760385
  0
LINE
  5
362
100
AcDbEntity
  8
A_FASEN
100
AcDbLine
 62
7
  6
CONTINUOUS
 10
94.8806562847
 20
40.4480760385
 11
94.3806562847
 21
39.9480760385
  0
LINE
  5
363
100
AcDbEntity
  8
0
100
AcDbLine
 62
7
  6
CONTINUOUS
 10
74.0806558478
 20
102.5408170418
 11
72.5806558478
 21
102.5408170418
  0
LINE
  5
364
100
AcDbEntity
  8
0
100
AcDbLine
 62
7
  6
CONTINUOUS
 10
112.5806562847
 20
26.9480760385
 11
112.5806562847
 21
66.9480760385
  0
ARC
  5
365
100
AcDbEntity
  8
0
100
AcDbCircle
 62
7
  6
CONTINUOUS
 10
35.3542378718
 20
39.8994651276
 40
4.0
100
AcDbArc
 50
150.0877144112
 51
172.9077144112
  0
ARC
  5
366
100
AcDbEntity
  8
0
100
AcDbCircle
 62
7
  6
CONTINUOUS
 10
35.3542378718
 20
39.8994651276
 40
4.0
100
AcDbArc
 50
352.9077144112
 51
37.4678494632
  0
ARC
  5
367
100
AcDbEntity
  8
0
100
AcDbCircle
 62
7
  6
CONTINUOUS
 10
22.0806558478
 20
28.9981140418
 40
3.05
100
AcDbArc
 50
190.3888578155
 51
270.0
  0
ARC
  5
368
100
AcDbEntity
  8
A_ACHSEN
100
AcDbCircle
 62
7
  6
CONTINUOUS
 10
37.2862973871
 20
38.4100370396
 40
2.0
100
AcDbArc
 50
335.0790002078
 51
7.3713070191
  0
ARC
  5
369
100
AcDbEntity
  8
A_ACHSEN
100
AcDbCircle
 62
7
  6
CONTINUOUS
 10
33.8648097838
 20
37.9674056123
 40
2.0
100
AcDbArc
 50
244.8280947503
 51
277.3713070191
  0
ARC
  5
36A
100
AcDbEntity
  8
0
100
AcDbCircle
 62
7
  6
CONTINUOUS
 10
37.0923779515
 20
37.6708757427
 40
2.0
100
AcDbArc
 50
262.9077144112
 51
352.9077144112
  0
CIRCLE
  5
36B
100
AcDbEntity
  8
0
100
AcDbCircle
 62
7
  6
CONTINUOUS
 10
35.3542378718
 20
39.8994651276
 40
2.0
  0
ARC
  5
36C
100
AcDbEntity
  8
0
100
AcDbCircle
 62
7
  6
CONTINUOUS
 10
33.1229836682
 20
38.1647472074
 40
2.0
100
AcDbArc
 50
172.9077144112
 51
262.9077144112
  0
ARC
  5
36D
100
AcDbEntity
  8
0
100
AcDbCircle
 62
7
  6
CONTINUOUS
 10
22.0806558478
 20
28.9981140418
 40
1.55
100
AcDbArc
 50
180.0
 51
270.0
  0
ARC
  5
36E
100
AcDbEntity
  8
0
100
AcDbCircle
 62
7
  6
CONTINUOUS
 10
26.5806558478
 20
33.2981140418
 40
1.5
100
AcDbArc
 50
180.0
 51
250.5287793655
  0
ARC
  5
36F
100
AcDbEntity
  8
0
100
AcDbCircle
 62
7
  6
CONTINUOUS
 10
26.5806558478
 20
33.6981140418
 40
1.5
100
AcDbArc
 50
180.0
 51
250.5287793655
  0
ARC
  5
370
100
AcDbEntity
  8
0
100
AcDbCircle
 62
7
  6
CONTINUOUS
 10
27.3806558478
 20
29.2481140418
 40
1.3
100
AcDbArc
 50
180.0
 51
270.0
  0
ARC
  5
371
100
AcDbEntity
  8
0
100
AcDbCircle
 62
7
  6
CONTINUOUS
 10
30.2806558478
 20
35.7905140418
 40
1.0
100
AcDbArc
 50
270.0
 51
78.4630409672
  0
ARC
  5
372
100
AcDbEntity
  8
0
100
AcDbCircle
 62
7
  6
CONTINUOUS
 10
30.5806558478
 20
37.2602078875
 40
0.5
100
AcDbArc
 50
180.0
 51
258.4630409672
  0
ARC
  5
373
100
AcDbEntity
  8
0
100
AcDbCircle
 62
7
  6
CONTINUOUS
 10
26.5806558478
 20
33.6981140418
 40
0.5
100
AcDbArc
 50
180.0
 51
270.0
  0
ARC
  5
374
100
AcDbEntity
  8
0
100
AcDbCircle
 62
7
  6
CONTINUOUS
 10
27.3806558478
 20
29.2481140418
 40
0.3
100
AcDbArc
 50
180.0
 51
270.0
  0
ARC
  5
375
100
AcDbEntity
  8
A_ACHSEN
100
AcDbCircle
 62
7
  6
CONTINUOUS
 10
33.4221783565
 20
41.3888932156
 40
2.0
100
AcDbArc
 50
112.6766469034
 51
187.3713070191
  0
ARC
  5
376
100
AcDbEntity
  8
A_ACHSEN
100
AcDbCircle
 62
7
  6
CONTINUOUS
 10
36.8436659598
 20
41.8315246429
 40
2.0
100
AcDbArc
 50
7.3713070191
 51
52.5881075103
  0
ARC
  5
377
100
AcDbEntity
  8
A_RUNDUNGEN
100
AcDbCircle
 62
7
  6
CONTINUOUS
 10
30.2806558478
 20
52.0905140418
 40
1.0
100
AcDbArc
 50
281.5369590328
 51
90.0
  0
ARC
  5
378
100
AcDbEntity
  8
A_RUNDUNGEN
100
AcDbCircle
 62
7
  6
CONTINUOUS
 10
30.5806558478
 20
50.6208201961
 40
0.5
100
AcDbArc
 50
101.5369590328
 51
180.0
  0
ARC
  5
379
100
AcDbEntity
  8
0
100
AcDbCircle
 62
7
  6
CONTINUOUS
 10
54.5806558478
 20
35.9405140418
 40
4.0
100
AcDbArc
 50
277.1614447123
 51
26.9814447123
  0
ARC
  5
37A
100
AcDbEntity
  8
0
100
AcDbCircle
 62
7
  6
CONTINUOUS
 10
54.1157674945
 20
35.378171521
 40
3.5
100
AcDbArc
 50
187.1614447123
 51
277.1614447123
  0
ARC
  5
37B
100
AcDbEntity
  8
0
100
AcDbCircle
 62
7
  6
CONTINUOUS
 10
49.3806558478
 20
31.2481140418
 40
3.3
100
AcDbArc
 50
180.0
 51
231.6278790158
  0
CIRCLE
  5
37C
100
AcDbEntity
  8
0
100
AcDbCircle
 62
7
  6
CONTINUOUS
 10
54.5806558478
 20
35.9405140418
 40
2.5
  0
ARC
  5
37D
100
AcDbEntity
  8
0
100
AcDbCircle
 62
7
  6
CONTINUOUS
 10
56.5806558478
 20
28.4481140418
 40
2.5
100
AcDbArc
 50
270.0
 51
360.0
  0
CIRCLE
  5
37E
100
AcDbEntity
  8
0
100
AcDbCircle
 62
7
  6
CONTINUOUS
 10
54.5806558478
 20
35.9405140418
 40
2.45
  0
ARC
  5
37F
100
AcDbEntity
  8
0
100
AcDbCircle
 62
7
  6
CONTINUOUS
 10
56.5806558478
 20
28.4481140418
 40
1.0
100
AcDbArc
 50
270.0
 51
360.0
  0
ARC
  5
380
100
AcDbEntity
  8
0
100
AcDbCircle
 62
7
  6
CONTINUOUS
 10
49.3806558478
 20
31.2481140418
 40
0.3
100
AcDbArc
 50
192.0219303397
 51
270.0
  0
ARC
  5
381
100
AcDbEntity
  8
0
100
AcDbCircle
 62
7
  6
CONTINUOUS
 10
56.5835449913
 20
44.8614057681
 40
6.0
100
AcDbArc
 50
134.9814447123
 51
179.9814447123
  0
ARC
  5
382
100
AcDbEntity
  8
0
100
AcDbCircle
 62
7
  6
CONTINUOUS
 10
42.8460183269
 20
48.9109690168
 40
6.0
100
AcDbArc
 50
93.2587144112
 51
150.0877144112
  0
ARC
  5
383
100
AcDbEntity
  8
A_ACHSEN
100
AcDbCircle
 62
7
  6
CONTINUOUS
 10
54.5806558478
 20
51.9405140418
 40
3.5
100
AcDbArc
 50
196.9585950355
 51
231.8451297885
  0
ARC
  5
384
100
AcDbEntity
  8
0
100
AcDbCircle
 62
7
  6
CONTINUOUS
 10
46.4442922115
 20
41.3089563023
 40
3.0
100
AcDbArc
 50
277.3713070191
 51
97.3713070191
  0
ARC
  5
385
100
AcDbEntity
  8
A_ACHSEN
100
AcDbCircle
 62
7
  6
CONTINUOUS
 10
54.5806558478
 20
51.9405140418
 40
2.6
100
AcDbArc
 50
203.0844681221
 51
234.389355677
  0
ARC
  5
386
100
AcDbEntity
  8
0
100
AcDbCircle
 62
7
  6
CONTINUOUS
 10
40.5132541454
 20
43.853520146
 40
2.5
100
AcDbArc
 50
150.0877144112
 51
217.4678494632
  0
ARC
  5
387
100
AcDbEntity
  8
A_RUNDUNGEN
100
AcDbCircle
 62
7
  6
CONTINUOUS
 10
42.8460184008
 20
48.910920762
 40
2.0000241275
100
AcDbArc
 50
90.0877144112
 51
150.0877144112
  0
ARC
  5
388
100
AcDbEntity
  8
0
100
AcDbCircle
 62
7
  6
CONTINUOUS
 10
49.3806558478
 20
59.6481140418
 40
3.3
100
AcDbArc
 50
128.3721209842
 51
180.0
  0
ARC
  5
389
100
AcDbEntity
  8
0
100
AcDbCircle
 62
7
  6
CONTINUOUS
 10
26.5806558478
 20
57.5981140418
 40
1.5
100
AcDbArc
 50
109.4712206345
 51
180.0
  0
ARC
  5
38A
100
AcDbEntity
  8
0
100
AcDbCircle
 62
7
  6
CONTINUOUS
 10
26.5806558478
 20
57.1981140418
 40
1.5
100
AcDbArc
 50
109.4712206345
 51
180.0
  0
ARC
  5
38B
100
AcDbEntity
  8
0
100
AcDbCircle
 62
7
  6
CONTINUOUS
 10
27.3806558478
 20
61.6481140418
 40
1.3
100
AcDbArc
 50
90.0
 51
180.0
  0
ARC
  5
38C
100
AcDbEntity
  8
0
100
AcDbCircle
 62
7
  6
CONTINUOUS
 10
26.5806558478
 20
57.1981140418
 40
0.5
100
AcDbArc
 50
90.0
 51
180.0
  0
ARC
  5
38D
100
AcDbEntity
  8
0
100
AcDbCircle
 62
7
  6
CONTINUOUS
 10
49.3806558478
 20
59.6481140418
 40
0.3
100
AcDbArc
 50
90.0
 51
180.0
  0
ARC
  5
38E
100
AcDbEntity
  8
0
100
AcDbCircle
 62
7
  6
CONTINUOUS
 10
27.3806558478
 20
61.6481140418
 40
0.3
100
AcDbArc
 50
90.0
 51
180.0
  0
ARC
  5
38F
100
AcDbEntity
  8
0
100
AcDbCircle
 62
7
  6
CONTINUOUS
 10
78.8293111381
 20
48.9326617753
 40
6.0
100
AcDbArc
 50
29.9814447123
 51
86.8104447123
  0
ARC
  5
390
100
AcDbEntity
  8
0
100
AcDbCircle
 62
7
  6
CONTINUOUS
 10
65.0966685507
 20
44.8665766498
 40
6.0
100
AcDbArc
 50
0.0877144112
 51
45.0877144112
  0
ARC
  5
391
100
AcDbEntity
  8
0
100
AcDbCircle
 62
7
  6
CONTINUOUS
 10
86.3319495863
 20
39.9302315673
 40
4.0
100
AcDbArc
 50
7.1614447123
 51
29.9814447123
  0
ARC
  5
392
100
AcDbEntity
  8
0
100
AcDbCircle
 62
7
  6
CONTINUOUS
 10
86.3319495863
 20
39.9302315673
 40
4.0
100
AcDbArc
 50
142.6013096603
 51
187.1614447123
  0
ARC
  5
393
100
AcDbEntity
  8
0
100
AcDbCircle
 62
7
  6
CONTINUOUS
 10
59.6268890698
 20
43.661511934
 40
4.0
100
AcDbArc
 50
134.9814447123
 51
206.9814447123
  0
ARC
  5
394
100
AcDbEntity
  8
0
100
AcDbCircle
 62
7
  6
CONTINUOUS
 10
62.054786175
 20
43.662999094
 40
4.0
100
AcDbArc
 50
333.0877144112
 51
45.0877144112
  0
ARC
  5
395
100
AcDbEntity
  8
0
100
AcDbCircle
 62
7
  6
CONTINUOUS
 10
67.1103242847
 20
35.9480760385
 40
4.0
100
AcDbArc
 50
0.0877144112
 51
3.6780923021
  0
ARC
  5
396
100
AcDbEntity
  8
0
100
AcDbCircle
 62
7
  6
CONTINUOUS
 10
67.1103242847
 20
35.9480760385
 40
4.0
100
AcDbArc
 50
86.4973365204
 51
262.9077144112
  0
ARC
  5
397
100
AcDbEntity
  8
0
100
AcDbCircle
 62
7
  6
CONTINUOUS
 10
60.8358371338
 20
51.9384891349
 40
3.99997668
100
AcDbArc
 50
257.5607904055
 51
327.4023429645
  0
ARC
  5
398
100
AcDbEntity
  8
0
100
AcDbCircle
 62
7
  6
CONTINUOUS
 10
60.8358371338
 20
51.9384891349
 40
3.99997668
100
AcDbArc
 50
86.8104447123
 51
134.9814447123
  0
ARC
  5
399
100
AcDbEntity
  8
A_ACHSEN
100
AcDbCircle
 62
7
  6
CONTINUOUS
 10
67.1103242847
 20
51.9480760385
 40
3.5
100
AcDbArc
 50
308.0784871372
 51
343.0975967499
  0
ARC
  5
39A
100
AcDbEntity
  8
0
100
AcDbCircle
 62
7
  6
CONTINUOUS
 10
94.5928542139
 20
53.3480760385
 40
3.5
100
AcDbArc
 50
0.513
 51
90.0
  0
ARC
  5
39B
100
AcDbEntity
  8
0
100
AcDbCircle
 62
7
  6
CONTINUOUS
 10
67.5758910773
 20
35.3862950728
 40
3.5
100
AcDbArc
 50
262.9077144112
 51
352.9077144112
  0
ARC
  5
39C
100
AcDbEntity
  8
0
100
AcDbCircle
 62
7
  6
CONTINUOUS
 10
75.2258589343
 20
41.319075777
 40
3.0
100
AcDbArc
 50
83.0
 51
263.0
  0
CIRCLE
  5
39D
100
AcDbEntity
  8
0
100
AcDbCircle
 62
7
  6
CONTINUOUS
 10
60.8358371338
 20
51.9384891349
 40
2.75
  0
ARC
  5
39E
100
AcDbEntity
  8
A_ACHSEN
100
AcDbCircle
 62
7
  6
CONTINUOUS
 10
67.1103242847
 20
51.9480760385
 40
2.6
100
AcDbArc
 50
305.371668873
 51
336.9823928454
  0
ARC
  5
39F
100
AcDbEntity
  8
0
100
AcDbCircle
 62
7
  6
CONTINUOUS
 10
59.4357184363
 20
45.5910987677
 40
2.5
100
AcDbArc
 50
77.5607904055
 51
134.9814447123
  0
ARC
  5
3A0
100
AcDbEntity
  8
0
100
AcDbCircle
 62
7
  6
CONTINUOUS
 10
66.3119012691
 20
48.4367155232
 40
2.5
100
AcDbArc
 50
89.9814447123
 51
147.4023429645
  0
ARC
  5
3A1
100
AcDbEntity
  8
0
100
AcDbCircle
 62
7
  6
CONTINUOUS
 10
81.1681643125
 20
43.8780564933
 40
2.5
100
AcDbArc
 50
322.6013096603
 51
29.9814447123
  0
ARC
  5
3A2
100
AcDbEntity
  8
A_ACHSEN
100
AcDbCircle
 62
7
  6
CONTINUOUS
 10
62.2436630716
 20
45.5927798657
 40
2.5
100
AcDbArc
 50
45.0877144112
 51
102.6377658234
  0
CIRCLE
  5
3A3
100
AcDbEntity
  8
A_FASEN
100
AcDbCircle
 62
7
  6
CONTINUOUS
 10
60.8358371338
 20
51.9384891349
 40
2.4999395067
  0
CIRCLE
  5
3A4
100
AcDbEntity
  8
0
100
AcDbCircle
 62
7
  6
CONTINUOUS
 10
60.8358371338
 20
51.9384891349
 40
2.0
  0
ARC
  5
3A5
100
AcDbEntity
  8
A_ACHSEN
100
AcDbCircle
 62
7
  6
CONTINUOUS
 10
84.8300320921
 20
41.8525982963
 40
2.0
100
AcDbArc
 50
127.1085748177
 51
173.0
  0
ARC
  5
3A6
100
AcDbEntity
  8
A_ACHSEN
100
AcDbCircle
 62
7
  6
CONTINUOUS
 10
88.2543163153
 20
41.4321490615
 40
2.0
100
AcDbArc
 50
353.0
 51
67.3134070381
  0
ARC
  5
3A7
100
AcDbEntity
  8
A_ACHSEN
100
AcDbCircle
 62
7
  6
CONTINUOUS
 10
87.8338670805
 20
38.0078648383
 40
2.0
100
AcDbArc
 50
263.0
 51
294.7466058418
  0
ARC
  5
3A8
100
AcDbEntity
  8
A_ACHSEN
100
AcDbCircle
 62
7
  6
CONTINUOUS
 10
84.4095828573
 20
38.4283140731
 40
2.0
100
AcDbArc
 50
173.0
 51
204.5014151363
  0
CIRCLE
  5
3A9
100
AcDbEntity
  8
0
100
AcDbCircle
 62
7
  6
CONTINUOUS
 10
86.3319495863
 20
39.9302315673
 40
2.0
  0
ARC
  5
3AA
100
AcDbEntity
  8
0
100
AcDbCircle
 62
7
  6
CONTINUOUS
 10
78.8293111381
 20
48.9326617753
 40
2.0
100
AcDbArc
 50
29.9814447123
 51
89.9814447123
  0
ARC
  5
3AB
100
AcDbEntity
  8
0
100
AcDbCircle
 62
7
  6
CONTINUOUS
 10
84.596503708
 20
37.6995226387
 40
2.0
100
AcDbArc
 50
187.1614447123
 51
277.1614447123
  0
ARC
  5
3AC
100
AcDbEntity
  8
0
100
AcDbCircle
 62
7
  6
CONTINUOUS
 10
88.56529897
 20
38.1981850174
 40
2.0
100
AcDbArc
 50
277.1614447123
 51
7.1614447123
  0
CIRCLE
  5
3AD
100
AcDbEntity
  8
0
100
AcDbCircle
 62
7
  6
CONTINUOUS
 10
67.1103242847
 20
35.9480760385
 40
2.0
  0
ARC
  5
3AE
100
AcDbEntity
  8
0
100
AcDbCircle
 62
7
  6
CONTINUOUS
 10
94.5928542139
 20
53.3480760385
 40
0.5
100
AcDbArc
 50
0.513
 51
90.0
  0
ARC
  5
3AF
100
AcDbEntity
  8
0
100
AcDbCircle
 62
7
  6
CONTINUOUS
 10
70.0697928478
 20
71.9481140418
 40
3.0000004684
100
AcDbArc
 50
164.9999957379
 51
250.8118628942
  0
ARC
  5
3B0
100
AcDbEntity
  8
0
100
AcDbCircle
 62
7
  6
CONTINUOUS
 10
62.0806558478
 20
80.4481140418
 40
3.0
100
AcDbArc
 50
90.0
 51
180.0
  0
ARC
  5
3B1
100
AcDbEntity
  8
0
100
AcDbCircle
 62
7
  6
CONTINUOUS
 10
80.6103242847
 20
56.9480760385
 40
3.0
100
AcDbArc
 50
180.0
 51
221.5263179647
  0
ARC
  5
3B2
100
AcDbEntity
  8
0
100
AcDbCircle
 62
7
  6
CONTINUOUS
 10
67.1709798478
 20
80.4481140418
 40
2.9999995024
100
AcDbArc
 50
345.0000031565
 51
90.0
  0
ARC
  5
3B3
100
AcDbEntity
  8
0
100
AcDbCircle
 62
7
  6
CONTINUOUS
 10
70.6050340545
 20
72.0614611694
 40
2.5
100
AcDbArc
 50
170.6934666922
 51
243.9357017781
  0
ARC
  5
3B4
100
AcDbEntity
  8
0
100
AcDbCircle
 62
7
  6
CONTINUOUS
 10
71.5806558478
 20
72.4481140418
 40
2.5
100
AcDbArc
 50
270.0
 51
360.0
  0
ARC
  5
3B5
100
AcDbEntity
  8
0
100
AcDbCircle
 62
7
  6
CONTINUOUS
 10
70.7214049434
 20
72.448113855
 40
2.4999998131
100
AcDbArc
 50
165.0000020428
 51
270.0
  0
ARC
  5
3B6
100
AcDbEntity
  8
0
100
AcDbCircle
 62
7
  6
CONTINUOUS
 10
67.1709798478
 20
80.4481140418
 40
2.0000003122
100
AcDbArc
 50
344.9999957379
 51
90.0
  0
ARC
  5
3B7
100
AcDbEntity
  8
0
100
AcDbCircle
 62
7
  6
CONTINUOUS
 10
61.0806558478
 20
69.1370140418
 40
2.0
100
AcDbArc
 50
180.0
 51
270.0
  0
ARC
  5
3B8
100
AcDbEntity
  8
0
100
AcDbCircle
 62
7
  6
CONTINUOUS
 10
62.0806558478
 20
80.4481140418
 40
2.0
100
AcDbArc
 50
90.0
 51
180.0
  0
ARC
  5
3B9
100
AcDbEntity
  8
0
100
AcDbCircle
 62
7
  6
CONTINUOUS
 10
70.4290428478
 20
82.9481140418
 40
2.0
100
AcDbArc
 50
345.0000020428
 51
90.0
  0
ARC
  5
3BA
100
AcDbEntity
  8
0
100
AcDbCircle
 62
7
  6
CONTINUOUS
 10
59.0806558478
 20
83.4481140418
 40
1.5
100
AcDbArc
 50
90.0
 51
180.0
  0
ARC
  5
3BB
100
AcDbEntity
  8
0
100
AcDbCircle
 62
7
  6
CONTINUOUS
 10
68.8865768478
 20
68.5481140418
 40
1.4111
100
AcDbArc
 50
270.0
 51
63.9357017781
  0
ARC
  5
3BC
100
AcDbEntity
  8
0
100
AcDbCircle
 62
7
  6
CONTINUOUS
 10
61.0806558478
 20
68.9481140418
 40
1.0
100
AcDbArc
 50
180.0
 51
270.0
  0
ARC
  5
3BD
100
AcDbEntity
  8
0
100
AcDbCircle
 62
7
  6
CONTINUOUS
 10
71.5806558478
 20
72.4481140418
 40
1.0
100
AcDbArc
 50
269.9999747337
 51
360.0
  0
ARC
  5
3BE
100
AcDbEntity
  8
0
100
AcDbCircle
 62
7
  6
CONTINUOUS
 10
70.7214048478
 20
72.4481140418
 40
0.9999996211
100
AcDbArc
 50
165.0000020428
 51
269.9999747337
  0
ARC
  5
3BF
100
AcDbEntity
  8
0
100
AcDbCircle
 62
7
  6
CONTINUOUS
 10
68.8865768478
 20
68.5481140418
 40
0.6
100
AcDbArc
 50
270.0
 51
70.8118628942
  0
ARC
  5
3C0
100
AcDbEntity
  8
0
100
AcDbCircle
 62
7
  6
CONTINUOUS
 10
59.5806558478
 20
82.9481140418
 40
0.5
100
AcDbArc
 50
90.0
 51
180.0
  0
ARC
  5
3C1
100
AcDbEntity
  8
0
100
AcDbCircle
 62
7
  6
CONTINUOUS
 10
70.4290428478
 20
82.9481140418
 40
0.4999999486
100
AcDbArc
 50
345.0000020428
 51
90.0
  0
ENDSEC
  0
SECTION
  2
OBJECTS
  0
DICTIONARY
  5
3C2
100
AcDbDictionary
  3
ACAD_GROUP
350
3C3
  3
ACAD_MLINESTYLE
350
3C4
  0
DICTIONARY
  5
3C3
102
{ACAD_REACTORS
330
3C2
102
}
100
AcDbDictionary
  0
DICTIONARY
  5
3C4
102
{ACAD_REACTORS
330
3C2
102
}
100
AcDbDictionary
  3
STANDARD
350
3C5
  0
MLINESTYLE
  5
3C5
102
{ACAD_REACTORS
330
3C4
102
}
100
AcDbMlineStyle
  2
STANDARD
 70
0
  3

 62
256
 51
90.0
 52
90.0
 71
2
 49
0.5
 62
256
  6
BYLAYER
 49
-0.5
 62
256
  6
BYLAYER
  0
ENDSEC
  0
EOF
