  0
SECTION
  2
HEADER
  9
$ACADVER
  1
AC1018
  9
$ACADMAINTVER
 70
     0
  9
$DWGCODEPAGE
  3
ANSI_1252
  9
$INSBASE
 10
0.0
 20
0.0
 30
0.0
  9
$EXTMIN
 10
-203.5853763311428
 20
-120.2833961103276
 30
0.0
  9
$EXTMAX
 10
183.144101125991
 20
109.761881720986
 30
0.0
  9
$LIMMIN
 10
0.0
 20
0.0
  9
$LIMMAX
 10
12.0
 20
9.0
  9
$ORTHOMODE
 70
     0
  9
$REGENMODE
 70
     1
  9
$FILLMODE
 70
     1
  9
$QTEXTMODE
 70
     0
  9
$MIRRTEXT
 70
     1
  9
$LTSCALE
 40
1.0
  9
$ATTMODE
 70
     1
  9
$TEXTSIZE
 40
0.2
  9
$TRACEWID
 40
0.05
  9
$TEXTSTYLE
  7
Standard
  9
$CLAYER
  8
0
  9
$CELTYPE
  6
ByLayer
  9
$CECOLOR
 62
   256
  9
$CELTSCALE
 40
1.0
  9
$DISPSILH
 70
     0
  9
$DIMSCALE
 40
1.0
  9
$DIMASZ
 40
0.18
  9
$DIMEXO
 40
0.0625
  9
$DIMDLI
 40
0.38
  9
$DIMRND
 40
0.0
  9
$DIMDLE
 40
0.0
  9
$DIMEXE
 40
0.18
  9
$DIMTP
 40
0.0
  9
$DIMTM
 40
0.0
  9
$DIMTXT
 40
0.18
  9
$DIMCEN
 40
0.09
  9
$DIMTSZ
 40
0.0
  9
$DIMTOL
 70
     0
  9
$DIMLIM
 70
     0
  9
$DIMTIH
 70
     1
  9
$DIMTOH
 70
     1
  9
$DIMSE1
 70
     0
  9
$DIMSE2
 70
     0
  9
$DIMTAD
 70
     0
  9
$DIMZIN
 70
     0
  9
$DIMBLK
  1

  9
$DIMASO
 70
     1
  9
$DIMSHO
 70
     1
  9
$DIMPOST
  1

  9
$DIMAPOST
  1

  9
$DIMALT
 70
     0
  9
$DIMALTD
 70
     2
  9
$DIMALTF
 40
25.4
  9
$DIMLFAC
 40
1.0
  9
$DIMTOFL
 70
     0
  9
$DIMTVP
 40
0.0
  9
$DIMTIX
 70
     0
  9
$DIMSOXD
 70
     0
  9
$DIMSAH
 70
     0
  9
$DIMBLK1
  1

  9
$DIMBLK2
  1

  9
$DIMSTYLE
  2
Standard
  9
$DIMCLRD
 70
     0
  9
$DIMCLRE
 70
     0
  9
$DIMCLRT
 70
     0
  9
$DIMTFAC
 40
1.0
  9
$DIMGAP
 40
0.09
  9
$DIMJUST
 70
     0
  9
$DIMSD1
 70
     0
  9
$DIMSD2
 70
     0
  9
$DIMTOLJ
 70
     1
  9
$DIMTZIN
 70
     0
  9
$DIMALTZ
 70
     0
  9
$DIMALTTZ
 70
     0
  9
$DIMUPT
 70
     0
  9
$DIMDEC
 70
     4
  9
$DIMTDEC
 70
     4
  9
$DIMALTU
 70
     2
  9
$DIMALTTD
 70
     2
  9
$DIMTXSTY
  7
Standard
  9
$DIMAUNIT
 70
     0
  9
$DIMADEC
 70
     0
  9
$DIMALTRND
 40
0.0
  9
$DIMAZIN
 70
     0
  9
$DIMDSEP
 70
    46
  9
$DIMATFIT
 70
     3
  9
$DIMFRAC
 70
     0
  9
$DIMLDRBLK
  1

  9
$DIMLUNIT
 70
     2
  9
$DIMLWD
 70
    -2
  9
$DIMLWE
 70
    -2
  9
$DIMTMOVE
 70
     0
  9
$LUNITS
 70
     2
  9
$LUPREC
 70
     4
  9
$SKETCHINC
 40
0.1
  9
$FILLETRAD
 40
0.5
  9
$AUNITS
 70
     0
  9
$AUPREC
 70
     0
  9
$MENU
  1
.
  9
$ELEVATION
 40
0.0
  9
$PELEVATION
 40
0.0
  9
$THICKNESS
 40
0.0
  9
$LIMCHECK
 70
     0
  9
$CHAMFERA
 40
0.5
  9
$CHAMFERB
 40
0.5
  9
$CHAMFERC
 40
1.0
  9
$CHAMFERD
 40
0.0
  9
$SKPOLY
 70
     0
  9
$TDCREATE
 40
2454914.460707824
  9
$TDUCREATE
 40
2454914.419041157
  9
$TDUPDATE
 40
2454914.460707836
  9
$TDUUPDATE
 40
2454914.419041169
  9
$TDINDWG
 40
0.0000000116
  9
$TDUSRTIMER
 40
0.0000000116
  9
$USRTIMER
 70
     1
  9
$ANGBASE
 50
0.0
  9
$ANGDIR
 70
     0
  9
$PDMODE
 70
     0
  9
$PDSIZE
 40
0.0
  9
$PLINEWID
 40
0.0
  9
$SPLFRAME
 70
     0
  9
$SPLINETYPE
 70
     6
  9
$SPLINESEGS
 70
     8
  9
$HANDSEED
  5
1F0
  9
$SURFTAB1
 70
     6
  9
$SURFTAB2
 70
     6
  9
$SURFTYPE
 70
     6
  9
$SURFU
 70
     6
  9
$SURFV
 70
     6
  9
$UCSBASE
  2

  9
$UCSNAME
  2

  9
$UCSORG
 10
0.0
 20
0.0
 30
0.0
  9
$UCSXDIR
 10
1.0
 20
0.0
 30
0.0
  9
$UCSYDIR
 10
0.0
 20
1.0
 30
0.0
  9
$UCSORTHOREF
  2

  9
$UCSORTHOVIEW
 70
     0
  9
$UCSORGTOP
 10
0.0
 20
0.0
 30
0.0
  9
$UCSORGBOTTOM
 10
0.0
 20
0.0
 30
0.0
  9
$UCSORGLEFT
 10
0.0
 20
0.0
 30
0.0
  9
$UCSORGRIGHT
 10
0.0
 20
0.0
 30
0.0
  9
$UCSORGFRONT
 10
0.0
 20
0.0
 30
0.0
  9
$UCSORGBACK
 10
0.0
 20
0.0
 30
0.0
  9
$PUCSBASE
  2

  9
$PUCSNAME
  2

  9
$PUCSORG
 10
0.0
 20
0.0
 30
0.0
  9
$PUCSXDIR
 10
1.0
 20
0.0
 30
0.0
  9
$PUCSYDIR
 10
0.0
 20
1.0
 30
0.0
  9
$PUCSORTHOREF
  2

  9
$PUCSORTHOVIEW
 70
     0
  9
$PUCSORGTOP
 10
0.0
 20
0.0
 30
0.0
  9
$PUCSORGBOTTOM
 10
0.0
 20
0.0
 30
0.0
  9
$PUCSORGLEFT
 10
0.0
 20
0.0
 30
0.0
  9
$PUCSORGRIGHT
 10
0.0
 20
0.0
 30
0.0
  9
$PUCSORGFRONT
 10
0.0
 20
0.0
 30
0.0
  9
$PUCSORGBACK
 10
0.0
 20
0.0
 30
0.0
  9
$USERI1
 70
     0
  9
$USERI2
 70
     0
  9
$USERI3
 70
     0
  9
$USERI4
 70
     0
  9
$USERI5
 70
     0
  9
$USERR1
 40
14.5
  9
$USERR2
 40
0.0
  9
$USERR3
 40
0.0
  9
$USERR4
 40
0.0
  9
$USERR5
 40
0.0
  9
$WORLDVIEW
 70
     1
  9
$SHADEDGE
 70
     3
  9
$SHADEDIF
 70
    70
  9
$TILEMODE
 70
     1
  9
$MAXACTVP
 70
    64
  9
$PINSBASE
 10
0.0
 20
0.0
 30
0.0
  9
$PLIMCHECK
 70
     0
  9
$PEXTMIN
 10
1.00000000000000E+20
 20
1.00000000000000E+20
 30
1.00000000000000E+20
  9
$PEXTMAX
 10
-1.00000000000000E+20
 20
-1.00000000000000E+20
 30
-1.00000000000000E+20
  9
$PLIMMIN
 10
0.0
 20
0.0
  9
$PLIMMAX
 10
12.0
 20
9.0
  9
$UNITMODE
 70
     0
  9
$VISRETAIN
 70
     1
  9
$PLINEGEN
 70
     0
  9
$PSLTSCALE
 70
     1
  9
$TREEDEPTH
 70
  3020
  9
$CMLSTYLE
  2
Standard
  9
$CMLJUST
 70
     0
  9
$CMLSCALE
 40
1.0
  9
$PROXYGRAPHICS
 70
     1
  9
$MEASUREMENT
 70
     1
  9
$CELWEIGHT
370
    -1
  9
$ENDCAPS
280
     0
  9
$JOINSTYLE
280
     0
  9
$LWDISPLAY
290
     0
  9
$INSUNITS
 70
     1
  9
$HYPERLINKBASE
  1

  9
$STYLESHEET
  1

  9
$XEDIT
290
     1
  9
$CEPSNTYPE
380
     0
  9
$PSTYLEMODE
290
     1
  9
$FINGERPRINTGUID
  2
{885D070F-CC1C-4D1D-9693-44E6FDAD3021}
  9
$VERSIONGUID
  2
{FAEB1C32-E019-11D5-929B-00C0DF256EC4}
  9
$EXTNAMES
290
     1
  9
$PSVPSCALE
 40
0.0
  9
$OLESTARTUP
290
     0
  9
$SORTENTS
280
   127
  9
$INDEXCTL
280
     0
  9
$HIDETEXT
280
     1
  9
$XCLIPFRAME
290
     0
  9
$HALOGAP
280
     0
  9
$OBSCOLOR
 70
   257
  9
$OBSLTYPE
280
     0
  9
$INTERSECTIONDISPLAY
280
     0
  9
$INTERSECTIONCOLOR
 70
   257
  9
$DIMASSOC
280
     2
  9
$PROJECTNAME
  1

  0
ENDSEC
  0
SECTION
  2
CLASSES
  0
CLASS
  1
ACDBDICTIONARYWDFLT
  2
AcDbDictionaryWithDefault
  3
ObjectDBX Classes
 90
        0
 91
        3
280
     0
281
     0
  0
CLASS
  1

  2
exOdDbCircle
  3

 90
        0
 91
        3
280
     0
281
     1
  0
ENDSEC
  0
SECTION
  2
TABLES
  0
TABLE
  2
VPORT
  5
8
330
0
100
AcDbSymbolTable
 70
     1
  0
VPORT
  5
29
330
8
100
AcDbSymbolTableRecord
100
AcDbViewportTableRecord
  2
*Active
 70
     0
 10
0.0
 20
0.0
 11
1.0
 21
1.0
 12
-10.22063760257591
 22
-5.2607571946708
 13
0.0
 23
0.0
 14
0.5
 24
0.5
 15
0.5
 25
0.5
 16
0.0
 26
0.0
 36
1.0
 17
0.0
 27
0.0
 37
0.0
 40
265.4321538870134
 41
1.60267857142857
 42
50.0
 43
0.0
 44
0.0
 50
0.0
 51
0.0
 71
     0
 72
   100
 73
     1
 74
     3
 75
     0
 76
     0
 77
     0
 78
     0
281
     0
 65
     1
110
0.0
120
0.0
130
0.0
111
1.0
121
0.0
131
0.0
112
0.0
122
1.0
132
0.0
 79
     0
146
0.0
  0
ENDTAB
  0
TABLE
  2
LTYPE
  5
5
330
0
100
AcDbSymbolTable
 70
     8
  0
LTYPE
  5
14
330
5
100
AcDbSymbolTableRecord
100
AcDbLinetypeTableRecord
  2
ByBlock
 70
     0
  3

 72
    65
 73
     0
 40
0.0
  0
LTYPE
  5
15
330
5
100
AcDbSymbolTableRecord
100
AcDbLinetypeTableRecord
  2
ByLayer
 70
     0
  3

 72
    65
 73
     0
 40
0.0
  0
LTYPE
  5
16
330
5
100
AcDbSymbolTableRecord
100
AcDbLinetypeTableRecord
  2
Continuous
 70
     0
  3
Solid line
 72
    65
 73
     0
 40
0.0
  0
LTYPE
  5
2A
330
5
100
AcDbSymbolTableRecord
100
AcDbLinetypeTableRecord
  2
DASHED
 70
     0
  3
Dashed
 72
    65
 73
     2
 40
15.0
 49
7.0
 74
     0
 49
-8.0
 74
     0
  0
LTYPE
  5
2B
330
5
100
AcDbSymbolTableRecord
100
AcDbLinetypeTableRecord
  2
DOTTED
 70
     0
  3
Dotted
 72
    65
 73
     2
 40
1.0
 49
0.0
 74
     0
 49
-1.0
 74
     0
  0
LTYPE
  5
2C
330
5
100
AcDbSymbolTableRecord
100
AcDbLinetypeTableRecord
  2
DOT_CENTER
 70
     0
  3
Dot_Center
 72
    65
 73
     4
 40
14.0
 49
12.0
 74
     0
 49
-1.0
 74
     0
 49
0.0
 74
     0
 49
-1.0
 74
     0
  0
LTYPE
  5
2D
330
5
100
AcDbSymbolTableRecord
100
AcDbLinetypeTableRecord
  2
LONG_DASHED
 70
     0
  3
Long_Dashed
 72
    65
 73
     2
 40
15.0
 49
10.0
 74
     0
 49
-5.0
 74
     0
  0
LTYPE
  5
2E
330
5
100
AcDbSymbolTableRecord
100
AcDbLinetypeTableRecord
  2
DASH_CENTER
 70
     0
  3
Dash_Center
 72
    65
 73
     4
 40
14.0
 49
11.0
 74
     0
 49
-1.0
 74
     0
 49
1.0
 74
     0
 49
-1.0
 74
     0
  0
LTYPE
  5
2F
330
5
100
AcDbSymbolTableRecord
100
AcDbLinetypeTableRecord
  2
PHANTOM
 70
     0
  3
Phantom
 72
    65
 73
     6
 40
13.0
 49
10.0
 74
     0
 49
-1.0
 74
     0
 49
0.0
 74
     0
 49
-1.0
 74
     0
 49
0.0
 74
     0
 49
-1.0
 74
     0
  0
LTYPE
  5
30
330
5
100
AcDbSymbolTableRecord
100
AcDbLinetypeTableRecord
  2
CENTER_DASH_DASH
 70
     0
  3
Center_Dash_Dash
 72
    65
 73
     6
 40
14.0
 49
9.0
 74
     0
 49
-1.0
 74
     0
 49
1.0
 74
     0
 49
-1.0
 74
     0
 49
1.0
 74
     0
 49
-1.0
 74
     0
  0
ENDTAB
  0
TABLE
  2
LAYER
  5
2
330
0
100
AcDbSymbolTable
 70
     2
  0
LAYER
  5
10
330
2
100
AcDbSymbolTableRecord
100
AcDbLayerTableRecord
  2
0
 70
     0
 62
     7
  6
Continuous
370
    -3
390
F
  0
LAYER
  5
31
330
2
100
AcDbSymbolTableRecord
100
AcDbLayerTableRecord
  2
1
 70
     0
 62
     7
  6
Continuous
370
    -3
390
F
  0
ENDTAB
  0
TABLE
  2
STYLE
  5
3
330
0
100
AcDbSymbolTable
 70
     2
  0
STYLE
  5
11
330
3
100
AcDbSymbolTableRecord
100
AcDbTextStyleTableRecord
  2
Standard
 70
     0
 40
0.0
 41
1.0
 50
0.0
 71
     0
 42
0.2
  3
txt
  4

  0
STYLE
  5
FF
330
3
100
AcDbSymbolTableRecord
100
AcDbTextStyleTableRecord
  2
CONVERTER_11
 70
     0
 40
0.0
 41
0.9
 50
0.0
 71
     0
 42
0.2
  3
txt.shx
  4

  0
ENDTAB
  0
TABLE
  2
VIEW
  5
6
330
0
100
AcDbSymbolTable
 70
     0
  0
ENDTAB
  0
TABLE
  2
UCS
  5
7
330
0
100
AcDbSymbolTable
 70
     0
  0
ENDTAB
  0
TABLE
  2
APPID
  5
9
330
0
100
AcDbSymbolTable
 70
     1
  0
APPID
  5
12
330
9
100
AcDbSymbolTableRecord
100
AcDbRegAppTableRecord
  2
ACAD
 70
     0
  0
ENDTAB
  0
TABLE
  2
DIMSTYLE
  5
A
330
0
100
AcDbSymbolTable
 70
    19
100
AcDbDimStyleTable
  0
DIMSTYLE
105
27
330
A
100
AcDbSymbolTableRecord
100
AcDbDimStyleTableRecord
  2
Standard
 70
     0
340
11
  0
DIMSTYLE
105
10B
102
{ACAD_REACTORS
330
10C
102
}
330
A
100
AcDbSymbolTableRecord
100
AcDbDimStyleTableRecord
  2
ME10_DIM_10
 70
     0
 41
3.5
 42
0.0
 44
2.0
 73
     0
 74
     0
 77
     1
 78
     8
140
3.5
147
2.0
172
     1
173
     1
176
     2
177
     2
178
     2
271
     3
340
FF
  0
DIMSTYLE
105
118
102
{ACAD_REACTORS
330
119
102
}
330
A
100
AcDbSymbolTableRecord
100
AcDbDimStyleTableRecord
  2
ME10_DIM_11
 70
     0
 41
3.5
 42
0.0
 44
2.0
 73
     0
 74
     0
 77
     1
 78
     8
140
3.5
147
2.0
172
     1
173
     1
176
     2
177
     2
178
     2
271
     3
340
FF
  0
DIMSTYLE
105
123
102
{ACAD_REACTORS
330
124
102
}
330
A
100
AcDbSymbolTableRecord
100
AcDbDimStyleTableRecord
  2
ME10_DIM_12
 70
     0
 41
3.5
 42
0.0
 44
2.0
 73
     0
 74
     0
 77
     1
 78
     8
140
3.5
147
2.0
172
     1
173
     1
176
     2
177
     2
178
     2
271
     3
340
FF
  0
DIMSTYLE
105
12E
102
{ACAD_REACTORS
330
12F
102
}
330
A
100
AcDbSymbolTableRecord
100
AcDbDimStyleTableRecord
  2
ME10_DIM_13
 70
     0
 41
3.5
 42
0.0
 44
2.0
 73
     0
 74
     0
 77
     1
 78
     8
140
3.5
147
2.0
172
     1
173
     1
176
     2
177
     2
178
     2
271
     3
340
FF
  0
DIMSTYLE
105
13B
102
{ACAD_REACTORS
330
13C
102
}
330
A
100
AcDbSymbolTableRecord
100
AcDbDimStyleTableRecord
  2
ME10_DIM_14
 70
     0
 41
3.5
 42
0.0
 44
2.0
 73
     0
 74
     0
 77
     1
 78
     8
140
3.5
147
2.0
172
     1
173
     1
176
     2
177
     2
178
     2
271
     3
340
FF
  0
DIMSTYLE
105
146
102
{ACAD_REACTORS
330
147
102
}
330
A
100
AcDbSymbolTableRecord
100
AcDbDimStyleTableRecord
  2
ME10_DIM_15
 70
     0
 41
3.5
 42
0.0
 44
2.0
 73
     0
 74
     0
 77
     1
 78
     8
140
3.5
147
2.0
172
     1
173
     1
176
     2
177
     2
178
     2
271
     2
340
FF
  0
DIMSTYLE
105
151
102
{ACAD_REACTORS
330
152
102
}
330
A
100
AcDbSymbolTableRecord
100
AcDbDimStyleTableRecord
  2
ME10_DIM_16
 70
     0
 41
3.5
 42
0.0
 44
2.0
 73
     0
 74
     0
 77
     1
 78
     8
140
3.5
147
2.0
172
     1
173
     1
176
     2
177
     2
178
     2
271
     2
340
FF
  0
DIMSTYLE
105
15C
102
{ACAD_REACTORS
330
15D
102
}
330
A
100
AcDbSymbolTableRecord
100
AcDbDimStyleTableRecord
  2
ME10_DIM_17
 70
     0
 41
3.5
 42
0.0
 44
2.0
 73
     0
 74
     0
 77
     1
 78
     8
140
3.5
147
2.0
172
     1
173
     1
176
     2
177
     2
178
     2
271
     2
340
FF
  0
DIMSTYLE
105
167
102
{ACAD_REACTORS
330
168
102
}
330
A
100
AcDbSymbolTableRecord
100
AcDbDimStyleTableRecord
  2
ME10_DIM_18
 70
     0
 41
3.5
 42
0.0
 44
2.0
 73
     0
 74
     0
 77
     1
 78
     8
140
3.5
147
2.0
172
     1
173
     1
176
     2
177
     2
178
     2
271
     3
340
FF
  0
DIMSTYLE
105
172
102
{ACAD_REACTORS
330
173
102
}
330
A
100
AcDbSymbolTableRecord
100
AcDbDimStyleTableRecord
  2
ME10_DIM_19
 70
     0
 41
3.5
 42
0.0
 44
2.0
 73
     0
 74
     0
 77
     1
 78
     8
140
3.5
147
2.0
172
     1
173
     1
176
     2
177
     2
178
     2
271
     3
340
FF
  0
DIMSTYLE
105
17D
102
{ACAD_REACTORS
330
17E
102
}
330
A
100
AcDbSymbolTableRecord
100
AcDbDimStyleTableRecord
  2
ME10_DIM_20
 70
     0
 41
3.5
 42
0.0
 44
2.0
 73
     0
 74
     0
 77
     1
 78
     8
140
3.5
147
2.0
172
     1
173
     1
176
     2
177
     2
178
     2
271
     3
340
FF
  0
DIMSTYLE
105
188
102
{ACAD_REACTORS
330
189
102
}
330
A
100
AcDbSymbolTableRecord
100
AcDbDimStyleTableRecord
  2
ME10_DIM_21
 70
     0
 41
3.5
 42
0.0
 44
2.0
 73
     0
 74
     0
 77
     1
 78
     8
140
3.5
147
2.0
172
     1
173
     1
176
     2
177
     2
178
     2
271
     3
340
FF
  0
DIMSTYLE
105
195
102
{ACAD_REACTORS
330
196
102
}
330
A
100
AcDbSymbolTableRecord
100
AcDbDimStyleTableRecord
  2
ME10_DIM_22
 70
     0
 41
3.5
 42
0.0
 44
2.0
 73
     0
 74
     0
 77
     1
 78
     8
140
3.5
147
2.0
172
     1
173
     1
176
     2
177
     2
178
     2
271
     3
340
FF
  0
DIMSTYLE
105
1A0
102
{ACAD_REACTORS
330
1A1
102
}
330
A
100
AcDbSymbolTableRecord
100
AcDbDimStyleTableRecord
  2
ME10_DIM_23
 70
     0
 41
3.5
 42
0.0
 44
2.0
 73
     0
 74
     0
 77
     1
 78
     8
140
3.5
147
2.0
172
     1
173
     1
176
     2
177
     2
178
     2
271
     3
340
FF
  0
DIMSTYLE
105
1AB
102
{ACAD_REACTORS
330
1AC
102
}
330
A
100
AcDbSymbolTableRecord
100
AcDbDimStyleTableRecord
  2
ME10_DIM_24
 70
     0
 41
3.5
 42
0.0
 44
2.0
 73
     0
 74
     0
 77
     1
 78
     8
140
3.5
147
2.0
172
     1
173
     1
176
     2
177
     2
178
     2
271
     3
340
FF
  0
DIMSTYLE
105
1B6
102
{ACAD_REACTORS
330
1B7
102
}
330
A
100
AcDbSymbolTableRecord
100
AcDbDimStyleTableRecord
  2
ME10_DIM_25
 70
     0
 41
3.5
 42
0.0
 44
2.0
 73
     0
 74
     0
 77
     1
 78
     8
140
3.5
147
2.0
172
     1
173
     1
176
     2
177
     2
178
     2
271
     3
340
FF
  0
DIMSTYLE
105
1C1
102
{ACAD_REACTORS
330
1C2
102
}
330
A
100
AcDbSymbolTableRecord
100
AcDbDimStyleTableRecord
  2
ME10_DIM_26
 70
     0
 41
3.5
 42
0.0
 44
2.0
 73
     0
 74
     0
 77
     1
 78
     8
140
3.5
147
2.0
172
     1
173
     1
176
     2
177
     2
178
     2
271
     3
340
FF
  0
DIMSTYLE
105
1CE
102
{ACAD_REACTORS
330
1CF
102
}
330
A
100
AcDbSymbolTableRecord
100
AcDbDimStyleTableRecord
  2
ME10_DIM_27
 70
     0
 41
3.5
 42
0.0
 44
2.0
 73
     0
 74
     0
 77
     1
 78
     8
140
3.5
147
2.0
172
     1
173
     1
176
     2
177
     2
178
     2
271
     3
340
FF
  0
ENDTAB
  0
TABLE
  2
BLOCK_RECORD
  5
1
330
0
100
AcDbSymbolTable
 70
    23
  0
BLOCK_RECORD
  5
1F
330
1
100
AcDbSymbolTableRecord
100
AcDbBlockTableRecord
  2
*Model_Space
340
22
  0
BLOCK_RECORD
  5
1B
330
1
100
AcDbSymbolTableRecord
100
AcDbBlockTableRecord
  2
*Paper_Space
340
1E
  0
BLOCK_RECORD
  5
23
330
1
100
AcDbSymbolTableRecord
100
AcDbBlockTableRecord
  2
*Paper_Space0
340
26
  0
BLOCK_RECORD
  5
102
330
1
100
AcDbSymbolTableRecord
100
AcDbBlockTableRecord
  2
*D1
340
0
  0
BLOCK_RECORD
  5
10D
330
1
100
AcDbSymbolTableRecord
100
AcDbBlockTableRecord
  2
*D2
340
0
  0
BLOCK_RECORD
  5
11A
330
1
100
AcDbSymbolTableRecord
100
AcDbBlockTableRecord
  2
*D3
340
0
  0
BLOCK_RECORD
  5
125
330
1
100
AcDbSymbolTableRecord
100
AcDbBlockTableRecord
  2
*D4
340
0
  0
BLOCK_RECORD
  5
130
330
1
100
AcDbSymbolTableRecord
100
AcDbBlockTableRecord
  2
*D5
340
0
  0
BLOCK_RECORD
  5
13D
330
1
100
AcDbSymbolTableRecord
100
AcDbBlockTableRecord
  2
*D6
340
0
  0
BLOCK_RECORD
  5
148
330
1
100
AcDbSymbolTableRecord
100
AcDbBlockTableRecord
  2
*D7
340
0
  0
BLOCK_RECORD
  5
153
330
1
100
AcDbSymbolTableRecord
100
AcDbBlockTableRecord
  2
*D8
340
0
  0
BLOCK_RECORD
  5
15E
330
1
100
AcDbSymbolTableRecord
100
AcDbBlockTableRecord
  2
*D9
340
0
  0
BLOCK_RECORD
  5
169
330
1
100
AcDbSymbolTableRecord
100
AcDbBlockTableRecord
  2
*D10
340
0
  0
BLOCK_RECORD
  5
174
330
1
100
AcDbSymbolTableRecord
100
AcDbBlockTableRecord
  2
*D11
340
0
  0
BLOCK_RECORD
  5
17F
330
1
100
AcDbSymbolTableRecord
100
AcDbBlockTableRecord
  2
*D12
340
0
  0
BLOCK_RECORD
  5
18A
330
1
100
AcDbSymbolTableRecord
100
AcDbBlockTableRecord
  2
*D13
340
0
  0
BLOCK_RECORD
  5
197
330
1
100
AcDbSymbolTableRecord
100
AcDbBlockTableRecord
  2
*D14
340
0
  0
BLOCK_RECORD
  5
1A2
330
1
100
AcDbSymbolTableRecord
100
AcDbBlockTableRecord
  2
*D15
340
0
  0
BLOCK_RECORD
  5
1AD
330
1
100
AcDbSymbolTableRecord
100
AcDbBlockTableRecord
  2
*D16
340
0
  0
BLOCK_RECORD
  5
1B8
330
1
100
AcDbSymbolTableRecord
100
AcDbBlockTableRecord
  2
*D17
340
0
  0
BLOCK_RECORD
  5
1C3
330
1
100
AcDbSymbolTableRecord
100
AcDbBlockTableRecord
  2
*D18
340
0
  0
BLOCK_RECORD
  5
1D0
330
1
100
AcDbSymbolTableRecord
100
AcDbBlockTableRecord
  2
*D19
340
0
102
{BLKREFS
331
1D6
102
}
  0
BLOCK_RECORD
  5
1D7
330
1
100
AcDbSymbolTableRecord
100
AcDbBlockTableRecord
  2
*D20
340
0
102
{BLKREFS
331
1DF
102
}
  0
BLOCK_RECORD
  5
1E0
330
1
100
AcDbSymbolTableRecord
100
AcDbBlockTableRecord
  2
*D21
340
0
102
{BLKREFS
331
1E7
102
}
  0
BLOCK_RECORD
  5
1E8
330
1
100
AcDbSymbolTableRecord
100
AcDbBlockTableRecord
  2
*D22
340
0
102
{BLKREFS
331
1EF
102
}
  0
ENDTAB
  0
ENDSEC
  0
SECTION
  2
BLOCKS
  0
BLOCK
  5
20
330
1F
100
AcDbEntity
  8
0
100
AcDbBlockBegin
  2
*Model_Space
 70
     0
 71
     0
 10
0.0
 20
0.0
 30
0.0
  3
*Model_Space
  1

  0
ENDBLK
  5
21
330
1F
100
AcDbEntity
  8
0
100
AcDbBlockEnd
  0
BLOCK
  5
1C
330
1B
100
AcDbEntity
 67
     1
  8
0
100
AcDbBlockBegin
  2
*Paper_Space
 70
     0
 71
     0
 10
0.0
 20
0.0
 30
0.0
  3
*Paper_Space
  1

  0
ENDBLK
  5
1D
330
1B
100
AcDbEntity
 67
     1
  8
0
100
AcDbBlockEnd
  0
BLOCK
  5
24
330
23
100
AcDbEntity
  8
0
100
AcDbBlockBegin
  2
*Paper_Space0
 70
     0
 71
     0
 10
0.0
 20
0.0
 30
0.0
  3
*Paper_Space0
  1

  0
ENDBLK
  5
25
330
23
100
AcDbEntity
  8
0
100
AcDbBlockEnd
  0
BLOCK
  5
109
330
102
100
AcDbEntity
  8
0
100
AcDbBlockBegin
  2
*D1
 70
     1
 71
     0
 10
0.0
 20
0.0
 30
0.0
  3
*D1
  1

  0
LINE
  5
103
330
102
100
AcDbEntity
  8
1
  6
Continuous
 62
     2
100
AcDbLine
 10
-68.80177865188125
 20
-105.210878074178
 30
0.0
 11
-83.8017786518812
 21
-105.210878074178
 31
0.0
  0
LINE
  5
104
330
102
100
AcDbEntity
  8
1
  6
Continuous
 62
     2
100
AcDbLine
 10
-68.80177865188125
 20
-72.12339990768866
 30
0.0
 11
-68.80177865188125
 21
-107.210878074178
 31
0.0
  0
LINE
  5
105
330
102
100
AcDbEntity
  8
1
  6
Continuous
 62
     2
100
AcDbLine
 10
-83.8017786518812
 20
-72.12339990768865
 30
0.0
 11
-83.8017786518812
 21
-107.210878074178
 31
0.0
  0
SOLID
  5
106
330
102
100
AcDbEntity
  8
1
 62
     2
100
AcDbTrace
 10
-72.30177865188125
 20
-105.6716618157339
 30
0.0
 11
-72.30177865188125
 21
-104.7500943326221
 31
0.0
 12
-68.80177865188125
 22
-105.210878074178
 32
0.0
 13
-68.80177865188125
 23
-105.210878074178
 33
0.0
  0
SOLID
  5
107
330
102
100
AcDbEntity
  8
1
 62
     2
100
AcDbTrace
 10
-80.3017786518812
 20
-104.7500943326221
 30
0.0
 11
-80.3017786518812
 21
-105.6716618157339
 31
0.0
 12
-83.8017786518812
 22
-105.210878074178
 32
0.0
 13
-83.8017786518812
 23
-105.210878074178
 33
0.0
  0
MTEXT
  5
108
330
102
100
AcDbEntity
  8
1
 62
     2
100
AcDbMText
 10
-79.8669343051114
 20
-103.210878074178
 30
0.0
 40
3.5
 41
0.0
 71
     7
 72
     1
  1
15
  7
CONVERTER_11
 11
0.9999999999970621
 21
2.424068405545307E-6
 31
0.0
 73
     1
 44
0.60024009603842
  0
ENDBLK
  5
10A
330
102
100
AcDbEntity
  8
0
100
AcDbBlockEnd
  0
BLOCK
  5
116
330
10D
100
AcDbEntity
  8
0
100
AcDbBlockBegin
  2
*D2
 70
     1
 71
     0
 10
0.0
 20
0.0
 30
0.0
  3
*D2
  1

  0
LINE
  5
10E
330
10D
100
AcDbEntity
  8
1
  6
Continuous
 62
     2
100
AcDbLine
 10
-5.18553578466981
 20
-73.6979399702632
 30
0.0
 11
-5.18553578466981
 21
-66.6979399702632
 31
0.0
  0
LINE
  5
10F
330
10D
100
AcDbEntity
  8
1
  6
Continuous
 62
     2
100
AcDbLine
 10
-5.18553578466981
 20
-66.6979399702632
 30
0.0
 11
-5.18553578466981
 21
-63.69793997026321
 31
0.0
  0
LINE
  5
110
330
10D
100
AcDbEntity
  8
1
  6
Continuous
 62
     2
100
AcDbLine
 10
-5.18553578466981
 20
-63.69793997026321
 30
0.0
 11
-5.18553578466981
 21
-56.69793997026321
 31
0.0
  0
LINE
  5
111
330
10D
100
AcDbEntity
  8
1
  6
Continuous
 62
     2
100
AcDbLine
 10
-1.11320632733314
 20
-66.6979399702632
 30
0.0
 11
-7.18553578466981
 21
-66.6979399702632
 31
0.0
  0
LINE
  5
112
330
10D
100
AcDbEntity
  8
1
  6
Continuous
 62
     2
100
AcDbLine
 10
-11.11320632733314
 20
-63.69793997026321
 30
0.0
 11
-3.18553578466981
 21
-63.69793997026321
 31
0.0
  0
SOLID
  5
113
330
10D
100
AcDbEntity
  8
1
 62
     2
100
AcDbTrace
 10
-4.72475204311393
 20
-70.1979399702632
 30
0.0
 11
-5.6463195262257
 21
-70.1979399702632
 31
0.0
 12
-5.18553578466981
 22
-66.6979399702632
 32
0.0
 13
-5.18553578466981
 23
-66.6979399702632
 33
0.0
  0
SOLID
  5
114
330
10D
100
AcDbEntity
  8
1
 62
     2
100
AcDbTrace
 10
-5.6463195262257
 20
-60.19793997026321
 30
0.0
 11
-4.72475204311392
 21
-60.19793997026321
 31
0.0
 12
-5.18553578466981
 22
-63.69793997026321
 32
0.0
 13
-5.18553578466981
 23
-63.69793997026321
 33
0.0
  0
MTEXT
  5
115
330
10D
100
AcDbEntity
  8
1
 62
     2
100
AcDbMText
 10
-7.18553578466981
 20
-71.85640211641456
 30
0.0
 40
3.5
 41
0.0
 71
     7
 72
     1
  1
3
  7
CONVERTER_11
 11
0.0
 21
1.0
 31
0.0
 73
     1
 44
0.60024009603842
  0
ENDBLK
  5
117
330
10D
100
AcDbEntity
  8
0
100
AcDbBlockEnd
  0
BLOCK
  5
121
330
11A
100
AcDbEntity
  8
0
100
AcDbBlockBegin
  2
*D3
 70
     1
 71
     0
 10
0.0
 20
0.0
 30
0.0
  3
*D3
  1

  0
LINE
  5
11B
330
11A
100
AcDbEntity
  8
1
  6
Continuous
 62
     2
100
AcDbLine
 10
119.3887512679591
 20
76.37660009231135
 30
0.0
 11
119.3887512679591
 21
-65.62339990768865
 31
0.0
  0
LINE
  5
11C
330
11A
100
AcDbEntity
  8
1
  6
Continuous
 62
     2
100
AcDbLine
 10
85.94860034321128
 20
76.37660009231135
 30
0.0
 11
121.3887512679591
 21
76.37660009231135
 31
0.0
  0
LINE
  5
11D
330
11A
100
AcDbEntity
  8
1
  6
Continuous
 62
     2
100
AcDbLine
 10
85.94860034321128
 20
-65.62339990768865
 30
0.0
 11
121.3887512679591
 21
-65.62339990768865
 31
0.0
  0
SOLID
  5
11E
330
11A
100
AcDbEntity
  8
1
 62
     2
100
AcDbTrace
 10
119.849535009515
 20
72.87660009231135
 30
0.0
 11
118.9279675264032
 21
72.87660009231135
 31
0.0
 12
119.3887512679591
 22
76.37660009231135
 32
0.0
 13
119.3887512679591
 23
76.37660009231135
 33
0.0
  0
SOLID
  5
11F
330
11A
100
AcDbEntity
  8
1
 62
     2
100
AcDbTrace
 10
118.9279675264032
 20
-62.12339990768865
 30
0.0
 11
119.849535009515
 21
-62.12339990768865
 31
0.0
 12
119.3887512679591
 22
-65.62339990768865
 32
0.0
 13
119.3887512679591
 23
-65.62339990768865
 33
0.0
  0
MTEXT
  5
120
330
11A
100
AcDbEntity
  8
1
 62
     2
100
AcDbMText
 10
117.3887512679591
 20
-0.30111345100198
 30
0.0
 40
3.5
 41
0.0
 71
     7
 72
     1
  1
142
  7
CONVERTER_11
 11
0.0
 21
1.0
 31
0.0
 73
     1
 44
0.60024009603842
  0
ENDBLK
  5
122
330
11A
100
AcDbEntity
  8
0
100
AcDbBlockEnd
  0
BLOCK
  5
12C
330
125
100
AcDbEntity
  8
0
100
AcDbBlockBegin
  2
*D4
 70
     1
 71
     0
 10
0.0
 20
0.0
 30
0.0
  3
*D4
  1

  0
LINE
  5
126
330
125
100
AcDbEntity
  8
1
  6
Continuous
 62
     2
100
AcDbLine
 10
56.5158341698211
 20
-66.6979399702632
 30
0.0
 11
56.5158341698211
 21
-42.69793997026321
 31
0.0
  0
LINE
  5
127
330
125
100
AcDbEntity
  8
1
  6
Continuous
 62
     2
100
AcDbLine
 10
15.38679367266695
 20
-42.69793997026321
 30
0.0
 11
58.5158341698211
 21
-42.69793997026321
 31
0.0
  0
LINE
  5
128
330
125
100
AcDbEntity
  8
1
  6
Continuous
 62
     2
100
AcDbLine
 10
47.38679367266684
 20
-66.6979399702632
 30
0.0
 11
58.5158341698211
 21
-66.6979399702632
 31
0.0
  0
SOLID
  5
129
330
125
100
AcDbEntity
  8
1
 62
     2
100
AcDbTrace
 10
56.97661791137698
 20
-46.19793997026321
 30
0.0
 11
56.05505042826521
 21
-46.19793997026321
 31
0.0
 12
56.5158341698211
 22
-42.69793997026321
 32
0.0
 13
56.5158341698211
 23
-42.69793997026321
 33
0.0
  0
SOLID
  5
12A
330
125
100
AcDbEntity
  8
1
 62
     2
100
AcDbTrace
 10
56.05505042826521
 20
-63.19793997026321
 30
0.0
 11
56.97661791137698
 21
-63.19793997026321
 31
0.0
 12
56.5158341698211
 22
-66.6979399702632
 32
0.0
 13
56.5158341698211
 23
-66.6979399702632
 33
0.0
  0
MTEXT
  5
12B
330
125
100
AcDbEntity
  8
1
 62
     2
100
AcDbMText
 10
54.5158341698211
 20
-57.3476779503028
 30
0.0
 40
3.5
 41
0.0
 71
     7
 72
     1
  1
24
  7
CONVERTER_11
 11
0.0
 21
1.0
 31
0.0
 73
     1
 44
0.60024009603842
  0
ENDBLK
  5
12D
330
125
100
AcDbEntity
  8
0
100
AcDbBlockEnd
  0
BLOCK
  5
139
330
130
100
AcDbEntity
  8
0
100
AcDbBlockBegin
  2
*D5
 70
     1
 71
     0
 10
0.0
 20
0.0
 30
0.0
  3
*D5
  1

  0
LINE
  5
131
330
130
100
AcDbEntity
  8
1
  6
Continuous
 62
     2
100
AcDbLine
 10
9.63953091356274
 20
-62.69793997026319
 30
0.0
 11
9.63953091356274
 21
-55.69793997026319
 31
0.0
  0
LINE
  5
132
330
130
100
AcDbEntity
  8
1
  6
Continuous
 62
     2
100
AcDbLine
 10
9.63953091356274
 20
-66.6979399702632
 30
0.0
 11
9.63953091356274
 21
-62.69793997026319
 31
0.0
  0
LINE
  5
133
330
130
100
AcDbEntity
  8
1
  6
Continuous
 62
     2
100
AcDbLine
 10
9.63953091356274
 20
-73.7386454488453
 30
0.0
 11
9.63953091356274
 21
-66.6979399702632
 31
0.0
  0
LINE
  5
134
330
130
100
AcDbEntity
  8
1
  6
Continuous
 62
     2
100
AcDbLine
 10
12.38679367266663
 20
-62.69793997026319
 30
0.0
 11
7.63953091356274
 21
-62.69793997026319
 31
0.0
  0
LINE
  5
135
330
130
100
AcDbEntity
  8
1
  6
Continuous
 62
     2
100
AcDbLine
 10
2.38679367266664
 20
-66.6979399702632
 30
0.0
 11
11.63953091356274
 21
-66.6979399702632
 31
0.0
  0
SOLID
  5
136
330
130
100
AcDbEntity
  8
1
 62
     2
100
AcDbTrace
 10
9.17874717200685
 20
-59.19793997026319
 30
0.0
 11
10.10031465511863
 21
-59.19793997026319
 31
0.0
 12
9.63953091356274
 22
-62.69793997026319
 32
0.0
 13
9.63953091356274
 23
-62.69793997026319
 33
0.0
  0
SOLID
  5
137
330
130
100
AcDbEntity
  8
1
 62
     2
100
AcDbTrace
 10
10.10031465511863
 20
-70.1979399702632
 30
0.0
 11
9.17874717200685
 21
-70.1979399702632
 31
0.0
 12
9.63953091356274
 22
-66.6979399702632
 32
0.0
 13
9.63953091356274
 23
-66.6979399702632
 33
0.0
  0
MTEXT
  5
138
330
130
100
AcDbEntity
  8
1
 62
     2
100
AcDbMText
 10
7.63953091356274
 20
-73.7386454488453
 30
0.0
 40
3.5
 41
0.0
 71
     7
 72
     1
  1
4
  7
CONVERTER_11
 11
0.0
 21
1.0
 31
0.0
 73
     1
 44
0.60024009603842
  0
ENDBLK
  5
13A
330
130
100
AcDbEntity
  8
0
100
AcDbBlockEnd
  0
BLOCK
  5
144
330
13D
100
AcDbEntity
  8
0
100
AcDbBlockBegin
  2
*D6
 70
     1
 71
     0
 10
0.0
 20
0.0
 30
0.0
  3
*D6
  1

  0
LINE
  5
13E
330
13D
100
AcDbEntity
  8
1
  6
Continuous
 62
     2
100
AcDbLine
 10
180.9119338369392
 20
-114.622960427562
 30
0.0
 11
153.9119338369392
 21
-114.622960427562
 31
0.0
  0
LINE
  5
13F
330
13D
100
AcDbEntity
  8
1
  6
Continuous
 62
     2
100
AcDbLine
 10
153.9119338369392
 20
-54.62339990768866
 30
0.0
 11
153.9119338369392
 21
-116.622960427562
 31
0.0
  0
LINE
  5
140
330
13D
100
AcDbEntity
  8
1
  6
Continuous
 62
     2
100
AcDbLine
 10
180.9119338369392
 20
-72.12339990768865
 30
0.0
 11
180.9119338369392
 21
-116.622960427562
 31
0.0
  0
SOLID
  5
141
330
13D
100
AcDbEntity
  8
1
 62
     2
100
AcDbTrace
 10
177.4119338369392
 20
-115.0837441691179
 30
0.0
 11
177.4119338369392
 21
-114.1621766860061
 31
0.0
 12
180.9119338369392
 22
-114.622960427562
 32
0.0
 13
180.9119338369392
 23
-114.622960427562
 33
0.0
  0
SOLID
  5
142
330
13D
100
AcDbEntity
  8
1
 62
     2
100
AcDbTrace
 10
157.4119338369392
 20
-114.1621766860061
 30
0.0
 11
157.4119338369392
 21
-115.0837441691179
 31
0.0
 12
153.9119338369392
 22
-114.622960427562
 32
0.0
 13
153.9119338369392
 23
-114.622960427562
 33
0.0
  0
MTEXT
  5
143
330
13D
100
AcDbEntity
  8
1
 62
     2
100
AcDbMText
 10
164.7444218363876
 20
-112.622960427562
 30
0.0
 40
3.5
 41
0.0
 71
     7
 72
     1
  1
27
  7
CONVERTER_11
 11
0.9999999999970621
 21
2.424068405545307E-6
 31
0.0
 73
     1
 44
0.60024009603842
  0
ENDBLK
  5
145
330
13D
100
AcDbEntity
  8
0
100
AcDbBlockEnd
  0
BLOCK
  5
14F
330
148
100
AcDbEntity
  8
0
100
AcDbBlockBegin
  2
*D7
 70
     1
 71
     0
 10
0.0
 20
0.0
 30
0.0
  3
*D7
  1

  0
LINE
  5
149
330
148
100
AcDbEntity
  8
1
  6
Continuous
 62
     2
100
AcDbLine
 10
170.9119338369392
 20
-103.785670014645
 30
0.0
 11
180.9119338369392
 21
-103.785670014645
 31
0.0
  0
LINE
  5
14A
330
148
100
AcDbEntity
  8
1
  6
Continuous
 62
     2
100
AcDbLine
 10
170.9119338369392
 20
-72.12339990768865
 30
0.0
 11
170.9119338369392
 21
-105.785670014645
 31
0.0
  0
LINE
  5
14B
330
148
100
AcDbEntity
  8
1
  6
Continuous
 62
     2
100
AcDbLine
 10
180.9119338369392
 20
-94.62339990768866
 30
0.0
 11
180.9119338369392
 21
-105.785670014645
 31
0.0
  0
SOLID
  5
14C
330
148
100
AcDbEntity
  8
1
 62
     2
100
AcDbTrace
 10
174.4119338369392
 20
-103.3248862730891
 30
0.0
 11
174.4119338369392
 21
-104.2464537562009
 31
0.0
 12
170.9119338369392
 22
-103.785670014645
 32
0.0
 13
170.9119338369392
 23
-103.785670014645
 33
0.0
  0
SOLID
  5
14D
330
148
100
AcDbEntity
  8
1
 62
     2
100
AcDbTrace
 10
177.4119338369392
 20
-104.2464537562009
 30
0.0
 11
177.4119338369392
 21
-103.3248862730891
 31
0.0
 12
180.9119338369392
 22
-103.785670014645
 32
0.0
 13
180.9119338369392
 23
-103.785670014645
 33
0.0
  0
MTEXT
  5
14E
330
148
100
AcDbEntity
  8
1
 62
     2
100
AcDbMText
 10
173.330422172949
 20
-101.785670014645
 30
0.0
 40
3.5
 41
0.0
 71
     7
 72
     1
  1
10
  7
CONVERTER_11
 11
0.9999999999970621
 21
2.424068405545307E-6
 31
0.0
 73
     1
 44
0.60024009603842
  0
ENDBLK
  5
150
330
148
100
AcDbEntity
  8
0
100
AcDbBlockEnd
  0
BLOCK
  5
15A
330
153
100
AcDbEntity
  8
0
100
AcDbBlockBegin
  2
*D8
 70
     1
 71
     0
 10
0.0
 20
0.0
 30
0.0
  3
*D8
  1

  0
LINE
  5
154
330
153
100
AcDbEntity
  8
1
  6
Continuous
 62
     2
100
AcDbLine
 10
-68.80177865188125
 20
-118.2833961103276
 30
0.0
 11
-92.80488390961862
 21
-118.2833961103276
 31
0.0
  0
LINE
  5
155
330
153
100
AcDbEntity
  8
1
  6
Continuous
 62
     2
100
AcDbLine
 10
-92.80488390961862
 20
-60.62339990768861
 30
0.0
 11
-92.80488390961862
 21
-120.2833961103276
 31
0.0
  0
LINE
  5
156
330
153
100
AcDbEntity
  8
1
  6
Continuous
 62
     2
100
AcDbLine
 10
-68.80177865188125
 20
-72.12339990768865
 30
0.0
 11
-68.80177865188125
 21
-120.2833961103276
 31
0.0
  0
SOLID
  5
157
330
153
100
AcDbEntity
  8
1
 62
     2
100
AcDbTrace
 10
-72.30177865188125
 20
-118.7441798518835
 30
0.0
 11
-72.30177865188125
 21
-117.8226123687717
 31
0.0
 12
-68.80177865188125
 22
-118.2833961103276
 32
0.0
 13
-68.80177865188125
 23
-118.2833961103276
 33
0.0
  0
SOLID
  5
158
330
153
100
AcDbEntity
  8
1
 62
     2
100
AcDbTrace
 10
-89.30488390961862
 20
-117.8226123687717
 30
0.0
 11
-89.30488390961862
 21
-118.7441798518835
 31
0.0
 12
-92.80488390961862
 22
-118.2833961103276
 32
0.0
 13
-92.80488390961862
 23
-118.2833961103276
 33
0.0
  0
MTEXT
  5
159
330
153
100
AcDbEntity
  8
1
 62
     2
100
AcDbMText
 10
-83.60099419807557
 20
-116.2833961103276
 30
0.0
 40
3.5
 41
0.0
 71
     7
 72
     1
  1
24
  7
CONVERTER_11
 11
0.9999999999970621
 21
2.424068405545307E-6
 31
0.0
 73
     1
 44
0.60024009603842
  0
ENDBLK
  5
15B
330
153
100
AcDbEntity
  8
0
100
AcDbBlockEnd
  0
BLOCK
  5
165
330
15E
100
AcDbEntity
  8
0
100
AcDbBlockBegin
  2
*D9
 70
     1
 71
     0
 10
0.0
 20
0.0
 30
0.0
  3
*D9
  1

  0
LINE
  5
15F
330
15E
100
AcDbEntity
  8
1
  6
Continuous
 62
     2
100
AcDbLine
 10
110.769916730974
 20
65.37660009231134
 30
0.0
 11
110.769916730974
 21
-54.62339990768866
 31
0.0
  0
LINE
  5
160
330
15E
100
AcDbEntity
  8
1
  6
Continuous
 62
     2
100
AcDbLine
 10
87.19860034321128
 20
-54.62339990768866
 30
0.0
 11
112.769916730974
 21
-54.62339990768866
 31
0.0
  0
LINE
  5
161
330
15E
100
AcDbEntity
  8
1
  6
Continuous
 62
     2
100
AcDbLine
 10
87.19860034321128
 20
65.37660009231134
 30
0.0
 11
112.769916730974
 21
65.37660009231134
 31
0.0
  0
SOLID
  5
162
330
15E
100
AcDbEntity
  8
1
 62
     2
100
AcDbTrace
 10
111.2307004725299
 20
61.87660009231134
 30
0.0
 11
110.3091329894181
 21
61.87660009231134
 31
0.0
 12
110.769916730974
 22
65.37660009231134
 32
0.0
 13
110.769916730974
 23
65.37660009231134
 33
0.0
  0
SOLID
  5
163
330
15E
100
AcDbEntity
  8
1
 62
     2
100
AcDbTrace
 10
110.3091329894181
 20
-51.12339990768866
 30
0.0
 11
111.2307004725299
 21
-51.12339990768866
 31
0.0
 12
110.769916730974
 22
-54.62339990768866
 32
0.0
 13
110.769916730974
 23
-54.62339990768866
 33
0.0
  0
MTEXT
  5
164
330
15E
100
AcDbEntity
  8
1
 62
     2
100
AcDbMText
 10
108.769916730974
 20
-0.07112963725349
 30
0.0
 40
3.5
 41
0.0
 71
     7
 72
     1
  1
120
  7
CONVERTER_11
 11
0.0
 21
1.0
 31
0.0
 73
     1
 44
0.60024009603842
  0
ENDBLK
  5
166
330
15E
100
AcDbEntity
  8
0
100
AcDbBlockEnd
  0
BLOCK
  5
170
330
169
100
AcDbEntity
  8
0
100
AcDbBlockBegin
  2
*D10
 70
     1
 71
     0
 10
0.0
 20
0.0
 30
0.0
  3
*D10
  1

  0
LINE
  5
16A
330
169
100
AcDbEntity
  8
1
  6
Continuous
 62
     2
100
AcDbLine
 10
129.164495411211
 20
-72.12339990768865
 30
0.0
 11
129.164495411211
 21
82.87660009231135
 31
0.0
  0
LINE
  5
16B
330
169
100
AcDbEntity
  8
1
  6
Continuous
 62
     2
100
AcDbLine
 10
88.19860034321124
 20
-72.12339990768865
 30
0.0
 11
131.164495411211
 21
-72.12339990768865
 31
0.0
  0
LINE
  5
16C
330
169
100
AcDbEntity
  8
1
  6
Continuous
 62
     2
100
AcDbLine
 10
88.19860034321125
 20
82.87660009231135
 30
0.0
 11
131.164495411211
 21
82.87660009231135
 31
0.0
  0
SOLID
  5
16D
330
169
100
AcDbEntity
  8
1
 62
     2
100
AcDbTrace
 10
128.7037116696551
 20
-68.62339990768865
 30
0.0
 11
129.6252791527669
 21
-68.62339990768865
 31
0.0
 12
129.164495411211
 22
-72.12339990768865
 32
0.0
 13
129.164495411211
 23
-72.12339990768865
 33
0.0
  0
SOLID
  5
16E
330
169
100
AcDbEntity
  8
1
 62
     2
100
AcDbTrace
 10
129.6252791527669
 20
79.37660009231135
 30
0.0
 11
128.7037116696551
 21
79.37660009231135
 31
0.0
 12
129.164495411211
 22
82.87660009231135
 32
0.0
 13
129.164495411211
 23
82.87660009231135
 33
0.0
  0
MTEXT
  5
16F
330
169
100
AcDbEntity
  8
1
 62
     2
100
AcDbMText
 10
127.164495411211
 20
2.57738840697301
 30
0.0
 40
3.5
 41
0.0
 71
     7
 72
     1
  1
155
  7
CONVERTER_11
 11
0.0
 21
1.0
 31
0.0
 73
     1
 44
0.60024009603842
  0
ENDBLK
  5
171
330
169
100
AcDbEntity
  8
0
100
AcDbBlockEnd
  0
BLOCK
  5
17B
330
174
100
AcDbEntity
  8
0
100
AcDbBlockBegin
  2
*D11
 70
     1
 71
     0
 10
0.0
 20
0.0
 30
0.0
  3
*D11
  1

  0
LINE
  5
175
330
174
100
AcDbEntity
  8
1
  6
Continuous
 62
     2
100
AcDbLine
 10
95.19860034321128
 20
16.3048182481224
 30
0.0
 11
79.19860034321128
 21
16.3048182481224
 31
0.0
  0
LINE
  5
176
330
174
100
AcDbEntity
  8
1
  6
Continuous
 62
     2
100
AcDbLine
 10
79.19860034321128
 20
5.37660009231135
 30
0.0
 11
79.19860034321128
 21
18.3048182481224
 31
0.0
  0
LINE
  5
177
330
174
100
AcDbEntity
  8
1
  6
Continuous
 62
     2
100
AcDbLine
 10
95.19860034321128
 20
-46.62339990768864
 30
0.0
 11
95.19860034321128
 21
18.3048182481224
 31
0.0
  0
SOLID
  5
178
330
174
100
AcDbEntity
  8
1
 62
     2
100
AcDbTrace
 10
91.69860034321128
 20
15.84403450656652
 30
0.0
 11
91.69860034321128
 21
16.76560198967829
 31
0.0
 12
95.19860034321128
 22
16.3048182481224
 32
0.0
 13
95.19860034321128
 23
16.3048182481224
 33
0.0
  0
SOLID
  5
179
330
174
100
AcDbEntity
  8
1
 62
     2
100
AcDbTrace
 10
82.69860034321128
 20
16.76560198967829
 30
0.0
 11
82.69860034321128
 21
15.84403450656652
 31
0.0
 12
79.19860034321128
 22
16.3048182481224
 32
0.0
 13
79.19860034321128
 23
16.3048182481224
 33
0.0
  0
MTEXT
  5
17A
330
174
100
AcDbEntity
  8
1
 62
     2
100
AcDbMText
 10
82.6020811065338
 20
18.3048182481224
 30
0.0
 40
3.5
 41
0.0
 71
     7
 72
     1
  1
16
  7
CONVERTER_11
 11
0.9999999999970621
 21
2.424068405545307E-6
 31
0.0
 73
     1
 44
0.60024009603842
  0
ENDBLK
  5
17C
330
174
100
AcDbEntity
  8
0
100
AcDbBlockEnd
  0
BLOCK
  5
186
330
17F
100
AcDbEntity
  8
0
100
AcDbBlockBegin
  2
*D12
 70
     1
 71
     0
 10
0.0
 20
0.0
 30
0.0
  3
*D12
  1

  0
LINE
  5
180
330
17F
100
AcDbEntity
  8
1
  6
Continuous
 62
     2
100
AcDbLine
 10
97.19860034321127
 20
-105.781584343866
 30
0.0
 11
79.19860034321128
 21
-105.781584343866
 31
0.0
  0
LINE
  5
181
330
17F
100
AcDbEntity
  8
1
  6
Continuous
 62
     2
100
AcDbLine
 10
97.19860034321127
 20
-63.12339990768866
 30
0.0
 11
97.19860034321127
 21
-107.781584343866
 31
0.0
  0
LINE
  5
182
330
17F
100
AcDbEntity
  8
1
  6
Continuous
 62
     2
100
AcDbLine
 10
79.19860034321128
 20
-63.12339990768866
 30
0.0
 11
79.19860034321128
 21
-107.781584343866
 31
0.0
  0
SOLID
  5
183
330
17F
100
AcDbEntity
  8
1
 62
     2
100
AcDbTrace
 10
93.69860034321127
 20
-106.2423680854219
 30
0.0
 11
93.69860034321127
 21
-105.3208006023101
 31
0.0
 12
97.19860034321127
 22
-105.781584343866
 32
0.0
 13
97.19860034321127
 23
-105.781584343866
 33
0.0
  0
SOLID
  5
184
330
17F
100
AcDbEntity
  8
1
 62
     2
100
AcDbTrace
 10
82.69860034321128
 20
-105.3208006023101
 30
0.0
 11
82.69860034321128
 21
-106.2423680854219
 31
0.0
 12
79.19860034321128
 22
-105.781584343866
 32
0.0
 13
79.19860034321128
 23
-105.781584343866
 33
0.0
  0
MTEXT
  5
185
330
17F
100
AcDbEntity
  8
1
 62
     2
100
AcDbMText
 10
84.790868300829
 20
-103.781584343866
 30
0.0
 40
3.5
 41
0.0
 71
     7
 72
     1
  1
18
  7
CONVERTER_11
 11
0.9999999999970621
 21
2.424068405545307E-6
 31
0.0
 73
     1
 44
0.60024009603842
  0
ENDBLK
  5
187
330
17F
100
AcDbEntity
  8
0
100
AcDbBlockEnd
  0
BLOCK
  5
193
330
18A
100
AcDbEntity
  8
0
100
AcDbBlockBegin
  2
*D13
 70
     1
 71
     0
 10
0.0
 20
0.0
 30
0.0
  3
*D13
  1

  0
LINE
  5
18B
330
18A
100
AcDbEntity
  8
1
  6
Continuous
 62
     2
100
AcDbLine
 10
97.19860034321127
 20
-105.781584343866
 30
0.0
 11
90.19860034321127
 21
-105.781584343866
 31
0.0
  0
LINE
  5
18C
330
18A
100
AcDbEntity
  8
1
  6
Continuous
 62
     2
100
AcDbLine
 10
101.1986003432113
 20
-105.781584343866
 30
0.0
 11
97.19860034321127
 21
-105.781584343866
 31
0.0
  0
LINE
  5
18D
330
18A
100
AcDbEntity
  8
1
  6
Continuous
 62
     2
100
AcDbLine
 10
108.640539035212
 20
-105.781584343866
 30
0.0
 11
101.1986003432113
 21
-105.781584343866
 31
0.0
  0
LINE
  5
18E
330
18A
100
AcDbEntity
  8
1
  6
Continuous
 62
     2
100
AcDbLine
 10
101.1986003432113
 20
-94.62339990768866
 30
0.0
 11
101.1986003432113
 21
-107.781584343866
 31
0.0
  0
LINE
  5
18F
330
18A
100
AcDbEntity
  8
1
  6
Continuous
 62
     2
100
AcDbLine
 10
97.19860034321127
 20
-63.12339990768866
 30
0.0
 11
97.19860034321127
 21
-107.781584343866
 31
0.0
  0
SOLID
  5
190
330
18A
100
AcDbEntity
  8
1
 62
     2
100
AcDbTrace
 10
104.6986003432113
 20
-105.3208006023101
 30
0.0
 11
104.6986003432113
 21
-106.2423680854219
 31
0.0
 12
101.1986003432113
 22
-105.781584343866
 32
0.0
 13
101.1986003432113
 23
-105.781584343866
 33
0.0
  0
SOLID
  5
191
330
18A
100
AcDbEntity
  8
1
 62
     2
100
AcDbTrace
 10
93.69860034321127
 20
-106.2423680854219
 30
0.0
 11
93.69860034321127
 21
-105.3208006023101
 31
0.0
 12
97.19860034321127
 22
-105.781584343866
 32
0.0
 13
97.19860034321127
 23
-105.781584343866
 33
0.0
  0
MTEXT
  5
192
330
18A
100
AcDbEntity
  8
1
 62
     2
100
AcDbMText
 10
106.540539035212
 20
-103.781584343866
 30
0.0
 40
3.5
 41
0.0
 71
     7
 72
     1
  1
4
  7
CONVERTER_11
 11
0.9999999999970621
 21
2.424068405545307E-6
 31
0.0
 73
     1
 44
0.60024009603842
  0
ENDBLK
  5
194
330
18A
100
AcDbEntity
  8
0
100
AcDbBlockEnd
  0
BLOCK
  5
19E
330
197
100
AcDbEntity
  8
0
100
AcDbBlockBegin
  2
*D14
 70
     1
 71
     0
 10
0.0
 20
0.0
 30
0.0
  3
*D14
  1

  0
LINE
  5
198
330
197
100
AcDbEntity
  8
1
  6
Continuous
 62
     2
100
AcDbLine
 10
-168.1092983114338
 20
-107.5759847602375
 30
0.0
 11
-189.1092983114338
 21
-107.5759847602375
 31
0.0
  0
LINE
  5
199
330
197
100
AcDbEntity
  8
1
  6
Continuous
 62
     2
100
AcDbLine
 10
-189.1092983114338
 20
-61.62339990768866
 30
0.0
 11
-189.1092983114338
 21
-109.5759847602375
 31
0.0
  0
LINE
  5
19A
330
197
100
AcDbEntity
  8
1
  6
Continuous
 62
     2
100
AcDbLine
 10
-168.1092983114338
 20
-61.62339990768866
 30
0.0
 11
-168.1092983114338
 21
-109.5759847602375
 31
0.0
  0
SOLID
  5
19B
330
197
100
AcDbEntity
  8
1
 62
     2
100
AcDbTrace
 10
-171.6092983114338
 20
-108.0367685017934
 30
0.0
 11
-171.6092983114338
 21
-107.1152010186816
 31
0.0
 12
-168.1092983114338
 22
-107.5759847602375
 32
0.0
 13
-168.1092983114338
 23
-107.5759847602375
 33
0.0
  0
SOLID
  5
19C
330
197
100
AcDbEntity
  8
1
 62
     2
100
AcDbTrace
 10
-185.6092983114338
 20
-107.1152010186816
 30
0.0
 11
-185.6092983114338
 21
-108.0367685017934
 31
0.0
 12
-189.1092983114338
 22
-107.5759847602375
 32
0.0
 13
-189.1092983114338
 23
-107.5759847602375
 33
0.0
  0
MTEXT
  5
19D
330
197
100
AcDbEntity
  8
1
 62
     2
100
AcDbMText
 10
-180.9452342178087
 20
-105.5759847602375
 30
0.0
 40
3.5
 41
0.0
 71
     7
 72
     1
  1
21
  7
CONVERTER_11
 11
0.9999999999970621
 21
2.424068405545307E-6
 31
0.0
 73
     1
 44
0.60024009603842
  0
ENDBLK
  5
19F
330
197
100
AcDbEntity
  8
0
100
AcDbBlockEnd
  0
BLOCK
  5
1A9
330
1A2
100
AcDbEntity
  8
0
100
AcDbBlockBegin
  2
*D15
 70
     1
 71
     0
 10
0.0
 20
0.0
 30
0.0
  3
*D15
  1

  0
LINE
  5
1A3
330
1A2
100
AcDbEntity
  8
1
  6
Continuous
 62
     2
100
AcDbLine
 10
-186.1092983114338
 20
28.4188748070954
 30
0.0
 11
-168.1092983114338
 21
28.4188748070954
 31
0.0
  0
LINE
  5
1A4
330
1A2
100
AcDbEntity
  8
1
  6
Continuous
 62
     2
100
AcDbLine
 10
-168.1092983114338
 20
72.37660009231135
 30
0.0
 11
-168.1092983114338
 21
26.4188748070954
 31
0.0
  0
LINE
  5
1A5
330
1A2
100
AcDbEntity
  8
1
  6
Continuous
 62
     2
100
AcDbLine
 10
-186.1092983114338
 20
62.37660009231134
 30
0.0
 11
-186.1092983114338
 21
26.4188748070954
 31
0.0
  0
SOLID
  5
1A6
330
1A2
100
AcDbEntity
  8
1
 62
     2
100
AcDbTrace
 10
-182.6092983114338
 20
28.87965854865129
 30
0.0
 11
-182.6092983114338
 21
27.95809106553951
 31
0.0
 12
-186.1092983114338
 22
28.4188748070954
 32
0.0
 13
-186.1092983114338
 23
28.4188748070954
 33
0.0
  0
SOLID
  5
1A7
330
1A2
100
AcDbEntity
  8
1
 62
     2
100
AcDbTrace
 10
-171.6092983114338
 20
27.95809106553951
 30
0.0
 11
-171.6092983114338
 21
28.87965854865129
 31
0.0
 12
-168.1092983114338
 22
28.4188748070954
 32
0.0
 13
-168.1092983114338
 23
28.4188748070954
 33
0.0
  0
MTEXT
  5
1A8
330
1A2
100
AcDbEntity
  8
1
 62
     2
100
AcDbMText
 10
-175.6515473033972
 20
30.4188748070954
 30
0.0
 40
3.5
 41
0.0
 71
     7
 72
     1
  1
18
  7
CONVERTER_11
 11
0.9999999999970621
 21
2.424068405545307E-6
 31
0.0
 73
     1
 44
0.60024009603842
  0
ENDBLK
  5
1AA
330
1A2
100
AcDbEntity
  8
0
100
AcDbBlockEnd
  0
BLOCK
  5
1B4
330
1AD
100
AcDbEntity
  8
0
100
AcDbBlockBegin
  2
*D16
 70
     1
 71
     0
 10
0.0
 20
0.0
 30
0.0
  3
*D16
  1

  0
LINE
  5
1AE
330
1AD
100
AcDbEntity
  8
1
  6
Continuous
 62
     2
100
AcDbLine
 10
-126.887717566138
 20
82.87660009231135
 30
0.0
 11
-126.887717566138
 21
-72.12339990768865
 31
0.0
  0
LINE
  5
1AF
330
1AD
100
AcDbEntity
  8
1
  6
Continuous
 62
     2
100
AcDbLine
 10
-178.6092983114338
 20
82.87660009231135
 30
0.0
 11
-124.887717566138
 21
82.87660009231135
 31
0.0
  0
LINE
  5
1B0
330
1AD
100
AcDbEntity
  8
1
  6
Continuous
 62
     2
100
AcDbLine
 10
-178.6092983114338
 20
-72.12339990768865
 30
0.0
 11
-124.887717566138
 21
-72.12339990768865
 31
0.0
  0
SOLID
  5
1B1
330
1AD
100
AcDbEntity
  8
1
 62
     2
100
AcDbTrace
 10
-126.4269338245821
 20
79.37660009231135
 30
0.0
 11
-127.3485013076939
 21
79.37660009231135
 31
0.0
 12
-126.887717566138
 22
82.87660009231135
 32
0.0
 13
-126.887717566138
 23
82.87660009231135
 33
0.0
  0
SOLID
  5
1B2
330
1AD
100
AcDbEntity
  8
1
 62
     2
100
AcDbTrace
 10
-127.3485013076939
 20
-68.62339990768865
 30
0.0
 11
-126.4269338245821
 21
-68.62339990768865
 31
0.0
 12
-126.887717566138
 22
-72.12339990768865
 32
0.0
 13
-126.887717566138
 23
-72.12339990768865
 33
0.0
  0
MTEXT
  5
1B3
330
1AD
100
AcDbEntity
  8
1
 62
     2
100
AcDbMText
 10
-128.887717566138
 20
3.14486230664208
 30
0.0
 40
3.5
 41
0.0
 71
     7
 72
     1
  1
155
  7
CONVERTER_11
 11
0.0
 21
1.0
 31
0.0
 73
     1
 44
0.60024009603842
  0
ENDBLK
  5
1B5
330
1AD
100
AcDbEntity
  8
0
100
AcDbBlockEnd
  0
BLOCK
  5
1BF
330
1B8
100
AcDbEntity
  8
0
100
AcDbBlockBegin
  2
*D17
 70
     1
 71
     0
 10
0.0
 20
0.0
 30
0.0
  3
*D17
  1

  0
LINE
  5
1B9
330
1B8
100
AcDbEntity
  8
1
  6
Continuous
 62
     2
100
AcDbLine
 10
-151.908988527876
 20
71.37660009231135
 30
0.0
 11
-151.908988527876
 21
-60.62339990768865
 31
0.0
  0
LINE
  5
1BA
330
1B8
100
AcDbEntity
  8
1
  6
Continuous
 62
     2
100
AcDbLine
 10
-177.1092983114338
 20
-60.62339990768865
 30
0.0
 11
-149.908988527876
 21
-60.62339990768865
 31
0.0
  0
LINE
  5
1BB
330
1B8
100
AcDbEntity
  8
1
  6
Continuous
 62
     2
100
AcDbLine
 10
-177.1092983114338
 20
71.37660009231135
 30
0.0
 11
-149.908988527876
 21
71.37660009231135
 31
0.0
  0
SOLID
  5
1BC
330
1B8
100
AcDbEntity
  8
1
 62
     2
100
AcDbTrace
 10
-151.4482047863201
 20
67.87660009231135
 30
0.0
 11
-152.3697722694319
 21
67.87660009231135
 31
0.0
 12
-151.908988527876
 22
71.37660009231135
 32
0.0
 13
-151.908988527876
 23
71.37660009231135
 33
0.0
  0
SOLID
  5
1BD
330
1B8
100
AcDbEntity
  8
1
 62
     2
100
AcDbTrace
 10
-152.3697722694319
 20
-57.12339990768865
 30
0.0
 11
-151.4482047863201
 21
-57.12339990768865
 31
0.0
 12
-151.908988527876
 22
-60.62339990768865
 32
0.0
 13
-151.908988527876
 23
-60.62339990768865
 33
0.0
  0
MTEXT
  5
1BE
330
1B8
100
AcDbEntity
  8
1
 62
     2
100
AcDbMText
 10
-153.908988527876
 20
0.95000743621877
 30
0.0
 40
3.5
 41
0.0
 71
     7
 72
     1
  1
132
  7
CONVERTER_11
 11
0.0
 21
1.0
 31
0.0
 73
     1
 44
0.60024009603842
  0
ENDBLK
  5
1C0
330
1B8
100
AcDbEntity
  8
0
100
AcDbBlockEnd
  0
BLOCK
  5
1CC
330
1C3
100
AcDbEntity
  8
0
100
AcDbBlockBegin
  2
*D18
 70
     1
 71
     0
 10
0.0
 20
0.0
 30
0.0
  3
*D18
  1

  0
LINE
  5
1C4
330
1C3
100
AcDbEntity
  8
1
  6
Continuous
 62
     2
100
AcDbLine
 10
-199.1092983114338
 20
-107.635225276103
 30
0.0
 11
-192.1092983114338
 21
-107.635225276103
 31
0.0
  0
LINE
  5
1C5
330
1C3
100
AcDbEntity
  8
1
  6
Continuous
 62
     2
100
AcDbLine
 10
-192.1092983114338
 20
-107.635225276103
 30
0.0
 11
-189.1092983114338
 21
-107.635225276103
 31
0.0
  0
LINE
  5
1C6
330
1C3
100
AcDbEntity
  8
1
  6
Continuous
 62
     2
100
AcDbLine
 10
-189.1092983114338
 20
-107.635225276103
 30
0.0
 11
-182.1092983114338
 21
-107.635225276103
 31
0.0
  0
LINE
  5
1C7
330
1C3
100
AcDbEntity
  8
1
  6
Continuous
 62
     2
100
AcDbLine
 10
-189.1092983114338
 20
-61.62339990768865
 30
0.0
 11
-189.1092983114338
 21
-109.635225276103
 31
0.0
  0
LINE
  5
1C8
330
1C3
100
AcDbEntity
  8
1
  6
Continuous
 62
     2
100
AcDbLine
 10
-192.1092983114338
 20
-94.62339990768865
 30
0.0
 11
-192.1092983114338
 21
-109.635225276103
 31
0.0
  0
SOLID
  5
1C9
330
1C3
100
AcDbEntity
  8
1
 62
     2
100
AcDbTrace
 10
-195.6092983114338
 20
-108.0960090176589
 30
0.0
 11
-195.6092983114338
 21
-107.1744415345471
 31
0.0
 12
-192.1092983114338
 22
-107.635225276103
 32
0.0
 13
-192.1092983114338
 23
-107.635225276103
 33
0.0
  0
SOLID
  5
1CA
330
1C3
100
AcDbEntity
  8
1
 62
     2
100
AcDbTrace
 10
-185.6092983114338
 20
-107.1744415345471
 30
0.0
 11
-185.6092983114338
 21
-108.0960090176589
 31
0.0
 12
-189.1092983114338
 22
-107.635225276103
 32
0.0
 13
-189.1092983114338
 23
-107.635225276103
 33
0.0
  0
MTEXT
  5
1CB
330
1C3
100
AcDbEntity
  8
1
 62
     2
100
AcDbMText
 10
-197.669257011963
 20
-105.635225276103
 30
0.0
 40
3.5
 41
0.0
 71
     7
 72
     1
  1
3
  7
CONVERTER_11
 11
0.9999999999970621
 21
2.424068405545307E-6
 31
0.0
 73
     1
 44
0.60024009603842
  0
ENDBLK
  5
1CD
330
1C3
100
AcDbEntity
  8
0
100
AcDbBlockEnd
  0
BLOCK
  5
1D4
330
1D0
100
AcDbEntity
  8
0
100
AcDbBlockBegin
  2
*D19
 70
     1
 71
     0
 10
0.0
 20
0.0
 30
0.0
  3
*D19
  1

  0
LINE
  5
1D1
330
1D0
100
AcDbEntity
  8
1
  6
Continuous
 62
     2
100
AcDbLine
 10
-185.0909302361
 20
66.53515174152166
 30
0.0
 11
-203.5853763311428
 21
76.17103949426189
 31
0.0
  0
SOLID
  5
1D2
330
1D0
100
AcDbEntity
  8
1
 62
     2
100
AcDbTrace
 10
-188.4078085388453
 20
67.74372113599573
 30
0.0
 11
-187.9819878747616
 21
68.56101140754453
 31
0.0
 12
-185.0909302361
 22
66.53515174152166
 32
0.0
 13
-185.0909302361
 23
66.53515174152166
 33
0.0
  0
MTEXT
  5
1D3
330
1D0
100
AcDbEntity
  8
1
 62
     2
100
AcDbMText
 10
-201.481745913562
 20
77.33019395602663
 30
0.0
 40
3.5
 41
0.0
 71
     7
 72
     1
  1
\C2;R\C2;9
  7
CONVERTER_11
 11
0.8868479916295751
 21
-0.4620612943567002
 31
0.0
 73
     1
 44
0.60024009603842
  0
ENDBLK
  5
1D5
330
1D0
100
AcDbEntity
  8
0
100
AcDbBlockEnd
  0
BLOCK
  5
1DD
330
1D7
100
AcDbEntity
  8
0
100
AcDbBlockBegin
  2
*D20
 70
     1
 71
     0
 10
0.0
 20
0.0
 30
0.0
  3
*D20
  1

  0
LINE
  5
1D8
330
1D7
100
AcDbEntity
  8
1
  6
Continuous
 62
     2
100
AcDbLine
 10
89.2844468765529
 20
75.34173908423828
 30
0.0
 11
93.08490974324856
 21
71.71972555598258
 31
0.0
  0
LINE
  5
1D9
330
1D7
100
AcDbEntity
  8
1
  6
Continuous
 62
     2
100
AcDbLine
 10
77.66265244320446
 20
86.4178364272954
 30
0.0
 11
87.11275380986966
 21
77.41146110038441
 31
0.0
  0
SOLID
  5
1DA
330
1D7
100
AcDbEntity
  8
1
 62
     2
100
AcDbTrace
 10
84.26121381387908
 20
79.4925765002958
 30
0.0
 11
84.89700998359935
 21
80.15969707148065
 31
0.0
 12
87.11275380986966
 22
77.41146110038441
 32
0.0
 13
87.11275380986966
 23
77.41146110038441
 33
0.0
  0
SOLID
  5
1DB
330
1D7
100
AcDbEntity
  8
1
 62
     2
100
AcDbTrace
 10
92.13598687254348
 20
73.2606236843269
 30
0.0
 11
91.50019070282322
 21
72.59350311314205
 31
0.0
 12
89.2844468765529
 22
75.34173908423828
 32
0.0
 13
89.2844468765529
 23
75.34173908423828
 33
0.0
  0
MTEXT
  5
1DC
330
1D7
100
AcDbEntity
  8
1
 62
     2
100
AcDbMText
 10
79.75188685575175
 20
87.18952261314314
 30
0.0
 40
3.5
 41
0.0
 71
     7
 72
     1
  1
\C2;ø\C2;3
  7
CONVERTER_11
 11
0.7238976888944111
 21
-0.6899073387153745
 31
0.0
 73
     1
 44
0.60024009603842
  0
ENDBLK
  5
1DE
330
1D7
100
AcDbEntity
  8
0
100
AcDbBlockEnd
  0
BLOCK
  5
1E5
330
1E0
100
AcDbEntity
  8
0
100
AcDbBlockBegin
  2
*D21
 70
     1
 71
     0
 10
0.0
 20
0.0
 30
0.0
  3
*D21
  1

  0
LINE
  5
1E1
330
1E0
100
AcDbEntity
  8
1
  6
Continuous
 62
     2
100
AcDbLine
 10
-186.5675802280361
 20
-53.48787046254078
 30
0.0
 11
-124.9617855778472
 21
-101.4112062805115
 31
0.0
  0
SOLID
  5
1E2
330
1E0
100
AcDbEntity
  8
1
 62
     2
100
AcDbTrace
 10
-166.7493766708148
 20
-68.32072687730538
 30
0.0
 11
-167.3152211534221
 21
-69.048124050404
 31
0.0
 12
-169.7948639466927
 22
-66.53541768589113
 32
0.0
 13
-169.7948639466927
 23
-66.53541768589113
 33
0.0
  0
SOLID
  5
1E3
330
1E0
100
AcDbEntity
  8
1
 62
     2
100
AcDbTrace
 10
-185.4692199520527
 20
-54.9260729380719
 30
0.0
 11
-184.9033754694454
 21
-54.19867576497329
 31
0.0
 12
-182.4237326761748
 22
-56.71138212948616
 32
0.0
 13
-182.4237326761748
 23
-56.71138212948616
 33
0.0
  0
MTEXT
  5
1E4
330
1E0
100
AcDbEntity
  8
1
 62
     2
100
AcDbMText
 10
-145.1712858015924
 20
-83.15629733232879
 30
0.0
 40
3.5
 41
0.0
 71
     7
 72
     1
  1
\C2;Fräser ø\C2;16
  7
CONVERTER_11
 11
0.789304295592631
 21
-0.6140022222753111
 31
0.0
 73
     1
 44
0.60024009603842
  0
ENDBLK
  5
1E6
330
1E0
100
AcDbEntity
  8
0
100
AcDbBlockEnd
  0
BLOCK
  5
1ED
330
1E8
100
AcDbEntity
  8
0
100
AcDbBlockBegin
  2
*D22
 70
     1
 71
     0
 10
0.0
 20
0.0
 30
0.0
  3
*D22
  1

  0
LINE
  5
1E9
330
1E8
100
AcDbEntity
  8
1
  6
Continuous
 62
     2
100
AcDbLine
 10
95.38838876942589
 20
-73.53924675438535
 30
0.0
 11
37.85077311534509
 21
-0.36238779442743
 31
0.0
  0
SOLID
  5
1EA
330
1E8
100
AcDbEntity
  8
1
 62
     2
100
AcDbTrace
 10
79.72825922751602
 20
-54.36804010516569
 30
0.0
 11
80.45270494547736
 21
-53.79842178764384
 31
0.0
 12
82.2538224254968
 22
-56.83458671723029
 32
0.0
 13
82.2538224254968
 23
-56.83458671723029
 33
0.0
  0
SOLID
  5
1EB
330
1E8
100
AcDbEntity
  8
1
 62
     2
100
AcDbTrace
 10
94.66894145890653
 20
-71.87875971021165
 30
0.0
 11
93.94449574094519
 21
-72.4483780277335
 31
0.0
 12
92.14337826092577
 22
-69.41221309814703
 32
0.0
 13
92.14337826092577
 23
-69.41221309814703
 33
0.0
  0
MTEXT
  5
1EC
330
1E8
100
AcDbEntity
  8
1
 62
     2
100
AcDbMText
 10
40.37484616211971
 20
-0.33678985416205
 30
0.0
 40
3.5
 41
0.0
 71
     7
 72
     1
  1
\C2;Fräser ø\C2;16
  7
CONVERTER_11
 11
0.618097239714311
 21
-0.7861016488072962
 31
0.0
 73
     1
 44
0.60024009603842
  0
ENDBLK
  5
1EE
330
1E8
100
AcDbEntity
  8
0
100
AcDbBlockEnd
  0
ENDSEC
  0
SECTION
  2
ENTITIES
  0
POINT
  5
32
330
1F
100
AcDbEntity
  8
1
 62
     3
 60
     1
100
AcDbPoint
 10
95.19860034321128
 20
57.37660009231134
 30
0.0
  0
POINT
  5
33
330
1F
100
AcDbEntity
  8
1
 62
     3
 60
     1
100
AcDbPoint
 10
88.19860034321128
 20
73.87660009231135
 30
0.0
  0
POINT
  5
34
330
1F
100
AcDbEntity
  8
1
 62
     3
 60
     1
100
AcDbPoint
 10
29.3867936726667
 20
-60.69793997026319
 30
0.0
  0
POINT
  5
35
330
1F
100
AcDbEntity
  8
1
 62
     3
 60
     1
100
AcDbPoint
 10
12.38679367266665
 20
-60.69793997026319
 30
0.0
  0
POINT
  5
36
330
1F
100
AcDbEntity
  8
1
 62
     3
 60
     1
100
AcDbPoint
 10
95.19860034321128
 20
5.37660009231135
 30
0.0
  0
POINT
  5
37
330
1F
100
AcDbEntity
  8
1
 62
     3
 60
     1
100
AcDbPoint
 10
101.1986003432113
 20
73.87660009231135
 30
0.0
  0
POINT
  5
38
330
1F
100
AcDbEntity
  8
1
 62
     3
 60
     1
100
AcDbPoint
 10
72.5349461857596
 20
73.87660009231135
 30
0.0
  0
POINT
  5
39
330
1F
100
AcDbEntity
  8
1
 62
     3
 60
     1
100
AcDbPoint
 10
15.38679367266695
 20
-26.69793997026321
 30
0.0
  0
POINT
  5
3A
330
1F
100
AcDbEntity
  8
1
 62
     3
 60
     1
100
AcDbPoint
 10
15.38679367266695
 20
-42.69793997026321
 30
0.0
  0
LINE
  5
3B
330
1F
100
AcDbEntity
  8
1
  6
Continuous
 62
     7
100
AcDbLine
 10
-83.8017786518812
 20
-50.62339990768866
 30
0.0
 11
-83.8017786518812
 21
-72.12339990768865
 31
0.0
  0
LINE
  5
3C
330
1F
100
AcDbEntity
  8
1
  6
Continuous
 62
     7
100
AcDbLine
 10
-83.8017786518812
 20
-72.12339990768865
 30
0.0
 11
-78.80177865188125
 21
-72.12339990768865
 31
0.0
  0
LINE
  5
3D
330
1F
100
AcDbEntity
  8
1
  6
Continuous
 62
     7
100
AcDbLine
 10
-83.8017786518812
 20
82.87660009231135
 30
0.0
 11
-78.80177865188125
 21
82.87660009231135
 31
0.0
  0
LINE
  5
3E
330
1F
100
AcDbEntity
  8
1
  6
Continuous
 62
     7
100
AcDbLine
 10
-83.8017786518812
 20
82.87660009231135
 30
0.0
 11
-83.8017786518812
 21
61.37660009231135
 31
0.0
  0
LINE
  5
3F
330
1F
100
AcDbEntity
  8
1
  6
Continuous
 62
     7
100
AcDbLine
 10
-25.11320632733316
 20
-51.69793997026321
 30
0.0
 11
-11.11320632733327
 21
-51.69793997026321
 31
0.0
  0
LINE
  5
40
330
1F
100
AcDbEntity
  8
1
  6
PHANTOM
 62
     2
100
AcDbLine
 10
-11.11320632733327
 20
-51.69793997026321
 30
0.0
 11
-11.11320632733316
 21
-63.69793997026321
 31
0.0
  0
LINE
  5
41
330
1F
100
AcDbEntity
  8
1
  6
Continuous
 62
     7
100
AcDbLine
 10
-44.11320632733327
 20
-51.69793997026321
 30
0.0
 11
-44.11320632733327
 21
-66.69793997026326
 31
0.0
  0
LINE
  5
42
330
1F
100
AcDbEntity
  8
1
  6
Continuous
 62
     7
100
AcDbLine
 10
-44.11320632733327
 20
-51.69793997026321
 30
0.0
 11
-25.11320632733316
 21
-51.69793997026321
 31
0.0
  0
LINE
  5
43
330
1F
100
AcDbEntity
  8
1
  6
Continuous
 62
     7
100
AcDbLine
 10
-16.11320632733316
 20
-59.69793997026324
 30
0.0
 11
-16.11320632733316
 21
-51.69793997026321
 31
0.0
  0
LINE
  5
44
330
1F
100
AcDbEntity
  8
1
  6
Continuous
 62
     7
100
AcDbLine
 10
-1.11320632733316
 20
-63.69793997026321
 30
0.0
 11
-1.11320632733316
 21
-66.6979399702632
 31
0.0
  0
LINE
  5
45
330
1F
100
AcDbEntity
  8
1
  6
Continuous
 62
     7
100
AcDbLine
 10
-11.11320632733327
 20
-42.6979399702632
 30
0.0
 11
-11.11320632733327
 21
-51.69793997026321
 31
0.0
  0
LINE
  5
46
330
1F
100
AcDbEntity
  8
1
  6
DOT_CENTER
 62
     2
100
AcDbLine
 10
-11.11320632733327
 20
24.08734679886903
 30
0.0
 11
-15.34507646136615
 21
24.08734679886903
 31
0.0
  0
LINE
  5
47
330
1F
100
AcDbEntity
  8
1
  6
Continuous
 62
     7
100
AcDbLine
 10
-11.11320632733316
 20
-63.69793997026321
 30
0.0
 11
-15.11320632733316
 21
-63.69793997026321
 31
0.0
  0
LINE
  5
48
330
1F
100
AcDbEntity
  8
1
  6
Continuous
 62
     7
100
AcDbLine
 10
-1.11320632733316
 20
-66.6979399702632
 30
0.0
 11
-44.11320632733327
 21
-66.69793997026326
 31
0.0
  0
LINE
  5
49
330
1F
100
AcDbEntity
  8
1
  6
DOT_CENTER
 62
     2
100
AcDbLine
 10
11.88679367266684
 20
24.08734679886903
 30
0.0
 11
-11.11320632733327
 21
24.08734679886903
 31
0.0
  0
LINE
  5
4A
330
1F
100
AcDbEntity
  8
1
  6
Continuous
 62
     7
100
AcDbLine
 10
11.88679367266684
 20
-37.69793997026326
 30
0.0
 11
11.88679367266684
 21
24.08734679886903
 31
0.0
  0
LINE
  5
4B
330
1F
100
AcDbEntity
  8
1
  6
Continuous
 62
     7
100
AcDbLine
 10
-1.11320632733327
 20
-37.69793997026321
 30
0.0
 11
11.88679367266684
 21
-37.69793997026326
 31
0.0
  0
LINE
  5
4C
330
1F
100
AcDbEntity
  8
1
  6
Continuous
 62
     7
100
AcDbLine
 10
-25.11320632733316
 20
-59.69793997026325
 30
0.0
 11
-25.11320632733316
 21
-51.69793997026321
 31
0.0
  0
LINE
  5
4D
330
1F
100
AcDbEntity
  8
1
  6
Continuous
 62
     7
100
AcDbLine
 10
-1.11320632733316
 20
-63.69793997026321
 30
0.0
 11
-11.11320632733316
 21
-63.69793997026321
 31
0.0
  0
LINE
  5
4E
330
1F
100
AcDbEntity
  8
1
  6
Continuous
 62
     7
100
AcDbLine
 10
-0.11320632733316
 20
-39.42999077783222
 30
0.0
 11
-0.11320632733316
 21
-38.69793997026326
 31
0.0
  0
LINE
  5
4F
330
1F
100
AcDbEntity
  8
1
  6
Continuous
 62
     7
100
AcDbLine
 10
1.19619474942522
 20
-41.69793997026326
 30
0.0
 11
-0.11320632733316
 21
-39.42999077783222
 31
0.0
  0
LINE
  5
50
330
1F
100
AcDbEntity
  8
1
  6
Continuous
 62
     7
100
AcDbLine
 10
9.57739259590824
 20
-41.69793997026326
 30
0.0
 11
1.19619474942522
 21
-41.69793997026326
 31
0.0
  0
LINE
  5
51
330
1F
100
AcDbEntity
  8
1
  6
Continuous
 62
     7
100
AcDbLine
 10
10.88679367266684
 20
-39.42999077783222
 30
0.0
 11
9.57739259590824
 21
-41.69793997026326
 31
0.0
  0
LINE
  5
52
330
1F
100
AcDbEntity
  8
1
  6
Continuous
 62
     7
100
AcDbLine
 10
10.88679367266684
 20
-38.69793997026326
 30
0.0
 11
10.88679367266684
 21
-39.42999077783222
 31
0.0
  0
LINE
  5
53
330
1F
100
AcDbEntity
  8
1
  6
Continuous
 62
     7
100
AcDbLine
 10
-0.11320632733316
 20
-38.69793997026326
 30
0.0
 11
10.88679367266684
 21
-38.69793997026326
 31
0.0
  0
LINE
  5
54
330
1F
100
AcDbEntity
  8
1
  6
Continuous
 62
     7
100
AcDbLine
 10
11.88679367266684
 20
-39.69793997026326
 30
0.0
 11
11.88679367266684
 21
-37.69793997026326
 31
0.0
  0
LINE
  5
55
330
1F
100
AcDbEntity
  8
1
  6
Continuous
 62
     7
100
AcDbLine
 10
10.15474286509789
 20
-42.69793997026326
 30
0.0
 11
11.88679367266684
 21
-39.69793997026326
 31
0.0
  0
LINE
  5
56
330
1F
100
AcDbEntity
  8
1
  6
Continuous
 62
     7
100
AcDbLine
 10
0.61884448023557
 20
-42.69793997026326
 30
0.0
 11
10.15474286509789
 21
-42.69793997026326
 31
0.0
  0
LINE
  5
57
330
1F
100
AcDbEntity
  8
1
  6
Continuous
 62
     7
100
AcDbLine
 10
-1.11320632733316
 20
-39.69793997026326
 30
0.0
 11
0.61884448023557
 21
-42.69793997026326
 31
0.0
  0
LINE
  5
58
330
1F
100
AcDbEntity
  8
1
  6
DOT_CENTER
 62
     2
100
AcDbLine
 10
11.88679367266684
 20
24.08734679886903
 30
0.0
 11
18.90126688979774
 21
24.08734679886903
 31
0.0
  0
LINE
  5
59
330
1F
100
AcDbEntity
  8
1
  6
PHANTOM
 62
     2
100
AcDbLine
 10
-15.11320632733327
 20
6.30206002973679
 30
0.0
 11
-15.11320632733316
 21
-63.69793997026321
 31
0.0
  0
LINE
  5
5A
330
1F
100
AcDbEntity
  8
1
  6
PHANTOM
 62
     2
100
AcDbLine
 10
-11.11320632733327
 20
6.30206002973679
 30
0.0
 11
-15.11320632733327
 21
6.30206002973679
 31
0.0
  0
LINE
  5
5B
330
1F
100
AcDbEntity
  8
1
  6
PHANTOM
 62
     2
100
AcDbLine
 10
5.38679367266673
 20
-3.69793997026321
 30
0.0
 11
-16.61320632733327
 21
-3.69793997026321
 31
0.0
  0
LINE
  5
5C
330
1F
100
AcDbEntity
  8
1
  6
PHANTOM
 62
     2
100
AcDbLine
 10
-11.11320632733339
 20
-6.44793997026321
 30
0.0
 11
-12.86320632733339
 21
-6.44793997026321
 31
0.0
  0
LINE
  5
5D
330
1F
100
AcDbEntity
  8
1
  6
PHANTOM
 62
     2
100
AcDbLine
 10
-12.86320632733339
 20
-6.44793997026321
 30
0.0
 11
-15.11320632733339
 21
-8.69793997026322
 31
0.0
  0
LINE
  5
5E
330
1F
100
AcDbEntity
  8
1
  6
PHANTOM
 62
     2
100
AcDbLine
 10
-11.11320632733339
 20
-0.94793997026321
 30
0.0
 11
-12.86320632733339
 21
-0.94793997026321
 31
0.0
  0
LINE
  5
5F
330
1F
100
AcDbEntity
  8
1
  6
PHANTOM
 62
     2
100
AcDbLine
 10
-12.86320632733339
 20
-0.94793997026321
 30
0.0
 11
-15.11320632733339
 21
1.30206002973679
 31
0.0
  0
LINE
  5
60
330
1F
100
AcDbEntity
  8
1
  6
PHANTOM
 62
     2
100
AcDbLine
 10
-12.86320632733339
 20
-6.44793997026321
 30
0.0
 11
-12.86320632733339
 21
-0.94793997026321
 31
0.0
  0
LINE
  5
61
330
1F
100
AcDbEntity
  8
1
  6
PHANTOM
 62
     2
100
AcDbLine
 10
5.38679367266673
 20
-20.69793997026322
 30
0.0
 11
-16.61320632733327
 21
-20.69793997026322
 31
0.0
  0
LINE
  5
62
330
1F
100
AcDbEntity
  8
1
  6
PHANTOM
 62
     2
100
AcDbLine
 10
-11.11320632733339
 20
-23.44793997026322
 30
0.0
 11
-12.86320632733339
 21
-23.44793997026322
 31
0.0
  0
LINE
  5
63
330
1F
100
AcDbEntity
  8
1
  6
PHANTOM
 62
     2
100
AcDbLine
 10
-12.86320632733339
 20
-23.44793997026322
 30
0.0
 11
-15.11320632733339
 21
-25.69793997026322
 31
0.0
  0
LINE
  5
64
330
1F
100
AcDbEntity
  8
1
  6
PHANTOM
 62
     2
100
AcDbLine
 10
-11.11320632733339
 20
-17.94793997026322
 30
0.0
 11
-12.86320632733339
 21
-17.94793997026322
 31
0.0
  0
LINE
  5
65
330
1F
100
AcDbEntity
  8
1
  6
PHANTOM
 62
     2
100
AcDbLine
 10
-12.86320632733339
 20
-17.94793997026322
 30
0.0
 11
-15.11320632733339
 21
-15.6979399702632
 31
0.0
  0
LINE
  5
66
330
1F
100
AcDbEntity
  8
1
  6
PHANTOM
 62
     2
100
AcDbLine
 10
-12.86320632733339
 20
-23.44793997026322
 30
0.0
 11
-12.86320632733339
 21
-17.94793997026322
 31
0.0
  0
LINE
  5
67
330
1F
100
AcDbEntity
  8
1
  6
Continuous
 62
     7
100
AcDbLine
 10
-16.11320632733316
 20
-63.69793997026321
 30
0.0
 11
-16.11320632733316
 21
-59.69793997026324
 31
0.0
  0
LINE
  5
68
330
1F
100
AcDbEntity
  8
1
  6
Continuous
 62
     7
100
AcDbLine
 10
-16.11320632733316
 20
-59.69793997026324
 30
0.0
 11
-25.11320632733316
 21
-59.69793997026325
 31
0.0
  0
LINE
  5
69
330
1F
100
AcDbEntity
  8
1
  6
Continuous
 62
     7
100
AcDbLine
 10
-15.11320632733316
 20
-63.69793997026321
 30
0.0
 11
-16.11320632733316
 21
-63.69793997026321
 31
0.0
  0
LINE
  5
6A
330
1F
100
AcDbEntity
  8
1
  6
Continuous
 62
     7
100
AcDbLine
 10
-11.11320632733327
 20
-42.6979399702632
 30
0.0
 11
-1.11320632733316
 21
-42.69793997026321
 31
0.0
  0
LINE
  5
6B
330
1F
100
AcDbEntity
  8
1
  6
Continuous
 62
     7
100
AcDbLine
 10
-1.11320632733316
 20
-42.69793997026321
 30
0.0
 11
-1.11320632733316
 21
-63.69793997026321
 31
0.0
  0
LINE
  5
6C
330
1F
100
AcDbEntity
  8
1
  6
Continuous
 62
     7
100
AcDbLine
 10
-1.11320632733327
 20
-37.69793997026321
 30
0.0
 11
-1.11320632733316
 21
-42.69793997026321
 31
0.0
  0
LINE
  5
6D
330
1F
100
AcDbEntity
  8
1
  6
Continuous
 62
     7
100
AcDbLine
 10
-11.11320632733327
 20
-42.6979399702632
 30
0.0
 11
-11.11320632733327
 21
24.08734679886903
 31
0.0
  0
LINE
  5
6E
330
1F
100
AcDbEntity
  8
1
  6
DOT_CENTER
 62
     2
100
AcDbLine
 10
-17.11417331874418
 20
-53.69793997026323
 30
0.0
 11
0.10542870525273
 21
-53.69793997026323
 31
0.0
  0
LINE
  5
6F
330
1F
100
AcDbEntity
  8
1
  6
DOT_CENTER
 62
     2
100
AcDbLine
 10
88.19860034321128
 20
13.7329803655398
 30
0.0
 11
88.19860034321128
 21
5.37660009231135
 31
0.0
  0
LINE
  5
70
330
1F
100
AcDbEntity
  8
1
  6
DOT_CENTER
 62
     2
100
AcDbLine
 10
88.19860034321128
 20
88.4334180606021
 30
0.0
 11
88.19860034321128
 21
23.7953625217101
 31
0.0
  0
LINE
  5
71
330
1F
100
AcDbEntity
  8
1
  6
DOT_CENTER
 62
     2
100
AcDbLine
 10
87.19860034321128
 20
23.9064781914974
 30
0.0
 11
87.19860034321128
 21
69.88724435850082
 31
0.0
  0
LINE
  5
72
330
1F
100
AcDbEntity
  8
1
  6
DOT_CENTER
 62
     2
100
AcDbLine
 10
85.94860034321128
 20
-65.62339990768865
 30
0.0
 11
90.44860034321128
 21
-65.62339990768865
 31
0.0
  0
LINE
  5
73
330
1F
100
AcDbEntity
  8
1
  6
DOT_CENTER
 62
     2
100
AcDbLine
 10
85.94860034321128
 20
76.37660009231135
 30
0.0
 11
90.44860034321128
 21
76.37660009231135
 31
0.0
  0
LINE
  5
74
330
1F
100
AcDbEntity
  8
1
  6
Continuous
 62
     7
100
AcDbLine
 10
97.19860034321128
 20
73.87660009231135
 30
0.0
 11
97.19860034321128
 21
5.37660009231135
 31
0.0
  0
LINE
  5
75
330
1F
100
AcDbEntity
  8
1
  6
Continuous
 62
     7
100
AcDbLine
 10
2.38679367266664
 20
-62.69793997026319
 30
0.0
 11
2.38679367266681
 21
-44.69793997026316
 31
0.0
  0
LINE
  5
76
330
1F
100
AcDbEntity
  8
1
  6
Continuous
 62
     7
100
AcDbLine
 10
170.9119338369392
 20
-54.62339990768865
 30
0.0
 11
170.9119338369392
 21
65.37660009231138
 31
0.0
  0
LINE
  5
77
330
1F
100
AcDbEntity
  8
1
  6
DOT_CENTER
 62
     2
100
AcDbLine
 10
30.99343703560656
 20
-52.69793997026323
 30
0.0
 11
10.2442424891523
 21
-52.69793997026323
 31
0.0
  0
LINE
  5
78
330
1F
100
AcDbEntity
  8
1
  6
DOT_CENTER
 62
     2
100
AcDbLine
 10
131.8074741741899
 20
5.37660009231135
 30
0.0
 11
183.144101125991
 21
5.37660009231135
 31
0.0
  0
LINE
  5
79
330
1F
100
AcDbEntity
  8
1
  6
DOT_CENTER
 62
     2
100
AcDbLine
 10
135.9119338369392
 20
105.3766000923114
 30
0.0
 11
135.9119338369392
 21
109.4193999621323
 31
0.0
  0
LINE
  5
7A
330
1F
100
AcDbEntity
  8
1
  6
DOT_CENTER
 62
     2
100
AcDbLine
 10
135.9119338369392
 20
-94.62339990768866
 30
0.0
 11
135.9119338369392
 21
-104.1112895265787
 31
0.0
  0
LINE
  5
7B
330
1F
100
AcDbEntity
  8
1
  6
DOT_CENTER
 62
     2
100
AcDbLine
 10
135.9119338369392
 20
105.3766000923114
 30
0.0
 11
135.9119338369392
 21
-94.62339990768866
 31
0.0
  0
LINE
  5
7C
330
1F
100
AcDbEntity
  8
1
  6
Continuous
 62
     7
100
AcDbLine
 10
180.9119338369392
 20
-72.12339990768865
 30
0.0
 11
180.9119338369392
 21
-94.62339990768866
 31
0.0
  0
LINE
  5
7D
330
1F
100
AcDbEntity
  8
1
  6
Continuous
 62
     7
100
AcDbLine
 10
170.9119338369392
 20
-72.12339990768865
 30
0.0
 11
180.9119338369392
 21
-72.12339990768865
 31
0.0
  0
LINE
  5
7E
330
1F
100
AcDbEntity
  8
1
  6
Continuous
 62
     7
100
AcDbLine
 10
170.9119338369392
 20
-54.62339990768865
 30
0.0
 11
170.9119338369392
 21
-72.12339990768865
 31
0.0
  0
LINE
  5
7F
330
1F
100
AcDbEntity
  8
1
  6
Continuous
 62
     7
100
AcDbLine
 10
153.9119338369392
 20
-54.62339990768866
 30
0.0
 11
170.9119338369392
 21
-54.62339990768865
 31
0.0
  0
LINE
  5
80
330
1F
100
AcDbEntity
  8
1
  6
Continuous
 62
     7
100
AcDbLine
 10
153.9119338369392
 20
65.37660009231135
 30
0.0
 11
153.9119338369392
 21
-54.62339990768866
 31
0.0
  0
LINE
  5
81
330
1F
100
AcDbEntity
  8
1
  6
Continuous
 62
     7
100
AcDbLine
 10
170.9119338369392
 20
65.37660009231138
 30
0.0
 11
153.9119338369392
 21
65.37660009231135
 31
0.0
  0
LINE
  5
82
330
1F
100
AcDbEntity
  8
1
  6
Continuous
 62
     7
100
AcDbLine
 10
170.9119338369392
 20
82.87660009231135
 30
0.0
 11
170.9119338369392
 21
65.37660009231138
 31
0.0
  0
LINE
  5
83
330
1F
100
AcDbEntity
  8
1
  6
Continuous
 62
     7
100
AcDbLine
 10
180.9119338369392
 20
82.87660009231132
 30
0.0
 11
180.9119338369392
 21
-72.12339990768865
 31
0.0
  0
LINE
  5
84
330
1F
100
AcDbEntity
  8
1
  6
Continuous
 62
     7
100
AcDbLine
 10
180.9119338369392
 20
82.87660009231132
 30
0.0
 11
170.9119338369392
 21
82.87660009231135
 31
0.0
  0
LINE
  5
85
330
1F
100
AcDbEntity
  8
1
  6
Continuous
 62
     7
100
AcDbLine
 10
180.9119338369392
 20
105.3766000923114
 30
0.0
 11
180.9119338369392
 21
82.87660009231132
 31
0.0
  0
LINE
  5
86
330
1F
100
AcDbEntity
  8
1
  6
DOT_CENTER
 62
     2
100
AcDbLine
 10
180.9119338369392
 20
-94.62339990768866
 30
0.0
 11
182.976855797002
 21
-94.62339990768866
 31
0.0
  0
LINE
  5
87
330
1F
100
AcDbEntity
  8
1
  6
DOT_CENTER
 62
     2
100
AcDbLine
 10
135.9119338369392
 20
-94.62339990768866
 30
0.0
 11
180.9119338369392
 21
-94.62339990768866
 31
0.0
  0
LINE
  5
88
330
1F
100
AcDbEntity
  8
1
  6
DOT_CENTER
 62
     2
100
AcDbLine
 10
134.7727714248735
 20
-94.62339990768866
 30
0.0
 11
140.9119338369392
 21
-94.62339990768866
 31
0.0
  0
LINE
  5
89
330
1F
100
AcDbEntity
  8
1
  6
DOT_CENTER
 62
     2
100
AcDbLine
 10
180.9119338369392
 20
105.3766000923114
 30
0.0
 11
182.976855797002
 21
105.3766000923114
 31
0.0
  0
LINE
  5
8A
330
1F
100
AcDbEntity
  8
1
  6
DOT_CENTER
 62
     2
100
AcDbLine
 10
135.9119338369392
 20
105.3766000923114
 30
0.0
 11
180.9119338369392
 21
105.3766000923114
 31
0.0
  0
LINE
  5
8B
330
1F
100
AcDbEntity
  8
1
  6
DOT_CENTER
 62
     2
100
AcDbLine
 10
134.7727714248735
 20
105.3766000923114
 30
0.0
 11
140.9119338369392
 21
105.3766000923114
 31
0.0
  0
LINE
  5
8C
330
1F
100
AcDbEntity
  8
1
  6
Continuous
 62
     7
100
AcDbLine
 10
12.38679367266682
 20
-44.69793997026319
 30
0.0
 11
2.38679367266681
 21
-44.69793997026316
 31
0.0
  0
LINE
  5
8D
330
1F
100
AcDbEntity
  8
1
  6
Continuous
 62
     7
100
AcDbLine
 10
12.38679367266682
 20
-44.69793997026319
 30
0.0
 11
12.38679367266665
 21
-60.69793997026319
 31
0.0
  0
LINE
  5
8E
330
1F
100
AcDbEntity
  8
1
  6
DOT_CENTER
 62
     2
100
AcDbLine
 10
55.0594379311456
 20
5.37660009231135
 30
0.0
 11
88.19860034321128
 21
5.37660009231135
 31
0.0
  0
LINE
  5
8F
330
1F
100
AcDbEntity
  8
1
  6
DOT_CENTER
 62
     2
100
AcDbLine
 10
101.1986003432113
 20
-94.62339990768866
 30
0.0
 11
107.8813092857647
 21
-94.62339990768866
 31
0.0
  0
LINE
  5
90
330
1F
100
AcDbEntity
  8
1
  6
DOT_CENTER
 62
     2
100
AcDbLine
 10
101.1986003432113
 20
105.3766000923114
 30
0.0
 11
107.8813092857647
 21
105.3766000923114
 31
0.0
  0
LINE
  5
91
330
1F
100
AcDbEntity
  8
1
  6
Continuous
 62
     7
100
AcDbLine
 10
101.1986003432113
 20
-94.62339990768866
 30
0.0
 11
101.1986003432113
 21
73.87660009231135
 31
0.0
  0
LINE
  5
92
330
1F
100
AcDbEntity
  8
1
  6
DOT_CENTER
 62
     2
100
AcDbLine
 10
77.1986003432113
 20
-94.62339990768866
 30
0.0
 11
101.1986003432113
 21
-94.62339990768866
 31
0.0
  0
LINE
  5
93
330
1F
100
AcDbEntity
  8
1
  6
DOT_CENTER
 62
     2
100
AcDbLine
 10
77.1986003432113
 20
105.3766000923114
 30
0.0
 11
101.1986003432113
 21
105.3766000923114
 31
0.0
  0
LINE
  5
94
330
1F
100
AcDbEntity
  8
1
  6
Continuous
 62
     7
100
AcDbLine
 10
77.1986003432113
 20
-94.62339990768866
 30
0.0
 11
77.1986003432113
 21
105.3766000923114
 31
0.0
  0
LINE
  5
95
330
1F
100
AcDbEntity
  8
1
  6
DOT_CENTER
 62
     2
100
AcDbLine
 10
58.69011583963371
 20
-94.62339990768868
 30
0.0
 11
61.1986003432113
 21
-94.62339990768866
 31
0.0
  0
LINE
  5
96
330
1F
100
AcDbEntity
  8
1
  6
DOT_CENTER
 62
     2
100
AcDbLine
 10
58.69011583963371
 20
105.3766000923114
 30
0.0
 11
61.1986003432113
 21
105.3766000923114
 31
0.0
  0
LINE
  5
97
330
1F
100
AcDbEntity
  8
1
  6
Continuous
 62
     7
100
AcDbLine
 10
47.38679367266684
 20
-66.6979399702632
 30
0.0
 11
2.38679367266664
 21
-66.6979399702632
 31
0.0
  0
LINE
  5
98
330
1F
100
AcDbEntity
  8
1
  6
Continuous
 62
     7
100
AcDbLine
 10
2.38679367266664
 20
-66.6979399702632
 30
0.0
 11
2.38679367266664
 21
-62.69793997026319
 31
0.0
  0
LINE
  5
99
330
1F
100
AcDbEntity
  8
1
  6
Continuous
 62
     7
100
AcDbLine
 10
2.38679367266664
 20
-62.69793997026319
 30
0.0
 11
12.38679367266663
 21
-62.69793997026319
 31
0.0
  0
LINE
  5
9A
330
1F
100
AcDbEntity
  8
1
  6
Continuous
 62
     7
100
AcDbLine
 10
29.3867936726667
 20
-44.69793997026326
 30
0.0
 11
12.38679367266682
 21
-44.69793997026319
 31
0.0
  0
LINE
  5
9B
330
1F
100
AcDbEntity
  8
1
  6
Continuous
 62
     7
100
AcDbLine
 10
2.38679367266681
 20
-44.69793997026316
 30
0.0
 11
2.38679367266684
 21
-42.69793997026321
 31
0.0
  0
LINE
  5
9C
330
1F
100
AcDbEntity
  8
1
  6
PHANTOM
 62
     2
100
AcDbLine
 10
47.38679367266684
 20
-66.6979399702632
 30
0.0
 11
47.38679367266684
 21
-26.69793997026321
 31
0.0
  0
LINE
  5
9D
330
1F
100
AcDbEntity
  8
1
  6
PHANTOM
 62
     2
100
AcDbLine
 10
47.38679367266684
 20
-68.47367057736668
 30
0.0
 11
47.38679367266684
 21
-66.6979399702632
 31
0.0
  0
LINE
  5
9E
330
1F
100
AcDbEntity
  8
1
  6
Continuous
 62
     7
100
AcDbLine
 10
10.15474286509789
 20
-42.69793997026326
 30
0.0
 11
15.38679367266695
 21
-42.69793997026321
 31
0.0
  0
LINE
  5
9F
330
1F
100
AcDbEntity
  8
1
  6
Continuous
 62
     7
100
AcDbLine
 10
15.38679367266695
 20
-42.69793997026321
 30
0.0
 11
15.38679367266695
 21
-26.69793997026321
 31
0.0
  0
LINE
  5
A0
330
1F
100
AcDbEntity
  8
1
  6
Continuous
 62
     7
100
AcDbLine
 10
15.38679367266695
 20
-26.69793997026321
 30
0.0
 11
47.38679367266684
 21
-26.69793997026321
 31
0.0
  0
LINE
  5
A1
330
1F
100
AcDbEntity
  8
1
  6
PHANTOM
 62
     2
100
AcDbLine
 10
47.38679367266684
 20
-26.69793997026321
 30
0.0
 11
47.38679367266686
 21
-23.65515166616186
 31
0.0
  0
LINE
  5
A2
330
1F
100
AcDbEntity
  8
1
  6
Continuous
 62
     7
100
AcDbLine
 10
79.19860034321128
 20
73.87660009231135
 30
0.0
 11
79.19860034321128
 21
5.37660009231135
 31
0.0
  0
LINE
  5
A3
330
1F
100
AcDbEntity
  8
1
  6
DOT_CENTER
 62
     2
100
AcDbLine
 10
72.5349461857596
 20
73.87660009231135
 30
0.0
 11
101.1986003432113
 21
73.87660009231135
 31
0.0
  0
LINE
  5
A4
330
1F
100
AcDbEntity
  8
1
  6
Continuous
 62
     7
100
AcDbLine
 10
101.1986003432113
 20
73.87660009231135
 30
0.0
 11
101.1986003432113
 21
105.3766000923114
 31
0.0
  0
LINE
  5
A5
330
1F
100
AcDbEntity
  8
1
  6
DOT_CENTER
 62
     2
100
AcDbLine
 10
88.19860034321128
 20
5.37660009231135
 30
0.0
 11
95.19860034321128
 21
5.37660009231135
 31
0.0
  0
LINE
  5
A6
330
1F
100
AcDbEntity
  8
1
  6
Continuous
 62
     7
100
AcDbLine
 10
95.19860034321128
 20
57.37660009231134
 30
0.0
 11
95.19860034321128
 21
5.37660009231135
 31
0.0
  0
LINE
  5
A7
330
1F
100
AcDbEntity
  8
1
  6
DOT_CENTER
 62
     2
100
AcDbLine
 10
95.19860034321128
 20
5.37660009231135
 30
0.0
 11
103.8813092857647
 21
5.37660009231135
 31
0.0
  0
LINE
  5
A8
330
1F
100
AcDbEntity
  8
1
  6
Continuous
 62
     7
100
AcDbLine
 10
101.1986003432113
 20
-63.12339990768867
 30
0.0
 11
101.1986003432113
 21
105.3766000923114
 31
0.0
  0
LINE
  5
A9
330
1F
100
AcDbEntity
  8
1
  6
Continuous
 62
     7
100
AcDbLine
 10
95.19860034321128
 20
5.37660009231135
 30
0.0
 11
95.19860034321128
 21
-46.62339990768864
 31
0.0
  0
LINE
  5
AA
330
1F
100
AcDbEntity
  8
1
  6
Continuous
 62
     7
100
AcDbLine
 10
79.19860034321128
 20
5.37660009231135
 30
0.0
 11
79.19860034321128
 21
-63.12339990768867
 31
0.0
  0
LINE
  5
AB
330
1F
100
AcDbEntity
  8
1
  6
Continuous
 62
     7
100
AcDbLine
 10
97.19860034321128
 20
5.37660009231135
 30
0.0
 11
97.19860034321127
 21
-63.12339990768867
 31
0.0
  0
LINE
  5
AC
330
1F
100
AcDbEntity
  8
1
  6
DOT_CENTER
 62
     2
100
AcDbLine
 10
88.19860034321128
 20
5.37660009231135
 30
0.0
 11
88.19860034321128
 21
-77.12339990768866
 31
0.0
  0
LINE
  5
AD
330
1F
100
AcDbEntity
  8
1
  6
DOT_CENTER
 62
     2
100
AcDbLine
 10
101.1986003432113
 20
-63.12339990768867
 30
0.0
 11
72.5349461857596
 21
-63.12339990768866
 31
0.0
  0
LINE
  5
AE
330
1F
100
AcDbEntity
  8
1
  6
Continuous
 62
     7
100
AcDbLine
 10
12.38679367266665
 20
-60.69793997026319
 30
0.0
 11
29.3867936726667
 21
-60.69793997026319
 31
0.0
  0
LINE
  5
AF
330
1F
100
AcDbEntity
  8
1
  6
Continuous
 62
     7
100
AcDbLine
 10
12.38679367266665
 20
-60.69793997026319
 30
0.0
 11
12.38679367266663
 21
-62.69793997026319
 31
0.0
  0
LINE
  5
B0
330
1F
100
AcDbEntity
  8
1
  6
Continuous
 62
     7
100
AcDbLine
 10
29.3867936726667
 20
-60.69793997026319
 30
0.0
 11
29.3867936726667
 21
-44.69793997026326
 31
0.0
  0
LINE
  5
B1
330
1F
100
AcDbEntity
  8
1
  6
Continuous
 62
     7
100
AcDbLine
 10
61.1986003432113
 20
105.3766000923114
 30
0.0
 11
61.1986003432113
 21
-94.62339990768866
 31
0.0
  0
LINE
  5
B2
330
1F
100
AcDbEntity
  8
1
  6
DOT_CENTER
 62
     2
100
AcDbLine
 10
61.1986003432113
 20
-94.62339990768866
 30
0.0
 11
77.1986003432113
 21
-94.62339990768866
 31
0.0
  0
LINE
  5
B3
330
1F
100
AcDbEntity
  8
1
  6
DOT_CENTER
 62
     2
100
AcDbLine
 10
61.1986003432113
 20
105.3766000923114
 30
0.0
 11
77.1986003432113
 21
105.3766000923114
 31
0.0
  0
LINE
  5
B4
330
1F
100
AcDbEntity
  8
1
  6
DOT_CENTER
 62
     2
100
AcDbLine
 10
14.580883670625
 20
-53.6979399702632
 30
0.0
 11
0.86388297763482
 21
-53.6979399702632
 31
0.0
  0
LINE
  5
B5
330
1F
100
AcDbEntity
  8
1
  6
DOT_CENTER
 62
     2
100
AcDbLine
 10
87.19860034321128
 20
-58.17778590641503
 30
0.0
 11
87.19860034321128
 21
13.98807882745509
 31
0.0
  0
LINE
  5
B6
330
1F
100
AcDbEntity
  8
1
  6
DOT_CENTER
 62
     2
100
AcDbLine
 10
77.9302363320646
 20
57.37660009231134
 30
0.0
 11
96.6092227685969
 21
57.37660009231134
 31
0.0
  0
LINE
  5
B7
330
1F
100
AcDbEntity
  8
1
  6
DOT_CENTER
 62
     2
100
AcDbLine
 10
77.974028109067
 20
-46.62339990768865
 30
0.0
 11
96.2536929180181
 21
-46.62339990768865
 31
0.0
  0
LINE
  5
B8
330
1F
100
AcDbEntity
  8
1
  6
DOT_CENTER
 62
     2
100
AcDbLine
 10
-194.6000806359427
 20
105.3766000923113
 30
0.0
 11
-192.1092983114338
 21
105.3766000923113
 31
0.0
  0
LINE
  5
B9
330
1F
100
AcDbEntity
  8
1
  6
DOT_CENTER
 62
     2
100
AcDbLine
 10
-196.6000806359427
 20
-94.62339990768865
 30
0.0
 11
-192.1092983114338
 21
-94.62339990768865
 31
0.0
  0
LINE
  5
BA
330
1F
100
AcDbEntity
  8
1
  6
DOT_CENTER
 62
     2
100
AcDbLine
 10
-142.4897709387598
 20
105.3766000923113
 30
0.0
 11
-142.4897709387598
 21
-76.801730201106
 31
0.0
  0
LINE
  5
BB
330
1F
100
AcDbEntity
  8
1
  6
DOT_CENTER
 62
     2
100
AcDbLine
 10
-142.4897709387598
 20
105.3766000923113
 30
0.0
 11
-137.5343223151126
 21
105.3766000923113
 31
0.0
  0
LINE
  5
BC
330
1F
100
AcDbEntity
  8
1
  6
DOT_CENTER
 62
     2
100
AcDbLine
 10
-142.4897709387598
 20
-94.62339990768866
 30
0.0
 11
-137.5343223151126
 21
-94.62339990768865
 31
0.0
  0
LINE
  5
BD
330
1F
100
AcDbEntity
  8
1
  6
DOT_CENTER
 62
     2
100
AcDbLine
 10
-142.4897709387598
 20
-94.62339990768866
 30
0.0
 11
-142.4897709387598
 21
-99.90359801694666
 31
0.0
  0
LINE
  5
BE
330
1F
100
AcDbEntity
  8
1
  6
DOT_CENTER
 62
     2
100
AcDbLine
 10
-142.4897709387598
 20
105.3766000923113
 30
0.0
 11
-142.4897709387598
 21
109.761881720986
 31
0.0
  0
LINE
  5
BF
330
1F
100
AcDbEntity
  8
1
  6
Continuous
 62
     7
100
AcDbLine
 10
-192.1092983114338
 20
105.3766000923113
 30
0.0
 11
-192.1092983114338
 21
-94.62339990768865
 31
0.0
  0
LINE
  5
C0
330
1F
100
AcDbEntity
  8
1
  6
DOT_CENTER
 62
     2
100
AcDbLine
 10
-192.1092983114338
 20
105.3766000923113
 30
0.0
 11
-163.1092983114338
 21
105.3766000923113
 31
0.0
  0
LINE
  5
C1
330
1F
100
AcDbEntity
  8
1
  6
DOT_CENTER
 62
     2
100
AcDbLine
 10
-192.1092983114338
 20
-94.62339990768865
 30
0.0
 11
-163.1092983114338
 21
-94.62339990768865
 31
0.0
  0
LINE
  5
C2
330
1F
100
AcDbEntity
  8
1
  6
Continuous
 62
     7
100
AcDbLine
 10
-163.1092983114338
 20
105.3766000923113
 30
0.0
 11
-163.1092983114338
 21
-94.62339990768865
 31
0.0
  0
LINE
  5
C3
330
1F
100
AcDbEntity
  8
1
  6
DOT_CENTER
 62
     2
100
AcDbLine
 10
-163.1092983114338
 20
105.3766000923113
 30
0.0
 11
-142.4897709387598
 21
105.3766000923113
 31
0.0
  0
LINE
  5
C4
330
1F
100
AcDbEntity
  8
1
  6
DOT_CENTER
 62
     2
100
AcDbLine
 10
-163.1092983114338
 20
-94.62339990768865
 30
0.0
 11
-142.4897709387598
 21
-94.62339990768866
 31
0.0
  0
LINE
  5
C5
330
1F
100
AcDbEntity
  8
1
  6
DOT_CENTER
 62
     2
100
AcDbLine
 10
-114.5635309971518
 20
105.3766000923113
 30
0.0
 11
-108.8017786518813
 21
105.3766000923113
 31
0.0
  0
LINE
  5
C6
330
1F
100
AcDbEntity
  8
1
  6
DOT_CENTER
 62
     2
100
AcDbLine
 10
-114.5635309971518
 20
5.37660009231135
 30
0.0
 11
-51.29189472598307
 21
5.37660009231135
 31
0.0
  0
LINE
  5
C7
330
1F
100
AcDbEntity
  8
1
  6
DOT_CENTER
 62
     2
100
AcDbLine
 10
-114.5635309971518
 20
-94.62339990768865
 30
0.0
 11
-108.8017786518813
 21
-94.62339990768865
 31
0.0
  0
LINE
  5
C8
330
1F
100
AcDbEntity
  8
1
  6
Continuous
 62
     7
100
AcDbLine
 10
-108.8017786518813
 20
105.3766000923113
 30
0.0
 11
-108.8017786518813
 21
-94.62339990768865
 31
0.0
  0
LINE
  5
C9
330
1F
100
AcDbEntity
  8
1
  6
DOT_CENTER
 62
     2
100
AcDbLine
 10
-108.8017786518813
 20
105.3766000923113
 30
0.0
 11
-68.80177865188125
 21
105.3766000923113
 31
0.0
  0
LINE
  5
CA
330
1F
100
AcDbEntity
  8
1
  6
DOT_CENTER
 62
     2
100
AcDbLine
 10
-108.8017786518813
 20
-94.62339990768865
 30
0.0
 11
-68.80177865188125
 21
-94.62339990768865
 31
0.0
  0
LINE
  5
CB
330
1F
100
AcDbEntity
  8
1
  6
Continuous
 62
     7
100
AcDbLine
 10
-55.80177865188119
 20
-94.62339990768865
 30
0.0
 11
-55.80177865188119
 21
105.3766000923113
 31
0.0
  0
LINE
  5
CC
330
1F
100
AcDbEntity
  8
1
  6
DOT_CENTER
 62
     2
100
AcDbLine
 10
-55.80177865188119
 20
105.3766000923113
 30
0.0
 11
-51.29189472598307
 21
105.3766000923113
 31
0.0
  0
LINE
  5
CD
330
1F
100
AcDbEntity
  8
1
  6
DOT_CENTER
 62
     2
100
AcDbLine
 10
-55.80177865188119
 20
-94.62339990768865
 30
0.0
 11
-51.29189472598307
 21
-94.62339990768865
 31
0.0
  0
LINE
  5
CE
330
1F
100
AcDbEntity
  8
1
  6
Continuous
 62
     7
100
AcDbLine
 10
-68.80177865188125
 20
105.3766000923113
 30
0.0
 11
-68.80177865188125
 21
82.87660009231135
 31
0.0
  0
LINE
  5
CF
330
1F
100
AcDbEntity
  8
1
  6
DOT_CENTER
 62
     2
100
AcDbLine
 10
-68.80177865188125
 20
105.3766000923113
 30
0.0
 11
-55.80177865188119
 21
105.3766000923113
 31
0.0
  0
LINE
  5
D0
330
1F
100
AcDbEntity
  8
1
  6
DOT_CENTER
 62
     2
100
AcDbLine
 10
-68.80177865188125
 20
-94.62339990768865
 30
0.0
 11
-55.80177865188119
 21
-94.62339990768865
 31
0.0
  0
LINE
  5
D1
330
1F
100
AcDbEntity
  8
1
  6
Continuous
 62
     7
100
AcDbLine
 10
-68.80177865188125
 20
82.87660009231135
 30
0.0
 11
-78.80177865188125
 21
82.87660009231135
 31
0.0
  0
LINE
  5
D2
330
1F
100
AcDbEntity
  8
1
  6
Continuous
 62
     7
100
AcDbLine
 10
-68.80177865188125
 20
82.87660009231135
 30
0.0
 11
-68.80177865188125
 21
-72.12339990768866
 31
0.0
  0
LINE
  5
D3
330
1F
100
AcDbEntity
  8
1
  6
Continuous
 62
     7
100
AcDbLine
 10
-78.80177865188125
 20
82.87660009231135
 30
0.0
 11
-78.80177865188125
 21
71.37660009231135
 31
0.0
  0
LINE
  5
D4
330
1F
100
AcDbEntity
  8
1
  6
Continuous
 62
     7
100
AcDbLine
 10
-83.8017786518812
 20
71.37660009231135
 30
0.0
 11
-92.80177865188125
 21
71.37660009231135
 31
0.0
  0
LINE
  5
D5
330
1F
100
AcDbEntity
  8
1
  6
Continuous
 62
     7
100
AcDbLine
 10
-92.80177865188125
 20
71.37660009231135
 30
0.0
 11
-92.80488390961862
 21
-60.62339990768862
 31
0.0
  0
LINE
  5
D6
330
1F
100
AcDbEntity
  8
1
  6
Continuous
 62
     7
100
AcDbLine
 10
-92.80488390961862
 20
-60.62339990768862
 30
0.0
 11
-83.8017786518812
 21
-60.62339990768866
 31
0.0
  0
LINE
  5
D7
330
1F
100
AcDbEntity
  8
1
  6
Continuous
 62
     7
100
AcDbLine
 10
-78.80177865188125
 20
-60.62339990768867
 30
0.0
 11
-78.80177865188125
 21
-72.12339990768865
 31
0.0
  0
LINE
  5
D8
330
1F
100
AcDbEntity
  8
1
  6
Continuous
 62
     7
100
AcDbLine
 10
-78.80177865188125
 20
-72.12339990768865
 30
0.0
 11
-68.80177865188125
 21
-72.12339990768866
 31
0.0
  0
LINE
  5
D9
330
1F
100
AcDbEntity
  8
1
  6
Continuous
 62
     7
100
AcDbLine
 10
-68.80177865188125
 20
-72.12339990768866
 30
0.0
 11
-68.80177865188125
 21
-94.62339990768865
 31
0.0
  0
LINE
  5
DA
330
1F
100
AcDbEntity
  8
1
  6
Continuous
 62
     7
100
AcDbLine
 10
-78.80177865188125
 20
-60.62339990768867
 30
0.0
 11
-78.80177865188125
 21
-50.62339990768866
 31
0.0
  0
LINE
  5
DB
330
1F
100
AcDbEntity
  8
1
  6
Continuous
 62
     7
100
AcDbLine
 10
-78.80177865188125
 20
71.37660009231135
 30
0.0
 11
-78.80177865188125
 21
-50.62339990768866
 31
0.0
  0
LINE
  5
DC
330
1F
100
AcDbEntity
  8
1
  6
Continuous
 62
     7
100
AcDbLine
 10
-186.1092983114338
 20
-51.62339990768865
 30
0.0
 11
-186.1092983114338
 21
62.37660009231134
 31
0.0
  0
LINE
  5
DD
330
1F
100
AcDbEntity
  8
1
  6
Continuous
 62
     7
100
AcDbLine
 10
-168.1092983114338
 20
-61.62339990768865
 30
0.0
 11
-168.1092983114338
 21
-51.62339990768865
 31
0.0
  0
LINE
  5
DE
330
1F
100
AcDbEntity
  8
1
  6
Continuous
 62
     7
100
AcDbLine
 10
-189.1092983114338
 20
-61.62339990768865
 30
0.0
 11
-189.1092983114338
 21
72.37660009231135
 31
0.0
  0
LINE
  5
DF
330
1F
100
AcDbEntity
  8
1
  6
DOT_CENTER
 62
     2
100
AcDbLine
 10
-190.620962865328
 20
72.37660009231135
 30
0.0
 11
-166.856329904655
 21
72.37660009231135
 31
0.0
  0
LINE
  5
E0
330
1F
100
AcDbEntity
  8
1
  6
DOT_CENTER
 62
     2
100
AcDbLine
 10
-179.1092983114338
 20
-75.5804222971521
 30
0.0
 11
-179.1092983114338
 21
86.3336224817748
 31
0.0
  0
LINE
  5
E1
330
1F
100
AcDbEntity
  8
1
  6
DOT_CENTER
 62
     2
100
AcDbLine
 10
-190.620962865328
 20
-61.63531142598714
 30
0.0
 11
-166.18830624847
 21
-61.63531142598714
 31
0.0
  0
LINE
  5
E2
330
1F
100
AcDbEntity
  8
1
  6
DOT_CENTER
 62
     2
100
AcDbLine
 10
-197.6000806359427
 20
5.37660009231135
 30
0.0
 11
-159.866450626103
 21
5.37660009231135
 31
0.0
  0
LINE
  5
E3
330
1F
100
AcDbEntity
  8
1
  6
DOT_CENTER
 62
     2
100
AcDbLine
 10
-177.1092983114338
 20
74.1913679844397
 30
0.0
 11
-177.1092983114338
 21
-62.92176113992363
 31
0.0
  0
LINE
  5
E4
330
1F
100
AcDbEntity
  8
1
  6
DOT_CENTER
 62
     2
100
AcDbLine
 10
-186.939077315715
 20
-52.12339990768866
 30
0.0
 11
-166.009785283542
 21
-52.12339990768866
 31
0.0
  0
LINE
  5
E5
330
1F
100
AcDbEntity
  8
1
  6
DOT_CENTER
 62
     2
100
AcDbLine
 10
-188.554644728426
 20
62.87660009231135
 30
0.0
 11
-166.132898766084
 21
62.87660009231135
 31
0.0
  0
LINE
  5
E6
330
1F
100
AcDbEntity
  8
1
  6
DOT_CENTER
 62
     2
100
AcDbLine
 10
-149.813153873782
 20
5.37660009231135
 30
0.0
 11
-135.8383329234636
 21
5.37660009231135
 31
0.0
  0
LINE
  5
E7
330
1F
100
AcDbEntity
  8
1
  6
Continuous
 62
     7
100
AcDbLine
 10
-168.1092983114338
 20
71.37660009231135
 30
0.0
 11
-168.1092983114338
 21
72.37660009231135
 31
0.0
  0
LINE
  5
E8
330
1F
100
AcDbEntity
  8
1
  6
Continuous
 62
     7
100
AcDbLine
 10
-168.1092983114338
 20
-51.62339990768865
 30
0.0
 11
-168.1092983114338
 21
72.37660009231135
 31
0.0
  0
LINE
  5
E9
330
1F
100
AcDbEntity
  8
1
  6
DOT_CENTER
 62
     2
100
AcDbLine
 10
-142.4897709387598
 20
-90.5033663449061
 30
0.0
 11
-142.4897709387598
 21
-94.62339990768866
 31
0.0
  0
ARC
  5
EA
330
1F
100
AcDbEntity
  8
1
  6
Continuous
 62
     7
100
AcDbCircle
 10
88.19860034321128
 20
73.87660009231135
 30
0.0
 40
9.0
100
AcDbArc
 50
90.0
 51
180.0
  0
ARC
  5
EB
330
1F
100
AcDbEntity
  8
1
  6
Continuous
 62
     7
100
AcDbCircle
 10
87.19860034321128
 20
57.37660009231134
 30
0.0
 40
8.000000000000007
100
AcDbArc
 50
90.0
 51
180.0
  0
ARC
  5
EC
330
1F
100
AcDbEntity
  8
1
  6
Continuous
 62
     7
100
AcDbCircle
 10
87.19860034321128
 20
-46.62339990768865
 30
0.0
 40
8.0
100
AcDbArc
 50
-90.0
 51
0.00000000000005
  0
ARC
  5
ED
330
1F
100
AcDbEntity
  8
1
  6
Continuous
 62
     7
100
AcDbCircle
 10
88.19860034321128
 20
-63.12339990768867
 30
0.0
 40
8.999999999999979
100
AcDbArc
 50
-90.00000000000009
 51
0.0
  0
ARC
  5
EE
330
1F
100
AcDbEntity
  8
1
  6
Continuous
 62
     7
100
AcDbCircle
 10
88.19860034321128
 20
73.87660009231135
 30
0.0
 40
9.0
100
AcDbArc
 50
0.0
 51
90.0
  0
ARC
  5
EF
330
1F
100
AcDbEntity
  8
1
  6
Continuous
 62
     7
100
AcDbCircle
 10
88.19860034321128
 20
-63.12339990768867
 30
0.0
 40
9.0
100
AcDbArc
 50
180.0
 51
-90.00000000000009
  0
ARC
  5
F0
330
1F
100
AcDbEntity
  8
1
  6
Continuous
 62
     7
100
AcDbCircle
 10
87.19860034321128
 20
57.37660009231134
 30
0.0
 40
8.0
100
AcDbArc
 50
0.0
 51
90.0
  0
ARC
  5
F1
330
1F
100
AcDbEntity
  8
1
  6
Continuous
 62
     7
100
AcDbCircle
 10
87.19860034321128
 20
-46.62339990768865
 30
0.0
 40
8.0
100
AcDbArc
 50
180.0
 51
-90.0
  0
CIRCLE
  5
F2
330
1F
100
AcDbEntity
  8
1
  6
Continuous
 62
     7
100
AcDbCircle
 10
88.19860034321128
 20
-65.62339990768865
 30
0.0
 40
1.5
  0
CIRCLE
  5
F3
330
1F
100
AcDbEntity
  8
1
  6
Continuous
 62
     7
100
AcDbCircle
 10
88.19860034321128
 20
76.37660009231135
 30
0.0
 40
1.5
  0
CIRCLE
  5
F4
330
1F
100
AcDbEntity
  8
1
  6
DOT_CENTER
 62
     2
100
AcDbCircle
 10
87.19860034321128
 20
-63.12339990768867
 30
0.0
 40
8.0
  0
CIRCLE
  5
F5
330
1F
100
AcDbEntity
  8
1
  6
DOT_CENTER
 62
     2
100
AcDbCircle
 10
-176.1092983114338
 20
-61.62339990768865
 30
0.0
 40
8.0
  0
XLINE
  5
F6
330
1F
100
AcDbEntity
  8
1
  6
DOT_CENTER
 62
     3
 60
     1
100
AcDbXline
 10
-197.6000806359427
 20
5.37660009231135
 30
0.0
 11
1.0
 21
0.0
 31
0.0
  0
ARC
  5
F7
330
1F
100
AcDbEntity
  8
1
  6
Continuous
 62
     7
100
AcDbCircle
 10
-178.6092983114338
 20
72.37660009231135
 30
0.0
 40
10.5
100
AcDbArc
 50
0.0
 51
90.0
  0
ARC
  5
F8
330
1F
100
AcDbEntity
  8
1
  6
Continuous
 62
     7
100
AcDbCircle
 10
-178.6092983114338
 20
72.37660009231135
 30
0.0
 40
10.5
100
AcDbArc
 50
90.0
 51
180.0
  0
ARC
  5
F9
330
1F
100
AcDbEntity
  8
1
  6
Continuous
 62
     7
100
AcDbCircle
 10
-178.6092983114338
 20
-61.62339990768865
 30
0.0
 40
10.5
100
AcDbArc
 50
180.0
 51
-90.0
  0
ARC
  5
FA
330
1F
100
AcDbEntity
  8
1
  6
Continuous
 62
     7
100
AcDbCircle
 10
-178.6092983114338
 20
-61.62339990768865
 30
0.0
 40
10.5
100
AcDbArc
 50
-90.0
 51
0.0
  0
ARC
  5
FB
330
1F
100
AcDbEntity
  8
1
  6
Continuous
 62
     7
100
AcDbCircle
 10
-177.1092983114338
 20
62.37660009231135
 30
0.0
 40
9.0
100
AcDbArc
 50
90.0
 51
-179.9999999999999
  0
ARC
  5
FC
330
1F
100
AcDbEntity
  8
1
  6
Continuous
 62
     7
100
AcDbCircle
 10
-177.1092983114338
 20
62.37660009231135
 30
0.0
 40
9.0
100
AcDbArc
 50
0.0
 51
90.0
  0
ARC
  5
FD
330
1F
100
AcDbEntity
  8
1
  6
Continuous
 62
     7
100
AcDbCircle
 10
-177.1092983114338
 20
-51.62339990768865
 30
0.0
 40
9.0
100
AcDbArc
 50
180.0
 51
-90.0
  0
ARC
  5
FE
330
1F
100
AcDbEntity
  8
1
  6
Continuous
 62
     7
100
AcDbCircle
 10
-177.1092983114338
 20
-51.62339990768865
 30
0.0
 40
9.0
100
AcDbArc
 50
-90.0
 51
0.0
  0
MTEXT
  5
100
330
1F
100
AcDbEntity
  8
1
 62
     3
100
AcDbMText
 10
-46.01073053579021
 20
-99.7574994986811
 30
0.0
 40
5.0
 41
0.0
 71
     4
 72
     1
  1
Fräsbild\PFutterzarge\PRahmen
  7
CONVERTER_11
 73
     1
 44
1.32052821128451
  0
MTEXT
  5
101
330
1F
100
AcDbEntity
  8
1
 62
     3
100
AcDbMText
 10
18.40554988135929
 20
-94.8598745247702
 30
0.0
 40
5.0
 41
0.0
 71
     4
 72
     1
  1
Fräsbild\PFlügel
  7
CONVERTER_11
 73
     1
 44
1.32052821128451
  0
DIMENSION
  5
10C
330
1F
100
AcDbEntity
  8
1
100
AcDbDimension
  2
*D1
 10
-68.80177865188125
 20
-105.210878074178
 30
0.0
 11
-77.7669343051114
 21
-101.460878074178
 31
0.0
 70
    32
  1
<>
 71
     5
 42
-1.0
 53
0.00013888888889
  3
ME10_DIM_10
100
AcDbAlignedDimension
 13
-83.8017786518812
 23
-72.12339990768865
 33
0.0
 14
-68.80177865188125
 24
-72.12339990768866
 34
0.0
100
AcDbRotatedDimension
  0
DIMENSION
  5
119
330
1F
100
AcDbEntity
  8
1
100
AcDbDimension
  2
*D2
 10
-5.18553578466981
 20
-66.6979399702632
 30
0.0
 11
-8.93553578466981
 21
-70.80640211641456
 31
0.0
 70
    32
  1
<>
 71
     5
 42
-1.0
 53
90.0
  3
ME10_DIM_11
100
AcDbAlignedDimension
 13
-11.11320632733316
 23
-63.69793997026321
 33
0.0
 14
-1.11320632733316
 24
-66.6979399702632
 34
0.0
 50
90.0
100
AcDbRotatedDimension
  0
DIMENSION
  5
124
330
1F
100
AcDbEntity
  8
1
100
AcDbDimension
  2
*D3
 10
119.3887512679591
 20
76.37660009231135
 30
0.0
 11
115.6387512679591
 21
3.37388654899802
 31
0.0
 70
    32
  1
<>
 71
     5
 42
-1.0
 53
90.0
  3
ME10_DIM_12
100
AcDbAlignedDimension
 13
85.94860034321128
 23
-65.62339990768865
 33
0.0
 14
85.94860034321128
 24
76.37660009231135
 34
0.0
 50
90.0
100
AcDbRotatedDimension
  0
DIMENSION
  5
12F
330
1F
100
AcDbEntity
  8
1
100
AcDbDimension
  2
*D4
 10
56.5158341698211
 20
-42.69793997026321
 30
0.0
 11
52.7658341698211
 21
-54.7226779503028
 31
0.0
 70
    32
  1
<>
 71
     5
 42
-1.0
 53
90.0
  3
ME10_DIM_13
100
AcDbAlignedDimension
 13
47.38679367266684
 23
-66.6979399702632
 33
0.0
 14
15.38679367266695
 24
-42.69793997026321
 34
0.0
 50
90.0
100
AcDbRotatedDimension
  0
DIMENSION
  5
13C
330
1F
100
AcDbEntity
  8
1
100
AcDbDimension
  2
*D5
 10
9.63953091356274
 20
-62.69793997026319
 30
0.0
 11
5.88953091356274
 21
-72.6886454488453
 31
0.0
 70
    32
  1
<>
 71
     5
 42
-1.0
 53
90.0
  3
ME10_DIM_14
100
AcDbAlignedDimension
 13
2.38679367266664
 23
-66.6979399702632
 33
0.0
 14
12.38679367266663
 24
-62.69793997026319
 34
0.0
 50
90.0
100
AcDbRotatedDimension
  0
DIMENSION
  5
147
330
1F
100
AcDbEntity
  8
1
100
AcDbDimension
  2
*D6
 10
180.9119338369392
 20
-114.622960427562
 30
0.0
 11
167.3694218363876
 21
-110.872960427562
 31
0.0
 70
    32
  1
<>
 71
     5
 42
-1.0
 53
0.00013888888889
  3
ME10_DIM_15
100
AcDbAlignedDimension
 13
153.9119338369392
 23
-54.62339990768866
 33
0.0
 14
180.9119338369392
 24
-72.12339990768865
 34
0.0
100
AcDbRotatedDimension
  0
DIMENSION
  5
152
330
1F
100
AcDbEntity
  8
1
100
AcDbDimension
  2
*D7
 10
170.9119338369392
 20
-103.785670014645
 30
0.0
 11
175.430422172949
 21
-100.035670014645
 31
0.0
 70
    32
  1
<>
 71
     5
 42
-1.0
 53
0.00013888888889
  3
ME10_DIM_16
100
AcDbAlignedDimension
 13
180.9119338369392
 23
-94.62339990768866
 33
0.0
 14
170.9119338369392
 24
-72.12339990768865
 34
0.0
100
AcDbRotatedDimension
  0
DIMENSION
  5
15D
330
1F
100
AcDbEntity
  8
1
100
AcDbDimension
  2
*D8
 10
-68.80177865188125
 20
-118.2833961103276
 30
0.0
 11
-80.97599419807557
 21
-114.5333961103276
 31
0.0
 70
    32
  1
<>
 71
     5
 42
-1.0
 53
0.00013888888889
  3
ME10_DIM_17
100
AcDbAlignedDimension
 13
-92.80488390961862
 23
-60.62339990768862
 33
0.0
 14
-68.80177865188125
 24
-72.12339990768866
 34
0.0
100
AcDbRotatedDimension
  0
DIMENSION
  5
168
330
1F
100
AcDbEntity
  8
1
100
AcDbDimension
  2
*D9
 10
110.769916730974
 20
65.37660009231134
 30
0.0
 11
107.019916730974
 21
3.6038703627465
 31
0.0
 70
    32
  1
<>
 71
     5
 42
-1.0
 53
90.0
  3
ME10_DIM_18
100
AcDbAlignedDimension
 13
87.19860034321128
 23
-54.62339990768865
 33
0.0
 14
87.19860034321128
 24
65.37660009231135
 34
0.0
 50
90.0
100
AcDbRotatedDimension
  0
DIMENSION
  5
173
330
1F
100
AcDbEntity
  8
1
100
AcDbDimension
  2
*D10
 10
129.164495411211
 20
-72.12339990768865
 30
0.0
 11
125.414495411211
 21
6.25238840697301
 31
0.0
 70
    32
  1
<>
 71
     5
 42
-1.0
 53
90.0
  3
ME10_DIM_19
100
AcDbAlignedDimension
 13
88.19860034321128
 23
82.87660009231135
 33
0.0
 14
88.19860034321127
 24
-72.12339990768865
 34
0.0
 50
90.0
100
AcDbRotatedDimension
  0
DIMENSION
  5
17E
330
1F
100
AcDbEntity
  8
1
100
AcDbDimension
  2
*D11
 10
95.19860034321128
 20
16.3048182481224
 30
0.0
 11
84.7020811065338
 21
20.0548182481224
 31
0.0
 70
    32
  1
<>
 71
     5
 42
-1.0
 53
0.00013888888889
  3
ME10_DIM_20
100
AcDbAlignedDimension
 13
79.19860034321128
 23
5.37660009231135
 33
0.0
 14
95.19860034321128
 24
-46.62339990768864
 34
0.0
100
AcDbRotatedDimension
  0
DIMENSION
  5
189
330
1F
100
AcDbEntity
  8
1
100
AcDbDimension
  2
*D12
 10
97.19860034321127
 20
-105.781584343866
 30
0.0
 11
86.890868300829
 21
-102.031584343866
 31
0.0
 70
    32
  1
<>
 71
     5
 42
-1.0
 53
0.00013888888889
  3
ME10_DIM_21
100
AcDbAlignedDimension
 13
79.19860034321128
 23
-63.12339990768867
 33
0.0
 14
97.19860034321127
 24
-63.12339990768867
 34
0.0
100
AcDbRotatedDimension
  0
DIMENSION
  5
196
330
1F
100
AcDbEntity
  8
1
100
AcDbDimension
  2
*D13
 10
101.1986003432113
 20
-105.781584343866
 30
0.0
 11
107.590539035212
 21
-102.031584343866
 31
0.0
 70
    32
  1
<>
 71
     5
 42
-1.0
 53
0.00013888888889
  3
ME10_DIM_22
100
AcDbAlignedDimension
 13
97.19860034321127
 23
-63.12339990768867
 33
0.0
 14
101.1986003432113
 24
-94.62339990768866
 34
0.0
100
AcDbRotatedDimension
  0
DIMENSION
  5
1A1
330
1F
100
AcDbEntity
  8
1
100
AcDbDimension
  2
*D14
 10
-168.1092983114338
 20
-107.5759847602375
 30
0.0
 11
-178.8452342178087
 21
-103.8259847602375
 31
0.0
 70
    32
  1
<>
 71
     5
 42
-1.0
 53
0.00013888888889
  3
ME10_DIM_23
100
AcDbAlignedDimension
 13
-189.1092983114338
 23
-61.62339990768865
 33
0.0
 14
-168.1092983114338
 24
-61.62339990768865
 34
0.0
100
AcDbRotatedDimension
  0
DIMENSION
  5
1AC
330
1F
100
AcDbEntity
  8
1
100
AcDbDimension
  2
*D15
 10
-186.1092983114338
 20
28.4188748070954
 30
0.0
 11
-173.5515473033972
 21
32.1688748070954
 31
0.0
 70
    32
  1
<>
 71
     5
 42
-1.0
 53
0.00013888888889
  3
ME10_DIM_24
100
AcDbAlignedDimension
 13
-168.1092983114338
 23
72.37660009231135
 33
0.0
 14
-186.1092983114338
 24
62.37660009231134
 34
0.0
100
AcDbRotatedDimension
  0
DIMENSION
  5
1B7
330
1F
100
AcDbEntity
  8
1
100
AcDbDimension
  2
*D16
 10
-126.887717566138
 20
82.87660009231135
 30
0.0
 11
-130.637717566138
 21
6.81986230664208
 31
0.0
 70
    32
  1
<>
 71
     5
 42
-1.0
 53
90.0
  3
ME10_DIM_25
100
AcDbAlignedDimension
 13
-178.6092983114338
 23
-72.12339990768865
 33
0.0
 14
-178.6092983114338
 24
82.87660009231135
 34
0.0
 50
90.0
100
AcDbRotatedDimension
  0
DIMENSION
  5
1C2
330
1F
100
AcDbEntity
  8
1
100
AcDbDimension
  2
*D17
 10
-151.908988527876
 20
71.37660009231135
 30
0.0
 11
-155.658988527876
 21
4.62500743621877
 31
0.0
 70
    32
  1
<>
 71
     5
 42
-1.0
 53
90.0
  3
ME10_DIM_26
100
AcDbAlignedDimension
 13
-177.1092983114338
 23
-60.62339990768865
 33
0.0
 14
-177.1092983114338
 24
71.37660009231135
 34
0.0
 50
90.0
100
AcDbRotatedDimension
  0
DIMENSION
  5
1CF
330
1F
100
AcDbEntity
  8
1
100
AcDbDimension
  2
*D18
 10
-192.1092983114338
 20
-107.635225276103
 30
0.0
 11
-196.619257011963
 21
-103.885225276103
 31
0.0
 70
    32
  1
<>
 71
     5
 42
-1.0
 53
0.00013888888889
  3
ME10_DIM_27
100
AcDbAlignedDimension
 13
-189.1092983114338
 23
-61.62339990768865
 33
0.0
 14
-192.1092983114338
 24
-94.62339990768865
 34
0.0
100
AcDbRotatedDimension
  0
INSERT
  5
1D6
330
1F
100
AcDbEntity
  8
1
100
AcDbBlockReference
  2
*D19
 10
0.0
 20
0.0
 30
0.0
  0
INSERT
  5
1DF
330
1F
100
AcDbEntity
  8
1
100
AcDbBlockReference
  2
*D20
 10
0.0
 20
0.0
 30
0.0
  0
INSERT
  5
1E7
330
1F
100
AcDbEntity
  8
1
100
AcDbBlockReference
  2
*D21
 10
0.0
 20
0.0
 30
0.0
  0
INSERT
  5
1EF
330
1F
100
AcDbEntity
  8
1
100
AcDbBlockReference
  2
*D22
 10
0.0
 20
0.0
 30
0.0
  0
ENDSEC
  0
SECTION
  2
OBJECTS
  0
DICTIONARY
  5
C
330
0
100
AcDbDictionary
281
     1
  3
ACAD_GROUP
350
D
  3
ACAD_LAYOUT
350
1A
  3
ACAD_MLINESTYLE
350
17
  3
ACAD_PLOTSETTINGS
350
19
  3
ACAD_PLOTSTYLENAME
350
E
  0
DICTIONARY
  5
D
102
{ACAD_REACTORS
330
C
102
}
330
C
100
AcDbDictionary
281
     1
  0
DICTIONARY
  5
1A
102
{ACAD_REACTORS
330
C
102
}
330
C
100
AcDbDictionary
281
     1
  3
Layout1
350
1E
  3
Layout2
350
26
  3
Model
350
22
  0
DICTIONARY
  5
17
102
{ACAD_REACTORS
330
C
102
}
330
C
100
AcDbDictionary
281
     1
  3
Standard
350
18
  0
DICTIONARY
  5
19
102
{ACAD_REACTORS
330
C
102
}
330
C
100
AcDbDictionary
281
     1
  0
ACDBDICTIONARYWDFLT
  5
E
102
{ACAD_REACTORS
330
C
102
}
330
C
100
AcDbDictionary
281
     1
  3
Normal
350
F
100
AcDbDictionaryWithDefault
340
F
  0
LAYOUT
  5
1E
102
{ACAD_REACTORS
330
1A
102
}
330
1A
100
AcDbPlotSettings
  1

  2

  4

  6

 40
0.0
 41
0.0
 42
0.0
 43
0.0
 44
0.0
 45
0.0
 46
0.0
 47
0.0
 48
0.0
 49
0.0
140
0.0
141
0.0
142
1.0
143
1.0
 70
   688
 72
     0
 73
     0
 74
     5
  7

 75
    16
 76
     0
 77
     2
 78
   300
147
1.0
148
0.0
149
0.0
100
AcDbLayout
  1
Layout1
 70
     1
 71
     1
 10
0.0
 20
0.0
 11
0.0
 21
0.0
 12
0.0
 22
0.0
 32
0.0
 14
0.0
 24
0.0
 34
0.0
 15
0.0
 25
0.0
 35
0.0
146
0.0
 13
0.0
 23
0.0
 33
0.0
 16
1.0
 26
0.0
 36
0.0
 17
0.0
 27
1.0
 37
0.0
 76
     0
330
1B
  0
LAYOUT
  5
26
102
{ACAD_REACTORS
330
1A
102
}
330
1A
100
AcDbPlotSettings
  1

  2

  4

  6

 40
0.0
 41
0.0
 42
0.0
 43
0.0
 44
0.0
 45
0.0
 46
0.0
 47
0.0
 48
0.0
 49
0.0
140
0.0
141
0.0
142
1.0
143
1.0
 70
   688
 72
     0
 73
     0
 74
     5
  7

 75
    16
 76
     0
 77
     2
 78
   300
147
1.0
148
0.0
149
0.0
100
AcDbLayout
  1
Layout2
 70
     1
 71
     2
 10
0.0
 20
0.0
 11
0.0
 21
0.0
 12
0.0
 22
0.0
 32
0.0
 14
0.0
 24
0.0
 34
0.0
 15
0.0
 25
0.0
 35
0.0
146
0.0
 13
0.0
 23
0.0
 33
0.0
 16
1.0
 26
0.0
 36
0.0
 17
0.0
 27
1.0
 37
0.0
 76
     0
330
23
  0
LAYOUT
  5
22
102
{ACAD_REACTORS
330
1A
102
}
330
1A
100
AcDbPlotSettings
  1

  2

  4

  6

 40
0.0
 41
0.0
 42
0.0
 43
0.0
 44
0.0
 45
0.0
 46
0.0
 47
0.0
 48
0.0
 49
0.0
140
0.0
141
0.0
142
1.0
143
1.0
 70
  1712
 72
     0
 73
     0
 74
     0
  7

 75
     0
 76
     0
 77
     2
 78
   300
147
1.0
148
0.0
149
0.0
100
AcDbLayout
  1
Model
 70
     1
 71
     0
 10
0.0
 20
0.0
 11
0.0
 21
0.0
 12
0.0
 22
0.0
 32
0.0
 14
-203.5853763311428
 24
-120.2833961103276
 34
0.0
 15
183.144101125991
 25
109.761881720986
 35
0.0
146
0.0
 13
0.0
 23
0.0
 33
0.0
 16
1.0
 26
0.0
 36
0.0
 17
0.0
 27
1.0
 37
0.0
 76
     0
330
1F
  0
MLINESTYLE
  5
18
102
{ACAD_REACTORS
330
17
102
}
330
17
100
AcDbMlineStyle
  2
Standard
 70
     0
  3

 62
   256
 51
90.0
 52
90.0
 71
     2
 49
0.5
 62
   256
  6
BYLAYER
 49
-0.5
 62
   256
  6
BYLAYER
  0
ACDBPLACEHOLDER
  5
F
102
{ACAD_REACTORS
330
E
102
}
330
E
  0
ENDSEC
  0
EOF
