  0
SECTION
  2
HEADER
  9
$ACADVER
  1
AC1018
  9
$ACADMAINTVER
 70
     0
  9
$DWGCODEPAGE
  3
ANSI_1252
  9
$INSBASE
 10
0.0
 20
0.0
 30
0.0
  9
$EXTMIN
 10
39.7262206653976
 20
107.75173284228
 30
0.0
  9
$EXTMAX
 10
181.545245666253
 20
226.6651711422228
 30
0.0
  9
$LIMMIN
 10
0.0
 20
0.0
  9
$LIMMAX
 10
12.0
 20
9.0
  9
$ORTHOMODE
 70
     0
  9
$REGENMODE
 70
     1
  9
$FILLMODE
 70
     1
  9
$QTEXTMODE
 70
     0
  9
$MIRRTEXT
 70
     1
  9
$LTSCALE
 40
1.0
  9
$ATTMODE
 70
     1
  9
$TEXTSIZE
 40
0.2
  9
$TRACEWID
 40
0.05
  9
$TEXTSTYLE
  7
Standard
  9
$CLAYER
  8
0
  9
$CELTYPE
  6
ByLayer
  9
$CECOLOR
 62
   256
  9
$CELTSCALE
 40
1.0
  9
$DISPSILH
 70
     0
  9
$DIMSCALE
 40
1.0
  9
$DIMASZ
 40
0.18
  9
$DIMEXO
 40
0.0625
  9
$DIMDLI
 40
0.38
  9
$DIMRND
 40
0.0
  9
$DIMDLE
 40
0.0
  9
$DIMEXE
 40
0.18
  9
$DIMTP
 40
0.0
  9
$DIMTM
 40
0.0
  9
$DIMTXT
 40
0.18
  9
$DIMCEN
 40
0.09
  9
$DIMTSZ
 40
0.0
  9
$DIMTOL
 70
     0
  9
$DIMLIM
 70
     0
  9
$DIMTIH
 70
     1
  9
$DIMTOH
 70
     1
  9
$DIMSE1
 70
     0
  9
$DIMSE2
 70
     0
  9
$DIMTAD
 70
     0
  9
$DIMZIN
 70
     0
  9
$DIMBLK
  1

  9
$DIMASO
 70
     1
  9
$DIMSHO
 70
     1
  9
$DIMPOST
  1

  9
$DIMAPOST
  1

  9
$DIMALT
 70
     0
  9
$DIMALTD
 70
     2
  9
$DIMALTF
 40
25.4
  9
$DIMLFAC
 40
1.0
  9
$DIMTOFL
 70
     0
  9
$DIMTVP
 40
0.0
  9
$DIMTIX
 70
     0
  9
$DIMSOXD
 70
     0
  9
$DIMSAH
 70
     0
  9
$DIMBLK1
  1

  9
$DIMBLK2
  1

  9
$DIMSTYLE
  2
Standard
  9
$DIMCLRD
 70
     0
  9
$DIMCLRE
 70
     0
  9
$DIMCLRT
 70
     0
  9
$DIMTFAC
 40
1.0
  9
$DIMGAP
 40
0.09
  9
$DIMJUST
 70
     0
  9
$DIMSD1
 70
     0
  9
$DIMSD2
 70
     0
  9
$DIMTOLJ
 70
     1
  9
$DIMTZIN
 70
     0
  9
$DIMALTZ
 70
     0
  9
$DIMALTTZ
 70
     0
  9
$DIMUPT
 70
     0
  9
$DIMDEC
 70
     4
  9
$DIMTDEC
 70
     4
  9
$DIMALTU
 70
     2
  9
$DIMALTTD
 70
     2
  9
$DIMTXSTY
  7
Standard
  9
$DIMAUNIT
 70
     0
  9
$DIMADEC
 70
     0
  9
$DIMALTRND
 40
0.0
  9
$DIMAZIN
 70
     0
  9
$DIMDSEP
 70
    46
  9
$DIMATFIT
 70
     3
  9
$DIMFRAC
 70
     0
  9
$DIMLDRBLK
  1

  9
$DIMLUNIT
 70
     2
  9
$DIMLWD
 70
    -2
  9
$DIMLWE
 70
    -2
  9
$DIMTMOVE
 70
     0
  9
$LUNITS
 70
     2
  9
$LUPREC
 70
     4
  9
$SKETCHINC
 40
0.1
  9
$FILLETRAD
 40
0.5
  9
$AUNITS
 70
     0
  9
$AUPREC
 70
     0
  9
$MENU
  1
.
  9
$ELEVATION
 40
0.0
  9
$PELEVATION
 40
0.0
  9
$THICKNESS
 40
0.0
  9
$LIMCHECK
 70
     0
  9
$CHAMFERA
 40
0.5
  9
$CHAMFERB
 40
0.5
  9
$CHAMFERC
 40
1.0
  9
$CHAMFERD
 40
0.0
  9
$SKPOLY
 70
     0
  9
$TDCREATE
 40
2454852.379623079
  9
$TDUCREATE
 40
2454852.337956412
  9
$TDUPDATE
 40
2454852.37962309
  9
$TDUUPDATE
 40
2454852.337956423
  9
$TDINDWG
 40
0.0000000116
  9
$TDUSRTIMER
 40
0.0000000116
  9
$USRTIMER
 70
     1
  9
$ANGBASE
 50
0.0
  9
$ANGDIR
 70
     0
  9
$PDMODE
 70
     0
  9
$PDSIZE
 40
0.0
  9
$PLINEWID
 40
0.0
  9
$SPLFRAME
 70
     0
  9
$SPLINETYPE
 70
     6
  9
$SPLINESEGS
 70
     8
  9
$HANDSEED
  5
181
  9
$SURFTAB1
 70
     6
  9
$SURFTAB2
 70
     6
  9
$SURFTYPE
 70
     6
  9
$SURFU
 70
     6
  9
$SURFV
 70
     6
  9
$UCSBASE
  2

  9
$UCSNAME
  2

  9
$UCSORG
 10
0.0
 20
0.0
 30
0.0
  9
$UCSXDIR
 10
1.0
 20
0.0
 30
0.0
  9
$UCSYDIR
 10
0.0
 20
1.0
 30
0.0
  9
$UCSORTHOREF
  2

  9
$UCSORTHOVIEW
 70
     0
  9
$UCSORGTOP
 10
0.0
 20
0.0
 30
0.0
  9
$UCSORGBOTTOM
 10
0.0
 20
0.0
 30
0.0
  9
$UCSORGLEFT
 10
0.0
 20
0.0
 30
0.0
  9
$UCSORGRIGHT
 10
0.0
 20
0.0
 30
0.0
  9
$UCSORGFRONT
 10
0.0
 20
0.0
 30
0.0
  9
$UCSORGBACK
 10
0.0
 20
0.0
 30
0.0
  9
$PUCSBASE
  2

  9
$PUCSNAME
  2

  9
$PUCSORG
 10
0.0
 20
0.0
 30
0.0
  9
$PUCSXDIR
 10
1.0
 20
0.0
 30
0.0
  9
$PUCSYDIR
 10
0.0
 20
1.0
 30
0.0
  9
$PUCSORTHOREF
  2

  9
$PUCSORTHOVIEW
 70
     0
  9
$PUCSORGTOP
 10
0.0
 20
0.0
 30
0.0
  9
$PUCSORGBOTTOM
 10
0.0
 20
0.0
 30
0.0
  9
$PUCSORGLEFT
 10
0.0
 20
0.0
 30
0.0
  9
$PUCSORGRIGHT
 10
0.0
 20
0.0
 30
0.0
  9
$PUCSORGFRONT
 10
0.0
 20
0.0
 30
0.0
  9
$PUCSORGBACK
 10
0.0
 20
0.0
 30
0.0
  9
$USERI1
 70
     0
  9
$USERI2
 70
     0
  9
$USERI3
 70
     0
  9
$USERI4
 70
     0
  9
$USERI5
 70
     0
  9
$USERR1
 40
14.5
  9
$USERR2
 40
0.0
  9
$USERR3
 40
0.0
  9
$USERR4
 40
0.0
  9
$USERR5
 40
0.0
  9
$WORLDVIEW
 70
     1
  9
$SHADEDGE
 70
     3
  9
$SHADEDIF
 70
    70
  9
$TILEMODE
 70
     1
  9
$MAXACTVP
 70
    64
  9
$PINSBASE
 10
0.0
 20
0.0
 30
0.0
  9
$PLIMCHECK
 70
     0
  9
$PEXTMIN
 10
1.00000000000000E+20
 20
1.00000000000000E+20
 30
1.00000000000000E+20
  9
$PEXTMAX
 10
-1.00000000000000E+20
 20
-1.00000000000000E+20
 30
-1.00000000000000E+20
  9
$PLIMMIN
 10
0.0
 20
0.0
  9
$PLIMMAX
 10
12.0
 20
9.0
  9
$UNITMODE
 70
     0
  9
$VISRETAIN
 70
     1
  9
$PLINEGEN
 70
     0
  9
$PSLTSCALE
 70
     1
  9
$TREEDEPTH
 70
  3020
  9
$CMLSTYLE
  2
Standard
  9
$CMLJUST
 70
     0
  9
$CMLSCALE
 40
1.0
  9
$PROXYGRAPHICS
 70
     1
  9
$MEASUREMENT
 70
     1
  9
$CELWEIGHT
370
    -1
  9
$ENDCAPS
280
     0
  9
$JOINSTYLE
280
     0
  9
$LWDISPLAY
290
     0
  9
$INSUNITS
 70
     1
  9
$HYPERLINKBASE
  1

  9
$STYLESHEET
  1

  9
$XEDIT
290
     1
  9
$CEPSNTYPE
380
     0
  9
$PSTYLEMODE
290
     1
  9
$FINGERPRINTGUID
  2
{3E3C4430-64D8-42BD-935D-6C478B47CD52}
  9
$VERSIONGUID
  2
{FAEB1C32-E019-11D5-929B-00C0DF256EC4}
  9
$EXTNAMES
290
     1
  9
$PSVPSCALE
 40
0.0
  9
$OLESTARTUP
290
     0
  9
$SORTENTS
280
   127
  9
$INDEXCTL
280
     0
  9
$HIDETEXT
280
     1
  9
$XCLIPFRAME
290
     0
  9
$HALOGAP
280
     0
  9
$OBSCOLOR
 70
   257
  9
$OBSLTYPE
280
     0
  9
$INTERSECTIONDISPLAY
280
     0
  9
$INTERSECTIONCOLOR
 70
   257
  9
$DIMASSOC
280
     2
  9
$PROJECTNAME
  1

  0
ENDSEC
  0
SECTION
  2
CLASSES
  0
CLASS
  1
ACDBDICTIONARYWDFLT
  2
AcDbDictionaryWithDefault
  3
ObjectDBX Classes
 90
        0
 91
        3
280
     0
281
     0
  0
CLASS
  1

  2
exOdDbCircle
  3

 90
        0
 91
        3
280
     0
281
     1
  0
ENDSEC
  0
SECTION
  2
TABLES
  0
TABLE
  2
VPORT
  5
8
330
0
100
AcDbSymbolTable
 70
     1
  0
VPORT
  5
29
330
8
100
AcDbSymbolTableRecord
100
AcDbViewportTableRecord
  2
*Active
 70
     0
 10
0.0
 20
0.0
 11
1.0
 21
1.0
 12
110.6357331658253
 22
167.2084519922514
 13
0.0
 23
0.0
 14
0.5
 24
0.5
 15
0.5
 25
0.5
 16
0.0
 26
0.0
 36
1.0
 17
0.0
 27
0.0
 37
0.0
 40
130.8047821299371
 41
1.60267857142857
 42
50.0
 43
0.0
 44
0.0
 50
0.0
 51
0.0
 71
     0
 72
   100
 73
     1
 74
     3
 75
     0
 76
     0
 77
     0
 78
     0
281
     0
 65
     1
110
0.0
120
0.0
130
0.0
111
1.0
121
0.0
131
0.0
112
0.0
122
1.0
132
0.0
 79
     0
146
0.0
  0
ENDTAB
  0
TABLE
  2
LTYPE
  5
5
330
0
100
AcDbSymbolTable
 70
     8
  0
LTYPE
  5
14
330
5
100
AcDbSymbolTableRecord
100
AcDbLinetypeTableRecord
  2
ByBlock
 70
     0
  3

 72
    65
 73
     0
 40
0.0
  0
LTYPE
  5
15
330
5
100
AcDbSymbolTableRecord
100
AcDbLinetypeTableRecord
  2
ByLayer
 70
     0
  3

 72
    65
 73
     0
 40
0.0
  0
LTYPE
  5
16
330
5
100
AcDbSymbolTableRecord
100
AcDbLinetypeTableRecord
  2
Continuous
 70
     0
  3
Solid line
 72
    65
 73
     0
 40
0.0
  0
LTYPE
  5
2A
330
5
100
AcDbSymbolTableRecord
100
AcDbLinetypeTableRecord
  2
DASHED
 70
     0
  3
Dashed
 72
    65
 73
     2
 40
15.0
 49
7.0
 74
     0
 49
-8.0
 74
     0
  0
LTYPE
  5
2B
330
5
100
AcDbSymbolTableRecord
100
AcDbLinetypeTableRecord
  2
DOTTED
 70
     0
  3
Dotted
 72
    65
 73
     2
 40
1.0
 49
0.0
 74
     0
 49
-1.0
 74
     0
  0
LTYPE
  5
2C
330
5
100
AcDbSymbolTableRecord
100
AcDbLinetypeTableRecord
  2
DOT_CENTER
 70
     0
  3
Dot_Center
 72
    65
 73
     4
 40
14.0
 49
12.0
 74
     0
 49
-1.0
 74
     0
 49
0.0
 74
     0
 49
-1.0
 74
     0
  0
LTYPE
  5
2D
330
5
100
AcDbSymbolTableRecord
100
AcDbLinetypeTableRecord
  2
LONG_DASHED
 70
     0
  3
Long_Dashed
 72
    65
 73
     2
 40
15.0
 49
10.0
 74
     0
 49
-5.0
 74
     0
  0
LTYPE
  5
2E
330
5
100
AcDbSymbolTableRecord
100
AcDbLinetypeTableRecord
  2
DASH_CENTER
 70
     0
  3
Dash_Center
 72
    65
 73
     4
 40
14.0
 49
11.0
 74
     0
 49
-1.0
 74
     0
 49
1.0
 74
     0
 49
-1.0
 74
     0
  0
LTYPE
  5
2F
330
5
100
AcDbSymbolTableRecord
100
AcDbLinetypeTableRecord
  2
PHANTOM
 70
     0
  3
Phantom
 72
    65
 73
     6
 40
13.0
 49
10.0
 74
     0
 49
-1.0
 74
     0
 49
0.0
 74
     0
 49
-1.0
 74
     0
 49
0.0
 74
     0
 49
-1.0
 74
     0
  0
LTYPE
  5
30
330
5
100
AcDbSymbolTableRecord
100
AcDbLinetypeTableRecord
  2
CENTER_DASH_DASH
 70
     0
  3
Center_Dash_Dash
 72
    65
 73
     6
 40
14.0
 49
9.0
 74
     0
 49
-1.0
 74
     0
 49
1.0
 74
     0
 49
-1.0
 74
     0
 49
1.0
 74
     0
 49
-1.0
 74
     0
  0
ENDTAB
  0
TABLE
  2
LAYER
  5
2
330
0
100
AcDbSymbolTable
 70
     3
  0
LAYER
  5
10
330
2
100
AcDbSymbolTableRecord
100
AcDbLayerTableRecord
  2
0
 70
     0
 62
     7
  6
Continuous
370
    -3
390
F
  0
LAYER
  5
31
330
2
100
AcDbSymbolTableRecord
100
AcDbLayerTableRecord
  2
1
 70
     0
 62
     7
  6
Continuous
370
    -3
390
F
  0
LAYER
  5
32
330
2
100
AcDbSymbolTableRecord
100
AcDbLayerTableRecord
  2
DEFAULT_1
 70
     0
 62
     7
  6
Continuous
370
    -3
390
F
  0
ENDTAB
  0
TABLE
  2
STYLE
  5
3
330
0
100
AcDbSymbolTable
 70
     2
  0
STYLE
  5
11
330
3
100
AcDbSymbolTableRecord
100
AcDbTextStyleTableRecord
  2
Standard
 70
     0
 40
0.0
 41
1.0
 50
0.0
 71
     0
 42
0.2
  3
txt
  4

  0
STYLE
  5
140
330
3
100
AcDbSymbolTableRecord
100
AcDbTextStyleTableRecord
  2
CONVERTER_11
 70
     0
 40
0.0
 41
0.9
 50
0.0
 71
     0
 42
0.2
  3
txt.shx
  4

  0
ENDTAB
  0
TABLE
  2
VIEW
  5
6
330
0
100
AcDbSymbolTable
 70
     0
  0
ENDTAB
  0
TABLE
  2
UCS
  5
7
330
0
100
AcDbSymbolTable
 70
     0
  0
ENDTAB
  0
TABLE
  2
APPID
  5
9
330
0
100
AcDbSymbolTable
 70
     1
  0
APPID
  5
12
330
9
100
AcDbSymbolTableRecord
100
AcDbRegAppTableRecord
  2
ACAD
 70
     0
  0
ENDTAB
  0
TABLE
  2
DIMSTYLE
  5
A
330
0
100
AcDbSymbolTable
 70
     7
100
AcDbDimStyleTable
  0
DIMSTYLE
105
27
330
A
100
AcDbSymbolTableRecord
100
AcDbDimStyleTableRecord
  2
Standard
 70
     0
340
11
  0
DIMSTYLE
105
144
102
{ACAD_REACTORS
330
145
102
}
330
A
100
AcDbSymbolTableRecord
100
AcDbDimStyleTableRecord
  2
ME10_DIM_10
 70
     0
 41
3.5
 42
0.0
 44
2.0
 73
     0
 74
     0
 77
     1
 78
     8
140
3.5
147
2.0
172
     1
173
     1
176
     2
177
     2
178
     2
271
     3
340
140
  0
DIMSTYLE
105
151
102
{ACAD_REACTORS
330
152
102
}
330
A
100
AcDbSymbolTableRecord
100
AcDbDimStyleTableRecord
  2
ME10_DIM_11
 70
     0
 41
3.5
 42
0.0
 44
2.0
 73
     0
 74
     0
 77
     1
 78
     8
140
3.5
147
2.0
172
     1
173
     1
176
     2
177
     2
178
     2
271
     3
340
140
  0
DIMSTYLE
105
15C
102
{ACAD_REACTORS
330
15D
102
}
330
A
100
AcDbSymbolTableRecord
100
AcDbDimStyleTableRecord
  2
ME10_DIM_12
 70
     0
 41
3.5
 42
0.0
 44
2.0
 73
     0
 74
     0
 77
     1
 78
     8
140
3.5
147
2.0
172
     1
173
     1
176
     2
177
     2
178
     2
271
     3
340
140
  0
DIMSTYLE
105
167
102
{ACAD_REACTORS
330
168
102
}
330
A
100
AcDbSymbolTableRecord
100
AcDbDimStyleTableRecord
  2
ME10_DIM_13
 70
     0
 41
3.5
 42
0.0
 44
2.0
 73
     0
 74
     0
 77
     1
 78
     8
140
3.5
147
2.0
172
     1
173
     1
176
     2
177
     2
178
     2
271
     3
340
140
  0
DIMSTYLE
105
174
102
{ACAD_REACTORS
330
175
102
}
330
A
100
AcDbSymbolTableRecord
100
AcDbDimStyleTableRecord
  2
ME10_DIM_14
 70
     0
 41
3.5
 42
0.0
 44
2.0
 73
     0
 74
     0
 77
     1
 78
     8
140
3.5
147
2.0
172
     1
173
     1
176
     2
177
     2
178
     2
271
     3
340
140
  0
DIMSTYLE
105
17F
102
{ACAD_REACTORS
330
180
102
}
330
A
100
AcDbSymbolTableRecord
100
AcDbDimStyleTableRecord
  2
ME10_DIM_15
 70
     0
 41
3.5
 42
0.0
 44
2.0
 73
     0
 74
     0
 77
     1
 78
     8
140
3.5
147
2.0
172
     1
173
     1
176
     2
177
     2
178
     2
271
     3
340
140
  0
ENDTAB
  0
TABLE
  2
BLOCK_RECORD
  5
1
330
0
100
AcDbSymbolTable
 70
     7
  0
BLOCK_RECORD
  5
1F
330
1
100
AcDbSymbolTableRecord
100
AcDbBlockTableRecord
  2
*Model_Space
340
22
  0
BLOCK_RECORD
  5
1B
330
1
100
AcDbSymbolTableRecord
100
AcDbBlockTableRecord
  2
*Paper_Space
340
1E
  0
BLOCK_RECORD
  5
23
330
1
100
AcDbSymbolTableRecord
100
AcDbBlockTableRecord
  2
*Paper_Space0
340
26
  0
BLOCK_RECORD
  5
13A
330
1
100
AcDbSymbolTableRecord
100
AcDbBlockTableRecord
  2
*D1
340
0
  0
BLOCK_RECORD
  5
146
330
1
100
AcDbSymbolTableRecord
100
AcDbBlockTableRecord
  2
*D2
340
0
  0
BLOCK_RECORD
  5
153
330
1
100
AcDbSymbolTableRecord
100
AcDbBlockTableRecord
  2
*D3
340
0
  0
BLOCK_RECORD
  5
15E
330
1
100
AcDbSymbolTableRecord
100
AcDbBlockTableRecord
  2
*D4
340
0
  0
BLOCK_RECORD
  5
169
330
1
100
AcDbSymbolTableRecord
100
AcDbBlockTableRecord
  2
*D5
340
0
  0
BLOCK_RECORD
  5
176
330
1
100
AcDbSymbolTableRecord
100
AcDbBlockTableRecord
  2
*D6
340
0
  0
ENDTAB
  0
ENDSEC
  0
SECTION
  2
BLOCKS
  0
BLOCK
  5
20
330
1F
100
AcDbEntity
  8
0
100
AcDbBlockBegin
  2
*Model_Space
 70
     0
 71
     0
 10
0.0
 20
0.0
 30
0.0
  3
*Model_Space
  1

  0
ENDBLK
  5
21
330
1F
100
AcDbEntity
  8
0
100
AcDbBlockEnd
  0
BLOCK
  5
1C
330
1B
100
AcDbEntity
 67
     1
  8
0
100
AcDbBlockBegin
  2
*Paper_Space
 70
     0
 71
     0
 10
0.0
 20
0.0
 30
0.0
  3
*Paper_Space
  1

  0
ENDBLK
  5
1D
330
1B
100
AcDbEntity
 67
     1
  8
0
100
AcDbBlockEnd
  0
BLOCK
  5
24
330
23
100
AcDbEntity
  8
0
100
AcDbBlockBegin
  2
*Paper_Space0
 70
     0
 71
     0
 10
0.0
 20
0.0
 30
0.0
  3
*Paper_Space0
  1

  0
ENDBLK
  5
25
330
23
100
AcDbEntity
  8
0
100
AcDbBlockEnd
  0
BLOCK
  5
142
330
13A
100
AcDbEntity
  8
0
100
AcDbBlockBegin
  2
*D1
 70
     1
 71
     0
 10
0.0
 20
0.0
 30
0.0
  3
*D1
  1

  0
LINE
  5
13B
330
13A
100
AcDbEntity
  8
1
  6
Continuous
 62
     2
100
AcDbLine
 10
45.2262206653976
 20
161.5996543779
 30
0.0
 11
45.2262206653976
 21
133.5996543779
 31
0.0
  0
LINE
  5
13C
330
13A
100
AcDbEntity
  8
1
  6
Continuous
 62
     2
100
AcDbLine
 10
80.2834101382
 20
133.5996543779
 30
0.0
 11
43.2262206653976
 21
133.5996543779
 31
0.0
  0
LINE
  5
13D
330
13A
100
AcDbEntity
  8
1
  6
Continuous
 62
     2
100
AcDbLine
 10
80.2834101382
 20
161.5996543779
 30
0.0
 11
43.2262206653976
 21
161.5996543779
 31
0.0
  0
SOLID
  5
13E
330
13A
100
AcDbEntity
  8
1
 62
     2
100
AcDbTrace
 10
45.68700440695348
 20
158.0996543779
 30
0.0
 11
44.76543692384171
 21
158.0996543779
 31
0.0
 12
45.2262206653976
 22
161.5996543779
 32
0.0
 13
45.2262206653976
 23
161.5996543779
 33
0.0
  0
SOLID
  5
13F
330
13A
100
AcDbEntity
  8
1
 62
     2
100
AcDbTrace
 10
44.76543692384171
 20
137.0996543779
 30
0.0
 11
45.68700440695348
 21
137.0996543779
 31
0.0
 12
45.2262206653976
 22
133.5996543779
 32
0.0
 13
45.2262206653976
 23
133.5996543779
 33
0.0
  0
MTEXT
  5
141
330
13A
100
AcDbEntity
  8
1
 62
     2
100
AcDbMText
 10
43.2262206653976
 20
145.250102568892
 30
0.0
 40
3.5
 41
0.0
 71
     7
 72
     1
  1
28
  7
CONVERTER_11
 11
0.0
 21
1.0
 31
0.0
 73
     1
 44
0.60024009603842
  0
ENDBLK
  5
143
330
13A
100
AcDbEntity
  8
0
100
AcDbBlockEnd
  0
BLOCK
  5
14F
330
146
100
AcDbEntity
  8
0
100
AcDbBlockBegin
  2
*D2
 70
     1
 71
     0
 10
0.0
 20
0.0
 30
0.0
  3
*D2
  1

  0
LINE
  5
147
330
146
100
AcDbEntity
  8
1
  6
Continuous
 62
     2
100
AcDbLine
 10
101.888345865071
 20
119.49922316715
 30
0.0
 11
111.2834101381999
 21
119.49922316715
 31
0.0
  0
LINE
  5
148
330
146
100
AcDbEntity
  8
1
  6
Continuous
 62
     2
100
AcDbLine
 10
111.2834101381999
 20
119.49922316715
 30
0.0
 11
114.7834101382
 21
119.49922316715
 31
0.0
  0
LINE
  5
149
330
146
100
AcDbEntity
  8
1
  6
Continuous
 62
     2
100
AcDbLine
 10
114.7834101382
 20
119.49922316715
 30
0.0
 11
121.7834101382
 21
119.49922316715
 31
0.0
  0
LINE
  5
14A
330
146
100
AcDbEntity
  8
1
  6
Continuous
 62
     2
100
AcDbLine
 10
114.7834101382
 20
129.5996543779
 30
0.0
 11
114.7834101382
 21
117.49922316715
 31
0.0
  0
LINE
  5
14B
330
146
100
AcDbEntity
  8
1
  6
Continuous
 62
     2
100
AcDbLine
 10
111.2834101381999
 20
129.5996543779
 30
0.0
 11
111.2834101381999
 21
117.49922316715
 31
0.0
  0
SOLID
  5
14C
330
146
100
AcDbEntity
  8
1
 62
     2
100
AcDbTrace
 10
107.7834101381999
 20
119.0384394255941
 30
0.0
 11
107.7834101381999
 21
119.9600069087059
 31
0.0
 12
111.2834101381999
 22
119.49922316715
 32
0.0
 13
111.2834101381999
 23
119.49922316715
 33
0.0
  0
SOLID
  5
14D
330
146
100
AcDbEntity
  8
1
 62
     2
100
AcDbTrace
 10
118.2834101382
 20
119.9600069087059
 30
0.0
 11
118.2834101382
 21
119.0384394255941
 31
0.0
 12
114.7834101382
 22
119.49922316715
 32
0.0
 13
114.7834101382
 23
119.49922316715
 33
0.0
  0
MTEXT
  5
14E
330
146
100
AcDbEntity
  8
1
 62
     2
100
AcDbMText
 10
101.888345865071
 20
121.49922316715
 30
0.0
 40
3.5
 41
0.0
 71
     7
 72
     1
  1
3.5
  7
CONVERTER_11
 11
0.9999999999970621
 21
2.424068405545307E-6
 31
0.0
 73
     1
 44
0.60024009603842
  0
ENDBLK
  5
150
330
146
100
AcDbEntity
  8
0
100
AcDbBlockEnd
  0
BLOCK
  5
15A
330
153
100
AcDbEntity
  8
0
100
AcDbBlockBegin
  2
*D3
 70
     1
 71
     0
 10
0.0
 20
0.0
 30
0.0
  3
*D3
  1

  0
LINE
  5
154
330
153
100
AcDbEntity
  8
1
  6
Continuous
 62
     2
100
AcDbLine
 10
111.2834101381999
 20
109.75173284228
 30
0.0
 11
80.2834101382
 21
109.75173284228
 31
0.0
  0
LINE
  5
155
330
153
100
AcDbEntity
  8
1
  6
Continuous
 62
     2
100
AcDbLine
 10
80.2834101382
 20
133.5996543779
 30
0.0
 11
80.2834101382
 21
107.75173284228
 31
0.0
  0
LINE
  5
156
330
153
100
AcDbEntity
  8
1
  6
Continuous
 62
     2
100
AcDbLine
 10
111.2834101381999
 20
129.5996543779
 30
0.0
 11
111.2834101381999
 21
107.75173284228
 31
0.0
  0
SOLID
  5
157
330
153
100
AcDbEntity
  8
1
 62
     2
100
AcDbTrace
 10
107.7834101381999
 20
109.2909491007241
 30
0.0
 11
107.7834101381999
 21
110.2125165838359
 31
0.0
 12
111.2834101381999
 22
109.75173284228
 32
0.0
 13
111.2834101381999
 23
109.75173284228
 33
0.0
  0
SOLID
  5
158
330
153
100
AcDbEntity
  8
1
 62
     2
100
AcDbTrace
 10
83.7834101382
 20
110.2125165838359
 30
0.0
 11
83.7834101382
 21
109.2909491007241
 31
0.0
 12
80.2834101382
 22
109.75173284228
 32
0.0
 13
80.2834101382
 23
109.75173284228
 33
0.0
  0
MTEXT
  5
159
330
153
100
AcDbEntity
  8
1
 62
     2
100
AcDbMText
 10
92.711343491022
 20
111.75173284228
 30
0.0
 40
3.5
 41
0.0
 71
     7
 72
     1
  1
31
  7
CONVERTER_11
 11
0.9999999999970621
 21
2.424068405545307E-6
 31
0.0
 73
     1
 44
0.60024009603842
  0
ENDBLK
  5
15B
330
153
100
AcDbEntity
  8
0
100
AcDbBlockEnd
  0
BLOCK
  5
165
330
15E
100
AcDbEntity
  8
0
100
AcDbBlockBegin
  2
*D4
 70
     1
 71
     0
 10
0.0
 20
0.0
 30
0.0
  3
*D4
  1

  0
LINE
  5
15F
330
15E
100
AcDbEntity
  8
1
  6
Continuous
 62
     2
100
AcDbLine
 10
114.7834101382
 20
109.75173284228
 30
0.0
 11
148.2834101382
 21
109.75173284228
 31
0.0
  0
LINE
  5
160
330
15E
100
AcDbEntity
  8
1
  6
Continuous
 62
     2
100
AcDbLine
 10
148.2834101382
 20
137.4625545311
 30
0.0
 11
148.2834101382
 21
107.75173284228
 31
0.0
  0
LINE
  5
161
330
15E
100
AcDbEntity
  8
1
  6
Continuous
 62
     2
100
AcDbLine
 10
114.7834101382
 20
129.5996543779
 30
0.0
 11
114.7834101382
 21
107.75173284228
 31
0.0
  0
SOLID
  5
162
330
15E
100
AcDbEntity
  8
1
 62
     2
100
AcDbTrace
 10
118.2834101382
 20
110.2125165838359
 30
0.0
 11
118.2834101382
 21
109.2909491007241
 31
0.0
 12
114.7834101382
 22
109.75173284228
 32
0.0
 13
114.7834101382
 23
109.75173284228
 33
0.0
  0
SOLID
  5
163
330
15E
100
AcDbEntity
  8
1
 62
     2
100
AcDbTrace
 10
144.7834101382
 20
109.2909491007241
 30
0.0
 11
144.7834101382
 21
110.2125165838359
 31
0.0
 12
148.2834101382
 22
109.75173284228
 32
0.0
 13
148.2834101382
 23
109.75173284228
 33
0.0
  0
MTEXT
  5
164
330
15E
100
AcDbEntity
  8
1
 62
     2
100
AcDbMText
 10
126.047472682731
 20
111.75173284228
 30
0.0
 40
3.5
 41
0.0
 71
     7
 72
     1
  1
33.5
  7
CONVERTER_11
 11
0.9999999999970621
 21
2.424068405545307E-6
 31
0.0
 73
     1
 44
0.60024009603842
  0
ENDBLK
  5
166
330
15E
100
AcDbEntity
  8
0
100
AcDbBlockEnd
  0
BLOCK
  5
172
330
169
100
AcDbEntity
  8
0
100
AcDbBlockBegin
  2
*D5
 70
     1
 71
     0
 10
0.0
 20
0.0
 30
0.0
  3
*D5
  1

  0
LINE
  5
16A
330
169
100
AcDbEntity
  8
1
  6
Continuous
 62
     2
100
AcDbLine
 10
179.545245666253
 20
122.5996543779
 30
0.0
 11
179.545245666253
 21
129.5996543779
 31
0.0
  0
LINE
  5
16B
330
169
100
AcDbEntity
  8
1
  6
Continuous
 62
     2
100
AcDbLine
 10
179.545245666253
 20
129.5996543779
 30
0.0
 11
179.545245666253
 21
133.5996543779
 31
0.0
  0
LINE
  5
16C
330
169
100
AcDbEntity
  8
1
  6
Continuous
 62
     2
100
AcDbLine
 10
179.545245666253
 20
133.5996543779
 30
0.0
 11
179.545245666253
 21
140.5996543779
 31
0.0
  0
LINE
  5
16D
330
169
100
AcDbEntity
  8
1
  6
Continuous
 62
     2
100
AcDbLine
 10
148.2834101382
 20
133.5996543779
 30
0.0
 11
181.545245666253
 21
133.5996543779
 31
0.0
  0
LINE
  5
16E
330
169
100
AcDbEntity
  8
1
  6
Continuous
 62
     2
100
AcDbLine
 10
169.7834101381999
 20
129.5996543779
 30
0.0
 11
181.545245666253
 21
129.5996543779
 31
0.0
  0
SOLID
  5
16F
330
169
100
AcDbEntity
  8
1
 62
     2
100
AcDbTrace
 10
180.0060294078089
 20
126.0996543779
 30
0.0
 11
179.0844619246971
 21
126.0996543779
 31
0.0
 12
179.545245666253
 22
129.5996543779
 32
0.0
 13
179.545245666253
 23
129.5996543779
 33
0.0
  0
SOLID
  5
170
330
169
100
AcDbEntity
  8
1
 62
     2
100
AcDbTrace
 10
179.0844619246971
 20
137.0996543779
 30
0.0
 11
180.0060294078089
 21
137.0996543779
 31
0.0
 12
179.545245666253
 22
133.5996543779
 32
0.0
 13
179.545245666253
 23
133.5996543779
 33
0.0
  0
MTEXT
  5
171
330
169
100
AcDbEntity
  8
1
 62
     2
100
AcDbMText
 10
177.545245666253
 20
123.935581066349
 30
0.0
 40
3.5
 41
0.0
 71
     7
 72
     1
  1
4
  7
CONVERTER_11
 11
0.0
 21
1.0
 31
0.0
 73
     1
 44
0.60024009603842
  0
ENDBLK
  5
173
330
169
100
AcDbEntity
  8
0
100
AcDbBlockEnd
  0
BLOCK
  5
17D
330
176
100
AcDbEntity
  8
0
100
AcDbBlockBegin
  2
*D6
 70
     1
 71
     0
 10
0.0
 20
0.0
 30
0.0
  3
*D6
  1

  0
LINE
  5
177
330
176
100
AcDbEntity
  8
1
  6
Continuous
 62
     2
100
AcDbLine
 10
179.545245666253
 20
133.5996543779
 30
0.0
 11
179.545245666253
 21
161.5996543779
 31
0.0
  0
LINE
  5
178
330
176
100
AcDbEntity
  8
1
  6
Continuous
 62
     2
100
AcDbLine
 10
148.2834101382
 20
161.5996543779
 30
0.0
 11
181.545245666253
 21
161.5996543779
 31
0.0
  0
LINE
  5
179
330
176
100
AcDbEntity
  8
1
  6
Continuous
 62
     2
100
AcDbLine
 10
148.2834101382
 20
133.5996543779
 30
0.0
 11
181.545245666253
 21
133.5996543779
 31
0.0
  0
SOLID
  5
17A
330
176
100
AcDbEntity
  8
1
 62
     2
100
AcDbTrace
 10
179.0844619246971
 20
137.0996543779
 30
0.0
 11
180.0060294078089
 21
137.0996543779
 31
0.0
 12
179.545245666253
 22
133.5996543779
 32
0.0
 13
179.545245666253
 23
133.5996543779
 33
0.0
  0
SOLID
  5
17B
330
176
100
AcDbEntity
  8
1
 62
     2
100
AcDbTrace
 10
180.0060294078089
 20
158.0996543779
 30
0.0
 11
179.0844619246971
 21
158.0996543779
 31
0.0
 12
179.545245666253
 22
161.5996543779
 32
0.0
 13
179.545245666253
 23
161.5996543779
 33
0.0
  0
MTEXT
  5
17C
330
176
100
AcDbEntity
  8
1
 62
     2
100
AcDbMText
 10
177.545245666253
 20
144.716522068059
 30
0.0
 40
3.5
 41
0.0
 71
     7
 72
     1
  1
28
  7
CONVERTER_11
 11
0.0
 21
1.0
 31
0.0
 73
     1
 44
0.60024009603842
  0
ENDBLK
  5
17E
330
176
100
AcDbEntity
  8
0
100
AcDbBlockEnd
  0
ENDSEC
  0
SECTION
  2
ENTITIES
  0
POINT
  5
33
330
1F
100
AcDbEntity
  8
1
 62
     3
 60
     1
100
AcDbPoint
 10
116.2834101382
 20
160.5996543779
 30
0.0
  0
POINT
  5
34
330
1F
100
AcDbEntity
  8
1
 62
     3
 60
     1
100
AcDbPoint
 10
113.0334101382
 20
155.8496543779
 30
0.0
  0
POINT
  5
35
330
1F
100
AcDbEntity
  8
1
 62
     3
 60
     1
100
AcDbPoint
 10
109.7834101382
 20
158.2996543779
 30
0.0
  0
POINT
  5
36
330
1F
100
AcDbEntity
  8
1
 62
     3
 60
     1
100
AcDbPoint
 10
120.5334101382
 20
138.8496543779
 30
0.0
  0
POINT
  5
37
330
1F
100
AcDbEntity
  8
1
 62
     3
 60
     1
100
AcDbPoint
 10
121.60321178728
 20
155.181205307007
 30
0.0
  0
POINT
  5
38
330
1F
100
AcDbEntity
  8
1
 62
     3
 60
     1
100
AcDbPoint
 10
111.4881120879724
 20
151.0944410350558
 30
0.0
  0
POINT
  5
39
330
1F
100
AcDbEntity
  8
1
 62
     3
 60
     1
100
AcDbPoint
 10
110.9794853569297
 20
150.8889425610934
 30
0.0
  0
POINT
  5
3A
330
1F
100
AcDbEntity
  8
1
 62
     3
 60
     1
100
AcDbPoint
 10
113.0334101382
 20
152.8495543779
 30
0.0
  0
POINT
  5
3B
330
1F
100
AcDbEntity
  8
1
 62
     3
 60
     1
100
AcDbPoint
 10
102.448147756792
 20
150.4292732805587
 30
0.0
  0
POINT
  5
3C
330
1F
100
AcDbEntity
  8
1
 62
     3
 60
     1
100
AcDbPoint
 10
102.0579285040183
 20
144.2470324281679
 30
0.0
  0
POINT
  5
3D
330
1F
100
AcDbEntity
  8
1
 62
     3
 60
     1
100
AcDbPoint
 10
148.2834101382
 20
161.5996543779
 30
0.0
  0
POINT
  5
3E
330
1F
100
AcDbEntity
  8
1
 62
     3
 60
     1
100
AcDbPoint
 10
148.2834101382
 20
133.5996543779
 30
0.0
  0
POINT
  5
3F
330
1F
100
AcDbEntity
  8
1
 62
     3
 60
     1
100
AcDbPoint
 10
80.2834101382
 20
133.5996543779
 30
0.0
  0
POINT
  5
40
330
1F
100
AcDbEntity
  8
1
 62
     3
 60
     1
100
AcDbPoint
 10
80.2834101382
 20
137.231165688396
 30
0.0
  0
POINT
  5
41
330
1F
100
AcDbEntity
  8
1
 62
     3
 60
     1
100
AcDbPoint
 10
80.2834101382
 20
161.5996543779
 30
0.0
  0
POINT
  5
42
330
1F
100
AcDbEntity
  8
1
 62
     3
 60
     1
100
AcDbPoint
 10
80.2834101382
 20
157.890458049706
 30
0.0
  0
LINE
  5
43
330
1F
100
AcDbEntity
  8
0
  6
Continuous
 62
     7
100
AcDbLine
 10
102.0330970696
 20
141.2121840336
 30
0.0
 11
106.3253163335
 21
146.3274514188
 31
0.0
  0
LINE
  5
44
330
1F
100
AcDbEntity
  8
1
  6
Continuous
 62
     7
100
AcDbLine
 10
116.2834101382
 20
160.5996543779
 30
0.0
 11
114.7834101382
 21
160.5996543779
 31
0.0
  0
LINE
  5
45
330
1F
100
AcDbEntity
  8
1
  6
Continuous
 62
     7
100
AcDbLine
 10
116.4834101382
 20
160.5996543779
 30
0.0
 11
116.2834101382
 21
160.5996543779
 31
0.0
  0
LINE
  5
46
330
1F
100
AcDbEntity
  8
0
  6
Continuous
 62
     7
100
AcDbLine
 10
148.2834101382
 20
137.4625545311
 30
0.0
 11
148.2834101382
 21
157.7367542246
 31
0.0
  0
LINE
  5
47
330
1F
100
AcDbEntity
  8
0
  6
Continuous
 62
     7
100
AcDbLine
 10
147.2834101382
 20
157.7367542246
 30
0.0
 11
147.2834101382
 21
137.4625545311
 31
0.0
  0
LINE
  5
48
330
1F
100
AcDbEntity
  8
0
  6
Continuous
 62
     7
100
AcDbLine
 10
144.2834101382
 20
158.4996543779
 30
0.0
 11
144.2834101382
 21
141.8496543779
 31
0.0
  0
LINE
  5
49
330
1F
100
AcDbEntity
  8
0
  6
Continuous
 62
     7
100
AcDbLine
 10
142.076448203
 20
153.863846944
 30
0.0
 11
141.8583822175
 21
154.6236640806
 31
0.0
  0
LINE
  5
4A
330
1F
100
AcDbEntity
  8
0
  6
Continuous
 62
     7
100
AcDbLine
 10
142.9756220914
 20
150.7308148587
 30
0.0
 11
142.7478584372
 21
151.5244220191
 31
0.0
  0
LINE
  5
4B
330
1F
100
AcDbEntity
  8
DEFAULT_1
  6
DOT_CENTER
 62
     2
100
AcDbLine
 10
139.5334101382
 20
152.5921543779
 30
0.0
 11
139.5334101382
 21
156.8746543779
 31
0.0
  0
LINE
  5
4C
330
1F
100
AcDbEntity
  8
DEFAULT_1
  6
DOT_CENTER
 62
     2
100
AcDbLine
 10
139.5334101382
 20
148.1371543779
 30
0.0
 11
139.5334101382
 21
146.8246543779
 31
0.0
  0
LINE
  5
4D
330
1F
100
AcDbEntity
  8
0
  6
DOT_CENTER
 62
     2
100
AcDbLine
 10
139.5334101382
 20
152.5921543779
 30
0.0
 11
139.5334101382
 21
148.1371543779
 31
0.0
  0
LINE
  5
4E
330
1F
100
AcDbEntity
  8
0
  6
Continuous
 62
     7
100
AcDbLine
 10
141.6224718919
 20
154.3392969064
 30
0.0
 11
140.5062004662
 21
155.275959735
 31
0.0
  0
LINE
  5
4F
330
1F
100
AcDbEntity
  8
0
  6
Continuous
 62
     7
100
AcDbLine
 10
135.8133391382
 20
153.1761113779
 30
0.0
 11
136.3941511382
 21
151.0084923779
 31
0.0
  0
LINE
  5
50
330
1F
100
AcDbEntity
  8
0
  6
Continuous
 62
     7
100
AcDbLine
 10
136.2834101382
 20
160.4996543779
 30
0.0
 11
144.2834101382
 21
158.4996543779
 31
0.0
  0
LINE
  5
51
330
1F
100
AcDbEntity
  8
0
  6
Continuous
 62
     7
100
AcDbLine
 10
145.7009294411
 20
160.7075584309
 30
0.0
 11
139.3533369502
 21
161.5996543779
 31
0.0
  0
LINE
  5
52
330
1F
100
AcDbEntity
  8
0
  6
Continuous
 62
     7
100
AcDbLine
 10
139.2834101382
 20
160.5996543779
 30
0.0
 11
145.5617563402
 21
159.7172903621
 31
0.0
  0
LINE
  5
53
330
1F
100
AcDbEntity
  8
0
  6
Continuous
 62
     7
100
AcDbLine
 10
82.8658908354
 20
160.6588987746
 30
0.0
 11
89.5597147714
 21
161.5996543779
 31
0.0
  0
LINE
  5
54
330
1F
100
AcDbEntity
  8
0
  6
Continuous
 62
     7
100
AcDbLine
 10
89.2834101382
 20
160.5996543779
 30
0.0
 11
83.0050639363
 21
159.7172903621
 31
0.0
  0
LINE
  5
55
330
1F
100
AcDbEntity
  8
0
  6
Continuous
 62
     7
100
AcDbLine
 10
89.5597147714
 20
161.5996543779
 30
0.0
 11
109.5834101382
 21
161.5996543779
 31
0.0
  0
LINE
  5
56
330
1F
100
AcDbEntity
  8
0
  6
Continuous
 62
     7
100
AcDbLine
 10
139.3533369502
 20
161.5996543779
 30
0.0
 11
116.4834101382
 21
161.5996543779
 31
0.0
  0
LINE
  5
57
330
1F
100
AcDbEntity
  8
0
  6
Continuous
 62
     7
100
AcDbLine
 10
109.5834101382
 20
161.4996543779
 30
0.0
 11
109.7834101382
 21
161.4996543779
 31
0.0
  0
LINE
  5
58
330
1F
100
AcDbEntity
  8
0
  6
Continuous
 62
     7
100
AcDbLine
 10
116.4834101382
 20
161.4996543779
 30
0.0
 11
116.2834101382
 21
161.4996543779
 31
0.0
  0
LINE
  5
59
330
1F
100
AcDbEntity
  8
0
  6
Continuous
 62
     7
100
AcDbLine
 10
116.4834101382
 20
160.5996543779
 30
0.0
 11
139.2834101382
 21
160.5996543779
 31
0.0
  0
LINE
  5
5A
330
1F
100
AcDbEntity
  8
0
  6
Continuous
 62
     7
100
AcDbLine
 10
109.5834101382
 20
160.5996543779
 30
0.0
 11
89.2834101382
 21
160.5996543779
 31
0.0
  0
LINE
  5
5B
330
1F
100
AcDbEntity
  8
0
  6
Continuous
 62
     7
100
AcDbLine
 10
144.2834101382
 20
141.8496543779
 30
0.0
 11
141.2834101382
 21
140.8496543779
 31
0.0
  0
LINE
  5
5C
330
1F
100
AcDbEntity
  8
0
  6
Continuous
 62
     7
100
AcDbLine
 10
115.9655591382
 20
158.8996543779
 30
0.0
 11
134.3677964589
 21
158.8996543779
 31
0.0
  0
LINE
  5
5D
330
1F
100
AcDbEntity
  8
0
  6
Continuous
 62
     7
100
AcDbLine
 10
91.6990238176
 20
158.8996543779
 30
0.0
 11
109.7834101382
 21
158.8996543779
 31
0.0
  0
LINE
  5
5E
330
1F
100
AcDbEntity
  8
0
  6
Continuous
 62
     7
100
AcDbLine
 10
89.3513894684
 20
158.2996543779
 30
0.0
 11
84.7834101382
 21
158.2996543779
 31
0.0
  0
LINE
  5
5F
330
1F
100
AcDbEntity
  8
0
  6
Continuous
 62
     7
100
AcDbLine
 10
124.7834101382
 20
139.8496543779
 30
0.0
 11
124.7834101382
 21
134.5996543779
 31
0.0
  0
LINE
  5
60
330
1F
100
AcDbEntity
  8
0
  6
Continuous
 62
     7
100
AcDbLine
 10
124.4834101382
 20
134.5996543779
 30
0.0
 11
124.4834101382
 21
133.5996543779
 31
0.0
  0
LINE
  5
61
330
1F
100
AcDbEntity
  8
0
  6
Continuous
 62
     7
100
AcDbLine
 10
115.8618343496
 20
158.6780841665
 30
0.0
 11
120.0045958259
 21
154.5353226902
 31
0.0
  0
LINE
  5
62
330
1F
100
AcDbEntity
  8
DEFAULT_1
  6
DOT_CENTER
 62
     2
100
AcDbLine
 10
109.3209101382
 20
155.8496543779
 30
0.0
 11
110.0333101382
 21
155.8496543779
 31
0.0
  0
LINE
  5
63
330
1F
100
AcDbEntity
  8
0
  6
DOT_CENTER
 62
     2
100
AcDbLine
 10
113.7759101382
 20
155.8496543779
 30
0.0
 11
110.0333101382
 21
155.8496543779
 31
0.0
  0
LINE
  5
64
330
1F
100
AcDbEntity
  8
DEFAULT_1
  6
DOT_CENTER
 62
     2
100
AcDbLine
 10
116.7459101382
 20
155.8496543779
 30
0.0
 11
113.7759101382
 21
155.8496543779
 31
0.0
  0
LINE
  5
65
330
1F
100
AcDbEntity
  8
0
  6
Continuous
 62
     7
100
AcDbLine
 10
122.7270331382
 20
155.3996543779
 30
0.0
 11
132.9155583588
 21
155.3996543779
 31
0.0
  0
LINE
  5
66
330
1F
100
AcDbEntity
  8
0
  6
Continuous
 62
     7
100
AcDbLine
 10
103.3397871382
 20
155.3996543779
 30
0.0
 11
93.1512619177
 21
155.3996543779
 31
0.0
  0
LINE
  5
67
330
1F
100
AcDbEntity
  8
0
  6
Continuous
 62
     7
100
AcDbLine
 10
124.0334101382
 20
148.435440566
 30
0.0
 11
124.0334101382
 21
141.2475701395
 31
0.0
  0
LINE
  5
68
330
1F
100
AcDbEntity
  8
0
  6
DASHED
 62
     2
100
AcDbLine
 10
141.4842291734
 20
149.2624190104
 30
0.0
 11
141.5100092379511
 21
149.2698178369514
 31
0.0
  0
LINE
  5
69
330
1F
100
AcDbEntity
  8
0
  6
DASHED
 62
     2
100
AcDbLine
 10
122.0864970949665
 20
143.6953090336361
 30
0.0
 11
124.0334101382
 21
144.2540691496697
 31
0.0
  0
LINE
  5
6A
330
1F
100
AcDbEntity
  8
0
  6
Continuous
 62
     7
100
AcDbLine
 10
116.9693837721
 20
140.6656156592
 30
0.0
 11
119.4815278069
 21
145.5959775407
 31
0.0
  0
LINE
  5
6B
330
1F
100
AcDbEntity
  8
DEFAULT_1
  6
DOT_CENTER
 62
     2
100
AcDbLine
 10
120.5334101382
 20
142.5621543779
 30
0.0
 11
120.5334101382
 21
145.8496543779
 31
0.0
  0
LINE
  5
6C
330
1F
100
AcDbEntity
  8
DEFAULT_1
  6
DOT_CENTER
 62
     2
100
AcDbLine
 10
120.5334101382
 20
138.1071543779
 30
0.0
 11
120.5334101382
 21
131.8496543779
 31
0.0
  0
LINE
  5
6D
330
1F
100
AcDbEntity
  8
0
  6
DOT_CENTER
 62
     2
100
AcDbLine
 10
120.5334101382
 20
142.5621543779
 30
0.0
 11
120.5334101382
 21
138.1071543779
 31
0.0
  0
LINE
  5
6E
330
1F
100
AcDbEntity
  8
0
  6
Continuous
 62
     7
100
AcDbLine
 10
108.006451644
 20
153.7498039585
 30
0.0
 11
104.4636077622
 21
155.1812057217
 31
0.0
  0
LINE
  5
6F
330
1F
100
AcDbEntity
  8
0
  6
Continuous
 62
     7
100
AcDbLine
 10
117.9323241382
 20
149.7394913779
 30
0.0
 11
115.1908229791
 21
150.8471296832
 31
0.0
  0
LINE
  5
70
330
1F
100
AcDbEntity
  8
DEFAULT_1
  6
DOT_CENTER
 62
     2
100
AcDbLine
 10
143.2459101382
 20
151.8496543779
 30
0.0
 11
144.5584101382
 21
151.8496543779
 31
0.0
  0
LINE
  5
71
330
1F
100
AcDbEntity
  8
DEFAULT_1
  6
DOT_CENTER
 62
     2
100
AcDbLine
 10
87.2759101382
 20
151.8496543779
 30
0.0
 11
91.5584101382
 21
151.8496543779
 31
0.0
  0
LINE
  5
72
330
1F
100
AcDbEntity
  8
DEFAULT_1
  6
DOT_CENTER
 62
     2
100
AcDbLine
 10
82.8209101382
 20
151.8496543779
 30
0.0
 11
81.5084101382
 21
151.8496543779
 31
0.0
  0
LINE
  5
73
330
1F
100
AcDbEntity
  8
0
  6
DOT_CENTER
 62
     2
100
AcDbLine
 10
87.2759101382
 20
151.8496543779
 30
0.0
 11
82.8209101382
 21
151.8496543779
 31
0.0
  0
LINE
  5
74
330
1F
100
AcDbEntity
  8
DEFAULT_1
  6
DOT_CENTER
 62
     2
100
AcDbLine
 10
135.8209101382
 20
151.8496543779
 30
0.0
 11
134.5084101382
 21
151.8496543779
 31
0.0
  0
LINE
  5
75
330
1F
100
AcDbEntity
  8
0
  6
DOT_CENTER
 62
     2
100
AcDbLine
 10
143.2459101382
 20
151.8496543779
 30
0.0
 11
135.8209101382
 21
151.8496543779
 31
0.0
  0
LINE
  5
76
330
1F
100
AcDbEntity
  8
0
  6
Continuous
 62
     7
100
AcDbLine
 10
116.4834101382
 20
161.5996543779
 30
0.0
 11
116.4834101382
 21
160.5996543779
 31
0.0
  0
LINE
  5
77
330
1F
100
AcDbEntity
  8
0
  6
Continuous
 62
     7
100
AcDbLine
 10
116.2834101382
 20
161.4996543779
 30
0.0
 11
116.2834101382
 21
160.5996543779
 31
0.0
  0
LINE
  5
78
330
1F
100
AcDbEntity
  8
0
  6
Continuous
 62
     7
100
AcDbLine
 10
114.7834101382
 20
159.4353314761
 30
0.0
 11
114.7834101382
 21
160.5996543779
 31
0.0
  0
LINE
  5
79
330
1F
100
AcDbEntity
  8
0
  6
Continuous
 62
     7
100
AcDbLine
 10
114.7834101382
 20
133.6996543779
 30
0.0
 11
114.7834101382
 21
150.9603409186
 31
0.0
  0
LINE
  5
7A
330
1F
100
AcDbEntity
  8
0
  6
Continuous
 62
     7
100
AcDbLine
 10
85.5606198103
 20
155.275959735
 30
0.0
 11
85.445497095
 21
155.3089997221
 31
0.0
  0
LINE
  5
7B
330
1F
100
AcDbEntity
  8
0
  6
Continuous
 62
     7
100
AcDbLine
 10
102.448147756792
 20
150.4292732805587
 30
0.0
 11
90.5322473904
 21
153.8491126484
 31
0.0
  0
LINE
  5
7C
330
1F
100
AcDbEntity
  8
0
  6
Continuous
 62
     7
100
AcDbLine
 10
135.5345728861
 20
153.8491126484
 30
0.0
 11
123.6186725196428
 21
150.42927328054
 31
0.0
  0
LINE
  5
7D
330
1F
100
AcDbEntity
  8
0
  6
Continuous
 62
     7
100
AcDbLine
 10
140.6213231815
 20
155.3089997221
 30
0.0
 11
140.5062004662
 21
155.275959735
 31
0.0
  0
LINE
  5
7E
330
1F
100
AcDbEntity
  8
DEFAULT_1
  6
DOT_CENTER
 62
     2
100
AcDbLine
 10
113.0334101382
 20
149.1371543779001
 30
0.0
 11
113.0334101382
 21
152.8495543779
 31
0.0
  0
LINE
  5
7F
330
1F
100
AcDbEntity
  8
0
  6
DOT_CENTER
 62
     2
100
AcDbLine
 10
113.0334101382
 20
160.8497543779
 30
0.0
 11
113.0334101382
 21
152.8495543779
 31
0.0
  0
LINE
  5
80
330
1F
100
AcDbEntity
  8
DEFAULT_1
  6
DOT_CENTER
 62
     2
100
AcDbLine
 10
113.0334101382
 20
160.5621543779
 30
0.0
 11
113.0334101382
 21
160.8497543779
 31
0.0
  0
LINE
  5
81
330
1F
100
AcDbEntity
  8
0
  6
Continuous
 62
     7
100
AcDbLine
 10
120.0045958259
 20
154.5353226902
 30
0.0
 11
121.6032133693
 21
155.1812060672
 31
0.0
  0
LINE
  5
82
330
1F
100
AcDbEntity
  8
0
  6
Continuous
 62
     7
100
AcDbLine
 10
108.134496229
 20
149.7394914145
 30
0.0
 11
110.8759972974
 21
150.8471296832
 31
0.0
  0
LINE
  5
83
330
1F
100
AcDbEntity
  8
0
  6
Continuous
 62
     7
100
AcDbLine
 10
111.2834101382
 20
134.7996543779
 30
0.0
 11
111.2834101382
 21
150.9603409186
 31
0.0
  0
LINE
  5
84
330
1F
100
AcDbEntity
  8
0
  6
Continuous
 62
     7
100
AcDbLine
 10
109.7834101382
 20
158.8996543779
 30
0.0
 11
109.7834101382
 21
161.4996543779
 31
0.0
  0
LINE
  5
85
330
1F
100
AcDbEntity
  8
0
  6
Continuous
 62
     7
100
AcDbLine
 10
86.7890825182
 20
148.6291604253
 30
0.0
 11
102.0334101382
 21
144.2540691496984
 31
0.0
  0
LINE
  5
86
330
1F
100
AcDbEntity
  8
0
  6
Continuous
 62
     7
100
AcDbLine
 10
83.7765338266
 20
149.4937558227
 30
0.0
 11
84.5825911031
 21
149.2624190104
 31
0.0
  0
LINE
  5
87
330
1F
100
AcDbEntity
  8
0
  6
Continuous
 62
     7
100
AcDbLine
 10
141.2834101382
 20
140.8496543779
 30
0.0
 11
125.7834101382
 21
140.8496543779
 31
0.0
  0
LINE
  5
88
330
1F
100
AcDbEntity
  8
0
  6
DASHED
 62
     2
100
AcDbLine
 10
119.7415039429
 20
146.3274514188
 30
0.0
 11
124.0337232068
 21
141.2121840336
 31
0.0
  0
LINE
  5
89
330
1F
100
AcDbEntity
  8
0
  6
Continuous
 62
     7
100
AcDbLine
 10
109.5834101382
 20
161.5996543779
 30
0.0
 11
109.5834101382
 21
160.5996543779
 31
0.0
  0
LINE
  5
8A
330
1F
100
AcDbEntity
  8
0
  6
Continuous
 62
     7
100
AcDbLine
 10
109.0974365044
 20
140.6656156592
 30
0.0
 11
106.5852924696
 21
145.5959775407
 31
0.0
  0
LINE
  5
8B
330
1F
100
AcDbEntity
  8
0
  6
Continuous
 62
     7
100
AcDbLine
 10
84.7834101382
 20
140.0996543779
 30
0.0
 11
98.7834101382
 21
140.0996543779
 31
0.0
  0
LINE
  5
8C
330
1F
100
AcDbEntity
  8
DEFAULT_1
  6
DOT_CENTER
 62
     2
100
AcDbLine
 10
124.2459101382
 20
138.8496543779
 30
0.0
 11
127.5334101382
 21
138.8496543779
 31
0.0
  0
LINE
  5
8D
330
1F
100
AcDbEntity
  8
DEFAULT_1
  6
DOT_CENTER
 62
     2
100
AcDbLine
 10
106.2759101382
 20
138.8496543779
 30
0.0
 11
112.5334101382
 21
138.8496543779
 31
0.0
  0
LINE
  5
8E
330
1F
100
AcDbEntity
  8
DEFAULT_1
  6
DOT_CENTER
 62
     2
100
AcDbLine
 10
101.8209101382
 20
138.8496543779
 30
0.0
 11
98.5334101382
 21
138.8496543779
 31
0.0
  0
LINE
  5
8F
330
1F
100
AcDbEntity
  8
0
  6
DOT_CENTER
 62
     2
100
AcDbLine
 10
106.2759101382
 20
138.8496543779
 30
0.0
 11
101.8209101382
 21
138.8496543779
 31
0.0
  0
LINE
  5
90
330
1F
100
AcDbEntity
  8
DEFAULT_1
  6
DOT_CENTER
 62
     2
100
AcDbLine
 10
116.8209101382
 20
138.8496543779
 30
0.0
 11
113.5334101382
 21
138.8496543779
 31
0.0
  0
LINE
  5
91
330
1F
100
AcDbEntity
  8
0
  6
DOT_CENTER
 62
     2
100
AcDbLine
 10
124.2459101382
 20
138.8496543779
 30
0.0
 11
116.8209101382
 21
138.8496543779
 31
0.0
  0
LINE
  5
92
330
1F
100
AcDbEntity
  8
DEFAULT_1
  6
DOT_CENTER
 62
     2
100
AcDbLine
 10
105.5334101382
 20
142.5621543779
 30
0.0
 11
105.5334101382
 21
145.8496543779
 31
0.0
  0
LINE
  5
93
330
1F
100
AcDbEntity
  8
DEFAULT_1
  6
DOT_CENTER
 62
     2
100
AcDbLine
 10
105.5334101382
 20
138.1071543779
 30
0.0
 11
105.5334101382
 21
131.8496543779
 31
0.0
  0
LINE
  5
94
330
1F
100
AcDbEntity
  8
0
  6
DOT_CENTER
 62
     2
100
AcDbLine
 10
105.5334101382
 20
142.5621543779
 30
0.0
 11
105.5334101382
 21
138.1071543779
 31
0.0
  0
LINE
  5
95
330
1F
100
AcDbEntity
  8
0
  6
Continuous
 62
     7
100
AcDbLine
 10
106.0622244506
 20
154.5353226902
 30
0.0
 11
103.4978762323
 21
151.9709744719
 31
0.0
  0
LINE
  5
96
330
1F
100
AcDbEntity
  8
0
  6
Continuous
 62
     7
100
AcDbLine
 10
99.7834101382
 20
134.7996543779
 30
0.0
 11
111.2834101382
 21
134.7996543779
 31
0.0
  0
LINE
  5
97
330
1F
100
AcDbEntity
  8
0
  6
Continuous
 62
     7
100
AcDbLine
 10
89.2834101382
 20
134.5996543779
 30
0.0
 11
101.5834101382
 21
134.5996543779
 31
0.0
  0
LINE
  5
98
330
1F
100
AcDbEntity
  8
0
  6
Continuous
 62
     7
100
AcDbLine
 10
139.2834101382
 20
134.5996543779
 30
0.0
 11
124.4834101382
 21
134.5996543779
 31
0.0
  0
LINE
  5
99
330
1F
100
AcDbEntity
  8
0
  6
Continuous
 62
     7
100
AcDbLine
 10
101.5834101382
 20
133.6996543779
 30
0.0
 11
109.7834101382
 21
133.6996543779
 31
0.0
  0
LINE
  5
9A
330
1F
100
AcDbEntity
  8
0
  6
Continuous
 62
     7
100
AcDbLine
 10
124.4834101382
 20
133.6996543779
 30
0.0
 11
114.7834101382
 21
133.6996543779
 31
0.0
  0
LINE
  5
9B
330
1F
100
AcDbEntity
  8
0
  6
Continuous
 62
     7
100
AcDbLine
 10
124.4834101382
 20
133.5996543779
 30
0.0
 11
139.3533369502
 21
133.5996543779
 31
0.0
  0
LINE
  5
9C
330
1F
100
AcDbEntity
  8
0
  6
Continuous
 62
     7
100
AcDbLine
 10
101.5834101382
 20
133.5996543779
 30
0.0
 11
89.5597147714
 21
133.5996543779
 31
0.0
  0
LINE
  5
9D
330
1F
100
AcDbEntity
  8
0
  6
Continuous
 62
     7
100
AcDbLine
 10
102.0334101382
 20
141.2475701395
 30
0.0
 11
102.0334101382
 21
144.2540691496984
 31
0.0
  0
LINE
  5
9E
330
1F
100
AcDbEntity
  8
0
  6
Continuous
 62
     7
100
AcDbLine
 10
101.5834101382
 20
134.5996543779
 30
0.0
 11
101.5834101382
 21
133.5996543779
 31
0.0
  0
LINE
  5
9F
330
1F
100
AcDbEntity
  8
0
  6
Continuous
 62
     7
100
AcDbLine
 10
81.7834101382
 20
141.0996543779
 30
0.0
 11
84.7834101382
 21
140.0996543779
 31
0.0
  0
LINE
  5
A0
330
1F
100
AcDbEntity
  8
0
  6
Continuous
 62
     7
100
AcDbLine
 10
82.9900268389
 20
135.5329371588
 30
0.0
 11
89.2834101382
 21
134.5996543779
 31
0.0
  0
LINE
  5
A1
330
1F
100
AcDbEntity
  8
0
  6
Continuous
 62
     7
100
AcDbLine
 10
145.5617563402
 20
135.4820183936
 30
0.0
 11
139.2834101382
 21
134.5996543779
 31
0.0
  0
LINE
  5
A2
330
1F
100
AcDbEntity
  8
0
  6
Continuous
 62
     7
100
AcDbLine
 10
99.7834101382
 20
139.0996543779
 30
0.0
 11
99.7834101382
 21
134.7996543779
 31
0.0
  0
LINE
  5
A3
330
1F
100
AcDbEntity
  8
0
  6
Continuous
 62
     7
100
AcDbLine
 10
89.5597147714
 20
133.5996543779
 30
0.0
 11
82.8658908354
 21
134.5404099812
 31
0.0
  0
LINE
  5
A4
330
1F
100
AcDbEntity
  8
0
  6
Continuous
 62
     7
100
AcDbLine
 10
139.3533369502
 20
133.5996543779
 30
0.0
 11
145.7009294411
 21
134.4917503249
 31
0.0
  0
LINE
  5
A5
330
1F
100
AcDbEntity
  8
0
  6
Continuous
 62
     7
100
AcDbLine
 10
84.7834101382
 20
158.2996543779
 30
0.0
 11
81.7834101382
 21
157.2996543779
 31
0.0
  0
LINE
  5
A6
330
1F
100
AcDbEntity
  8
0
  6
Continuous
 62
     7
100
AcDbLine
 10
84.4443483846
 20
154.3392969064
 30
0.0
 11
85.5606198103
 21
155.275959735
 31
0.0
  0
LINE
  5
A7
330
1F
100
AcDbEntity
  8
0
  6
Continuous
 62
     7
100
AcDbLine
 10
90.2534811382
 20
153.1761113779
 30
0.0
 11
89.6726691382
 21
151.0084923779
 31
0.0
  0
LINE
  5
A8
330
1F
100
AcDbEntity
  8
DEFAULT_1
  6
DOT_CENTER
 62
     2
100
AcDbLine
 10
86.5334101382
 20
155.5621543779
 30
0.0
 11
86.5334101382
 21
156.8746543779
 31
0.0
  0
LINE
  5
A9
330
1F
100
AcDbEntity
  8
DEFAULT_1
  6
DOT_CENTER
 62
     2
100
AcDbLine
 10
86.5334101382
 20
148.1371543779
 30
0.0
 11
86.5334101382
 21
146.8246543779
 31
0.0
  0
LINE
  5
AA
330
1F
100
AcDbEntity
  8
0
  6
DOT_CENTER
 62
     2
100
AcDbLine
 10
86.5334101382
 20
155.5621543779
 30
0.0
 11
86.5334101382
 21
148.1371543779
 31
0.0
  0
LINE
  5
AB
330
1F
100
AcDbEntity
  8
0
  6
Continuous
 62
     7
100
AcDbLine
 10
83.3189618393
 20
151.5244220191
 30
0.0
 11
83.0911981851
 21
150.7308148587
 31
0.0
  0
LINE
  5
AC
330
1F
100
AcDbEntity
  8
0
  6
Continuous
 62
     7
100
AcDbLine
 10
84.208438059
 20
154.6236640806
 30
0.0
 11
83.9903720735
 21
153.863846944
 31
0.0
  0
LINE
  5
AD
330
1F
100
AcDbEntity
  8
0
  6
Continuous
 62
     7
100
AcDbLine
 10
81.7834101382
 20
157.2996543779
 30
0.0
 11
81.7834101382
 21
141.0996543779
 31
0.0
  0
LINE
  5
AE
330
1F
100
AcDbEntity
  8
0
  6
Continuous
 62
     7
100
AcDbLine
 10
81.2834101382
 20
157.7367542246
 30
0.0
 11
81.2834101382
 21
137.5113016954
 31
0.0
  0
LINE
  5
AF
330
1F
100
AcDbEntity
  8
0
  6
Continuous
 62
     7
100
AcDbLine
 10
80.2834101382
 20
137.5112141874
 30
0.0
 11
80.2834101382
 21
157.6880945683
 31
0.0
  0
LINE
  5
B0
330
1F
100
AcDbEntity
  8
0
  6
Continuous
 62
     7
100
AcDbLine
 10
131.4334101382
 20
155.3996543779
 30
0.0
 11
127.9334101382
 21
158.8996543779
 31
0.0
  0
LINE
  5
B1
330
1F
100
AcDbEntity
  8
0
  6
DASHED
 62
     2
100
AcDbLine
 10
98.13341013819996
 20
158.8996543779
 30
0.0
 11
94.63341013819996
 21
155.3996543779
 31
0.0
  0
LINE
  5
B2
330
1F
100
AcDbEntity
  8
1
  6
DASHED
 62
     2
100
AcDbLine
 10
89.3513894684
 20
158.2996543779
 30
0.0
 11
109.7834101382
 21
158.2996543779
 31
0.0
  0
LINE
  5
B3
330
1F
100
AcDbEntity
  8
1
  6
DASHED
 62
     2
100
AcDbLine
 10
109.7834101382
 20
158.8996543779
 30
0.0
 11
109.7834101382
 21
158.2996543779
 31
0.0
  0
LINE
  5
B4
330
1F
100
AcDbEntity
  8
0
  6
Continuous
 62
     7
100
AcDbLine
 10
109.7834101382
 20
158.8996543779
 30
0.0
 11
110.1012562349
 21
158.8996543779
 31
0.0
  0
LINE
  5
B5
330
1F
100
AcDbEntity
  8
0
  6
DASHED
 62
     2
100
AcDbLine
 10
123.6186725196428
 20
150.42927328054
 30
0.0
 11
120.4175338265276
 21
149.5105529331031
 31
0.0
  0
LINE
  5
B6
330
1F
100
AcDbEntity
  8
0
  6
Continuous
 62
     7
100
AcDbLine
 10
124.0334101382
 20
144.2540691496697
 30
0.0
 11
139.2257743068523
 21
148.6142470195568
 31
0.0
  0
LINE
  5
B7
330
1F
100
AcDbEntity
  8
1
  6
DASHED
 62
     2
100
AcDbLine
 10
119.7321981850404
 20
148.2734938971085
 30
0.0
 11
120.8494380589759
 21
144.3806446751096
 31
0.0
  0
LINE
  5
B8
330
1F
100
AcDbEntity
  8
1
  6
DASHED
 62
     2
100
AcDbLine
 10
111.4881120879724
 20
151.0944410350558
 30
0.0
 11
120.0045958259
 21
154.5353226902
 31
0.0
  0
LINE
  5
B9
330
1F
100
AcDbEntity
  8
0
  6
Continuous
 62
     7
100
AcDbLine
 10
120.0045958259
 20
154.5353226902
 30
0.0
 11
122.5689440442
 21
151.9709744719
 31
0.0
  0
LINE
  5
BA
330
1F
100
AcDbEntity
  8
1
  6
Continuous
 62
     7
100
AcDbLine
 10
110.9794853569297
 20
150.8889425610934
 30
0.0
 11
111.4881120879724
 21
151.0944410350558
 31
0.0
  0
LINE
  5
BB
330
1F
100
AcDbEntity
  8
0
  6
DASHED
 62
     2
100
AcDbLine
 10
106.0622244505
 20
154.5353226902
 30
0.0
 11
110.2049859268
 21
158.6780841665
 31
0.0
  0
LINE
  5
BC
330
1F
100
AcDbEntity
  8
1
  6
DASHED
 62
     2
100
AcDbLine
 10
85.5606198103
 20
155.275959735
 30
0.0
 11
90.5322473904
 21
153.8491126484
 31
0.0
  0
LINE
  5
BD
330
1F
100
AcDbEntity
  8
0
  6
Continuous
 62
     7
100
AcDbLine
 10
85.5606198103
 20
155.275959735
 30
0.0
 11
88.4850841382
 21
157.7298763779
 31
0.0
  0
LINE
  5
BE
330
1F
100
AcDbEntity
  8
1
  6
DASHED
 62
     2
100
AcDbLine
 10
84.5825911031
 20
149.2624190104
 30
0.0
 11
86.7890825182
 21
148.6291604253
 31
0.0
  0
LINE
  5
BF
330
1F
100
AcDbEntity
  8
1
  6
DASHED
 62
     2
100
AcDbLine
 10
102.448147756792
 20
150.4292732805587
 30
0.0
 11
105.6492864498523
 21
149.5105529331375
 31
0.0
  0
LINE
  5
C0
330
1F
100
AcDbEntity
  8
1
  6
DASHED
 62
     2
100
AcDbLine
 10
106.3346220913435
 20
148.2734938971566
 30
0.0
 11
105.2173822174634
 21
144.3806446751421
 31
0.0
  0
LINE
  5
C1
330
1F
100
AcDbEntity
  8
1
  6
DASHED
 62
     2
100
AcDbLine
 10
103.9803231814689
 20
143.6953090336548
 30
0.0
 11
102.0579285040183
 21
144.2470324281679
 31
0.0
  0
LINE
  5
C2
330
1F
100
AcDbEntity
  8
0
  6
Continuous
 62
     7
100
AcDbLine
 10
102.0334101382
 20
144.2540691496984
 30
0.0
 11
102.0334101382
 21
148.435440566
 31
0.0
  0
LINE
  5
C3
330
1F
100
AcDbEntity
  8
1
  6
Continuous
 62
     7
100
AcDbLine
 10
114.7834101382
 20
129.5996543779
 30
0.0
 11
131.2834101382001
 21
129.5996543779
 31
0.0
  0
LINE
  5
C4
330
1F
100
AcDbEntity
  8
1
  6
Continuous
 62
     7
100
AcDbLine
 10
114.7834101382
 20
133.6996543779116
 30
0.0
 11
114.7834101382
 21
129.5996543779
 31
0.0
  0
LINE
  5
C5
330
1F
100
AcDbEntity
  8
1
  6
Continuous
 62
     7
100
AcDbLine
 10
132.2834101382001
 20
129.5996543779
 30
0.0
 11
169.7834101381999
 21
129.5996543779
 31
0.0
  0
LINE
  5
C6
330
1F
100
AcDbEntity
  8
1
  6
Continuous
 62
     7
100
AcDbLine
 10
131.2834101382001
 20
129.5996543779
 30
0.0
 11
132.2834101382001
 21
129.5996543779
 31
0.0
  0
LINE
  5
C7
330
1F
100
AcDbEntity
  8
1
  6
DOT_CENTER
 62
     2
100
AcDbLine
 10
169.7834101381999
 20
129.5996543779
 30
0.0
 11
169.7834101381999
 21
126.6996543779
 31
0.0
  0
LINE
  5
C8
330
1F
100
AcDbEntity
  8
1
  6
PHANTOM
 62
     2
100
AcDbLine
 10
169.7834101381999
 20
129.5996543779
 30
0.0
 11
169.7834101381999
 21
169.5996543779
 31
0.0
  0
LINE
  5
C9
330
1F
100
AcDbEntity
  8
1
  6
DOT_CENTER
 62
     2
100
AcDbLine
 10
169.7834101381999
 20
169.5996543779
 30
0.0
 11
169.7834101381999
 21
172.3513093790352
 31
0.0
  0
LINE
  5
CA
330
1F
100
AcDbEntity
  8
1
  6
Continuous
 62
     7
100
AcDbLine
 10
114.7834101382001
 20
169.5996543779
 30
0.0
 11
169.7834101381999
 21
169.5996543779
 31
0.0
  0
LINE
  5
CB
330
1F
100
AcDbEntity
  8
1
  6
Continuous
 62
     7
100
AcDbLine
 10
114.7834101382001
 20
169.5996543779
 30
0.0
 11
114.7834101382
 21
160.5996543779
 31
0.0
  0
LINE
  5
CC
330
1F
100
AcDbEntity
  8
1
  6
Continuous
 62
     7
100
AcDbLine
 10
139.3533369502
 20
161.5996543779
 30
0.0
 11
148.2834101382
 21
161.5996543779
 31
0.0
  0
LINE
  5
CD
330
1F
100
AcDbEntity
  8
1
  6
Continuous
 62
     7
100
AcDbLine
 10
148.2834101382
 20
161.5996543779
 30
0.0
 11
148.2834101382
 21
157.7367542246
 31
0.0
  0
LINE
  5
CE
330
1F
100
AcDbEntity
  8
1
  6
Continuous
 62
     7
100
AcDbLine
 10
139.3533369502
 20
133.5996543779
 30
0.0
 11
148.2834101382
 21
133.5996543779
 31
0.0
  0
LINE
  5
CF
330
1F
100
AcDbEntity
  8
1
  6
Continuous
 62
     7
100
AcDbLine
 10
148.2834101382
 20
133.5996543779
 30
0.0
 11
148.2834101382
 21
137.4625545311
 31
0.0
  0
LINE
  5
D0
330
1F
100
AcDbEntity
  8
1
  6
Continuous
 62
     7
100
AcDbLine
 10
89.5597147714
 20
133.5996543779
 30
0.0
 11
80.2834101382
 21
133.5996543779
 31
0.0
  0
LINE
  5
D1
330
1F
100
AcDbEntity
  8
1
  6
Continuous
 62
     7
100
AcDbLine
 10
80.2834101382
 20
133.5996543779
 30
0.0
 11
80.2834101382
 21
137.231165688396
 31
0.0
  0
LINE
  5
D2
330
1F
100
AcDbEntity
  8
1
  6
Continuous
 62
     7
100
AcDbLine
 10
89.5597147714
 20
161.5996543779
 30
0.0
 11
80.2834101382
 21
161.5996543779
 31
0.0
  0
LINE
  5
D3
330
1F
100
AcDbEntity
  8
1
  6
Continuous
 62
     7
100
AcDbLine
 10
80.2834101382
 20
161.5996543779
 30
0.0
 11
80.2834101382
 21
157.890458049706
 31
0.0
  0
LINE
  5
D4
330
1F
100
AcDbEntity
  8
1
  6
DASHED
 62
     2
100
AcDbLine
 10
135.5345728861
 20
153.8491126484
 30
0.0
 11
140.5062004662
 21
155.275959735
 31
0.0
  0
LINE
  5
D5
330
1F
100
AcDbEntity
  8
0
  6
Continuous
 62
     7
100
AcDbLine
 10
140.5062004662
 20
155.275959735
 30
0.0
 11
137.5817361382
 21
157.7298763779
 31
0.0
  0
LINE
  5
D6
330
1F
100
AcDbEntity
  8
1
  6
DASHED
 62
     2
100
AcDbLine
 10
139.2777377583
 20
148.6291604253
 30
0.0
 11
141.4842291734
 21
149.2624190104
 31
0.0
  0
LINE
  5
D7
330
1F
100
AcDbEntity
  8
0
  6
Continuous
 62
     7
100
AcDbLine
 10
141.5100092379511
 20
149.2698178369514
 30
0.0
 11
142.2902864499
 21
149.4937558227
 31
0.0
  0
LINE
  5
D8
330
1F
100
AcDbEntity
  8
0
  6
DASHED
 62
     2
100
AcDbLine
 10
139.2257743068523
 20
148.6142470195568
 30
0.0
 11
139.2777377583
 21
148.6291604253
 31
0.0
  0
LINE
  5
D9
330
1F
100
AcDbEntity
  8
0
  6
Continuous
 62
     7
100
AcDbLine
 10
109.7834101382
 20
133.6996543779
 30
0.0
 11
109.7834101382
 21
134.7996543779
 31
0.0
  0
LINE
  5
DA
330
1F
100
AcDbEntity
  8
1
  6
Continuous
 62
     7
100
AcDbLine
 10
122.5513593306313
 20
169.5996543779
 30
0.0
 11
124.2834101381999
 21
172.5996543779
 31
0.0
  0
LINE
  5
DB
330
1F
100
AcDbEntity
  8
1
  6
Continuous
 62
     7
100
AcDbLine
 10
124.2834101381999
 20
172.5996543779
 30
0.0
 11
124.2834101381999
 21
174.5996543779
 31
0.0
  0
LINE
  5
DC
330
1F
100
AcDbEntity
  8
1
  6
Continuous
 62
     7
100
AcDbLine
 10
123.2834101381999
 20
173.5996543779
 30
0.0
 11
123.2834101381999
 21
172.8676035703311
 31
0.0
  0
LINE
  5
DD
330
1F
100
AcDbEntity
  8
1
  6
Continuous
 62
     7
100
AcDbLine
 10
123.2834101381999
 20
172.8676035703311
 30
0.0
 11
121.9740090614413
 21
170.5996543779
 31
0.0
  0
LINE
  5
DE
330
1F
100
AcDbEntity
  8
1
  6
Continuous
 62
     7
100
AcDbLine
 10
121.9740090614413
 20
170.5996543779
 30
0.0
 11
113.5928112149583
 21
170.5996543779
 31
0.0
  0
LINE
  5
DF
330
1F
100
AcDbEntity
  8
1
  6
Continuous
 62
     7
100
AcDbLine
 10
101.2834101381999
 20
165.5996543779
 30
0.0
 11
111.2834101381999
 21
165.5996543779
 31
0.0
  0
LINE
  5
E0
330
1F
100
AcDbEntity
  8
1
  6
DOT_CENTER
 62
     2
100
AcDbLine
 10
101.2834101381999
 20
226.6651711422227
 30
0.0
 11
98.37682528142227
 21
226.6651711422227
 31
0.0
  0
LINE
  5
E1
330
1F
100
AcDbEntity
  8
1
  6
Continuous
 62
     7
100
AcDbLine
 10
101.2834101381999
 20
165.5996543779
 30
0.0
 11
101.2834101381999
 21
226.6651711422227
 31
0.0
  0
LINE
  5
E2
330
1F
100
AcDbEntity
  8
1
  6
Continuous
 62
     7
100
AcDbLine
 10
55.2834101382
 20
147.5996543779
 30
0.0
 11
55.2834101382
 21
129.5996543779
 31
0.0
  0
LINE
  5
E3
330
1F
100
AcDbEntity
  8
1
  6
Continuous
 62
     7
100
AcDbLine
 10
55.2834101382
 20
147.5996543779
 30
0.0
 11
75.78341013819988
 21
147.5996543779
 31
0.0
  0
LINE
  5
E4
330
1F
100
AcDbEntity
  8
1
  6
Continuous
 62
     7
100
AcDbLine
 10
75.78341013819988
 20
165.5996543778998
 30
0.0
 11
75.78341013819988
 21
147.5996543779
 31
0.0
  0
LINE
  5
E5
330
1F
100
AcDbEntity
  8
1
  6
Continuous
 62
     7
100
AcDbLine
 10
75.78341013819988
 20
165.5996543778998
 30
0.0
 11
101.2834101381999
 21
165.5996543779
 31
0.0
  0
LINE
  5
E6
330
1F
100
AcDbEntity
  8
1
  6
Continuous
 62
     7
100
AcDbLine
 10
111.2834101381999
 20
174.5996543779
 30
0.0
 11
111.2834101381999
 21
165.5996543779
 31
0.0
  0
LINE
  5
E7
330
1F
100
AcDbEntity
  8
1
  6
DOT_CENTER
 62
     2
100
AcDbLine
 10
124.2834101381999
 20
226.6651711422227
 30
0.0
 11
126.4866970693894
 21
226.6651711422228
 31
0.0
  0
LINE
  5
E8
330
1F
100
AcDbEntity
  8
1
  6
DOT_CENTER
 62
     2
100
AcDbLine
 10
124.2834101381999
 20
226.6651711422227
 30
0.0
 11
101.2834101381999
 21
226.6651711422227
 31
0.0
  0
LINE
  5
E9
330
1F
100
AcDbEntity
  8
1
  6
Continuous
 62
     7
100
AcDbLine
 10
124.2834101381999
 20
174.5996543779
 30
0.0
 11
124.2834101381999
 21
226.6651711422227
 31
0.0
  0
LINE
  5
EA
330
1F
100
AcDbEntity
  8
1
  6
Continuous
 62
     7
100
AcDbLine
 10
111.2834101381999
 20
172.5996543779
 30
0.0
 11
113.0154609457687
 21
169.5996543779
 31
0.0
  0
LINE
  5
EB
330
1F
100
AcDbEntity
  8
1
  6
Continuous
 62
     7
100
AcDbLine
 10
113.0154609457687
 20
169.5996543779
 30
0.0
 11
122.5513593306313
 21
169.5996543779
 31
0.0
  0
LINE
  5
EC
330
1F
100
AcDbEntity
  8
1
  6
Continuous
 62
     7
100
AcDbLine
 10
112.2834101381999
 20
173.5996543779
 30
0.0
 11
123.2834101381999
 21
173.5996543779
 31
0.0
  0
LINE
  5
ED
330
1F
100
AcDbEntity
  8
1
  6
Continuous
 62
     7
100
AcDbLine
 10
113.5928112149583
 20
170.5996543779
 30
0.0
 11
112.2834101381999
 21
172.8676035703311
 31
0.0
  0
LINE
  5
EE
330
1F
100
AcDbEntity
  8
1
  6
Continuous
 62
     7
100
AcDbLine
 10
112.2834101381999
 20
172.8676035703311
 30
0.0
 11
112.2834101381999
 21
173.5996543779
 31
0.0
  0
LINE
  5
EF
330
1F
100
AcDbEntity
  8
1
  6
Continuous
 62
     7
100
AcDbLine
 10
111.2834101381999
 20
174.5996543779
 30
0.0
 11
124.2834101381999
 21
174.5996543779
 31
0.0
  0
LINE
  5
F0
330
1F
100
AcDbEntity
  8
1
  6
Continuous
 62
     7
100
AcDbLine
 10
98.28341013819988
 20
129.5996543779
 30
0.0
 11
111.2834101381999
 21
129.5996543779
 31
0.0
  0
LINE
  5
F1
330
1F
100
AcDbEntity
  8
1
  6
Continuous
 62
     7
100
AcDbLine
 10
98.28341013819988
 20
129.5996543779
 30
0.0
 11
55.2834101382
 21
129.5996543779
 31
0.0
  0
LINE
  5
F2
330
1F
100
AcDbEntity
  8
1
  6
Continuous
 62
     7
100
AcDbLine
 10
111.2834101381999
 20
129.5996543779
 30
0.0
 11
111.2834101382
 21
134.7996543779
 31
0.0
  0
LINE
  5
F3
330
1F
100
AcDbEntity
  8
1
  6
Continuous
 62
     7
100
AcDbLine
 10
97.2834101382
 20
180.8496543779
 30
0.0
 11
97.28341013819988
 21
165.5996543779
 31
0.0
  0
LINE
  5
F4
330
1F
100
AcDbEntity
  8
1
  6
DASHED
 62
     2
100
AcDbLine
 10
99.53341013819988
 20
180.8496543779
 30
0.0
 11
99.53341013819988
 21
186.3496543779
 31
0.0
  0
LINE
  5
F5
330
1F
100
AcDbEntity
  8
1
  6
DASHED
 62
     2
100
AcDbLine
 10
99.53341013819988
 20
186.3496543779
 30
0.0
 11
97.28341013819988
 21
188.5996543779
 31
0.0
  0
LINE
  5
F6
330
1F
100
AcDbEntity
  8
1
  6
Continuous
 62
     7
100
AcDbLine
 10
97.2834101382
 20
193.3496543779
 30
0.0
 11
97.2834101382
 21
186.3496543779
 31
0.0
  0
LINE
  5
F7
330
1F
100
AcDbEntity
  8
1
  6
DASHED
 62
     2
100
AcDbLine
 10
101.2834101381999
 20
186.3496543779
 30
0.0
 11
99.53341013819988
 21
186.3496543779
 31
0.0
  0
LINE
  5
F8
330
1F
100
AcDbEntity
  8
1
  6
DASHED
 62
     2
100
AcDbLine
 10
99.53341013819988
 20
180.8496543779
 30
0.0
 11
97.28341013819988
 21
178.5996543779
 31
0.0
  0
LINE
  5
F9
330
1F
100
AcDbEntity
  8
1
  6
Continuous
 62
     7
100
AcDbLine
 10
97.2834101382
 20
186.3496543779
 30
0.0
 11
97.2834101382
 21
180.8496543779
 31
0.0
  0
LINE
  5
FA
330
1F
100
AcDbEntity
  8
1
  6
DASHED
 62
     2
100
AcDbLine
 10
101.2834101381999
 20
180.8496543779
 30
0.0
 11
99.53341013819988
 21
180.8496543779
 31
0.0
  0
LINE
  5
FB
330
1F
100
AcDbEntity
  8
1
  6
DOT_CENTER
 62
     2
100
AcDbLine
 10
102.7834101382
 20
183.5996543779
 30
0.0
 11
95.78341013819988
 21
183.5996543779
 31
0.0
  0
LINE
  5
FC
330
1F
100
AcDbEntity
  8
1
  6
DASHED
 62
     2
100
AcDbLine
 10
99.53341013819988
 20
193.3496543779
 30
0.0
 11
99.53341013819988
 21
198.8496543779
 31
0.0
  0
LINE
  5
FD
330
1F
100
AcDbEntity
  8
1
  6
DASHED
 62
     2
100
AcDbLine
 10
99.53341013819988
 20
198.8496543779
 30
0.0
 11
97.28341013819988
 21
201.0996543779
 31
0.0
  0
LINE
  5
FE
330
1F
100
AcDbEntity
  8
1
  6
Continuous
 62
     7
100
AcDbLine
 10
97.28341013819988
 20
213.5996543779
 30
0.0
 11
97.2834101382
 21
198.8496543779
 31
0.0
  0
LINE
  5
FF
330
1F
100
AcDbEntity
  8
1
  6
DASHED
 62
     2
100
AcDbLine
 10
101.2834101381999
 20
198.8496543779
 30
0.0
 11
99.53341013819988
 21
198.8496543779
 31
0.0
  0
LINE
  5
100
330
1F
100
AcDbEntity
  8
1
  6
DASHED
 62
     2
100
AcDbLine
 10
99.53341013819988
 20
193.3496543779
 30
0.0
 11
97.28341013819988
 21
191.0996543779
 31
0.0
  0
LINE
  5
101
330
1F
100
AcDbEntity
  8
1
  6
Continuous
 62
     7
100
AcDbLine
 10
97.2834101382
 20
198.8496543779
 30
0.0
 11
97.2834101382
 21
193.3496543779
 31
0.0
  0
LINE
  5
102
330
1F
100
AcDbEntity
  8
1
  6
DASHED
 62
     2
100
AcDbLine
 10
101.2834101381999
 20
193.3496543779
 30
0.0
 11
99.53341013819988
 21
193.3496543779
 31
0.0
  0
LINE
  5
103
330
1F
100
AcDbEntity
  8
1
  6
DOT_CENTER
 62
     2
100
AcDbLine
 10
102.7834101382
 20
196.0996543779
 30
0.0
 11
95.78341013819988
 21
196.0996543779
 31
0.0
  0
LINE
  5
104
330
1F
100
AcDbEntity
  8
1
  6
Continuous
 62
     7
100
AcDbLine
 10
101.2834101381999
 20
213.5996543779
 30
0.0
 11
97.28341013819988
 21
213.5996543779
 31
0.0
  0
ARC
  5
105
330
1F
100
AcDbEntity
  8
0
  6
Continuous
 62
     7
100
AcDbCircle
 10
139.5334101382
 20
151.8496543779
 30
0.0
 40
3.250000089126931
100
AcDbArc
 50
-164.9999985335196
 51
49.99995102729589
  0
ARC
  5
106
330
1F
100
AcDbEntity
  8
0
  6
Continuous
 62
     7
100
AcDbCircle
 10
105.5334101382
 20
138.8496543779
 30
0.0
 40
3.999999999977959
100
AcDbArc
 50
156.4435356916348
 51
26.99998908870151
  0
ARC
  5
107
330
1F
100
AcDbEntity
  8
0
  6
Continuous
 62
     7
100
AcDbCircle
 10
122.7270331382
 20
152.3996543779
 30
0.0
 40
3.0
100
AcDbArc
 50
90.0
 51
112.0000323534909
  0
ARC
  5
108
330
1F
100
AcDbEntity
  8
0
  6
Continuous
 62
     7
100
AcDbCircle
 10
109.2583161382
 20
146.9579393779
 30
0.0
 40
3.00000048677128
100
AcDbArc
 50
111.9999989001337
 51
-153.0001999340992
  0
ARC
  5
109
330
1F
100
AcDbEntity
  8
0
  6
Continuous
 62
     7
100
AcDbCircle
 10
107.0334101382
 20
148.435440566
 30
0.0
 40
4.999999999999986
100
AcDbArc
 50
156.498908261462
 51
180.0
  0
ARC
  5
10A
330
1F
100
AcDbEntity
  8
0
  6
Continuous
 62
     7
100
AcDbCircle
 10
115.9655591382
 20
159.8996543779
 30
0.0
 40
0.99999948599941
100
AcDbArc
 50
-125.9040650307991
 51
-89.99971905830914
  0
ARC
  5
10B
330
1F
100
AcDbEntity
  8
0
  6
Continuous
 62
     7
100
AcDbCircle
 10
132.9155621382
 20
152.3996543779
 30
0.0
 40
2.999999502429649
100
AcDbArc
 50
14.99999987094887
 51
90.00007218159767
  0
ARC
  5
10C
330
1F
100
AcDbEntity
  8
0
  6
Continuous
 62
     7
100
AcDbCircle
 10
134.3677981382
 20
153.8996543779
 30
0.0
 40
4.99999980371282
100
AcDbArc
 50
49.99999883712341
 51
90.00001924389962
  0
ARC
  5
10D
330
1F
100
AcDbEntity
  8
0
  6
Continuous
 62
     7
100
AcDbCircle
 10
100.0334101382
 20
141.2475701395
 30
0.0
 40
1.999999999999513
100
AcDbArc
 50
-23.556464309093
 51
-1.01379015892381
  0
ARC
  5
10E
330
1F
100
AcDbEntity
  8
0
  6
Continuous
 62
     7
100
AcDbCircle
 10
111.6252104487
 20
148.9927619597
 30
0.0
 40
2.000000000000081
100
AcDbArc
 50
78.39453325149674
 51
111.9999989020327
  0
ARC
  5
10F
330
1F
100
AcDbEntity
  8
0
  6
Continuous
 62
     7
100
AcDbCircle
 10
120.5334101382
 20
138.8496543779
 30
0.0
 40
4.000000000000295
100
AcDbArc
 50
153.0000109112984
 51
23.55646430836519
  0
ARC
  5
110
330
1F
100
AcDbEntity
  8
0
  6
Continuous
 62
     7
100
AcDbCircle
 10
86.5334101382
 20
151.8496543779
 30
0.0
 40
3.250000089099896
100
AcDbArc
 50
130.0000489727013
 51
-15.00000146648043
  0
ARC
  5
111
330
1F
100
AcDbEntity
  8
0
  6
Continuous
 62
     7
100
AcDbCircle
 10
114.4416098278
 20
148.9927619597
 30
0.0
 40
2.000000000009858
100
AcDbArc
 50
68.00000109796694
 51
101.6054667511938
  0
ARC
  5
112
330
1F
100
AcDbEntity
  8
0
  6
Continuous
 62
     7
100
AcDbCircle
 10
107.2572384927
 20
151.895436235
 30
0.0
 40
1.999999999993699
100
AcDbArc
 50
34.39453544792053
 51
68.00000109796733
  0
ARC
  5
113
330
1F
100
AcDbEntity
  8
0
  6
Continuous
 62
     7
100
AcDbCircle
 10
116.8085041382
 20
146.9579393779
 30
0.0
 40
3.000000486900502
100
AcDbArc
 50
-26.99980006590083
 51
67.99999923013539
  0
ARC
  5
114
330
1F
100
AcDbEntity
  8
0
  6
Continuous
 62
     7
100
AcDbCircle
 10
126.0334101382
 20
141.2475701395
 30
0.0
 40
2.0
100
AcDbArc
 50
180.0
 51
-156.443535690907
  0
ARC
  5
115
330
1F
100
AcDbEntity
  8
0
  6
Continuous
 62
     7
100
AcDbCircle
 10
119.0334101382
 20
148.435440566
 30
0.0
 40
5.0
100
AcDbArc
 50
0.0
 51
44.9999999991897
  0
ARC
  5
116
330
1F
100
AcDbEntity
  8
0
  6
Continuous
 62
     7
100
AcDbCircle
 10
110.1012611382
 20
159.8996543779
 30
0.0
 40
0.9999994860000063
100
AcDbArc
 50
-90.00028094169168
 51
-54.09597209271803
  0
ARC
  5
117
330
1F
100
AcDbEntity
  8
0
  6
Continuous
 62
     7
100
AcDbCircle
 10
91.6990221382
 20
153.8996543779
 30
0.0
 40
4.999999803700289
100
AcDbArc
 50
89.99998075610007
 51
130.0000011628765
  0
ARC
  5
118
330
1F
100
AcDbEntity
  8
0
  6
Continuous
 62
     7
100
AcDbCircle
 10
93.1512581382
 20
152.3996543779
 30
0.0
 40
2.999999502400378
100
AcDbArc
 50
89.99992781840044
 51
165.000000129051
  0
ARC
  5
119
330
1F
100
AcDbEntity
  8
0
  6
Continuous
 62
     7
100
AcDbCircle
 10
103.3397871382
 20
152.3996543779
 30
0.0
 40
3.000000000000311
100
AcDbArc
 50
67.99998348609908
 51
90.0
  0
ARC
  5
11A
330
1F
100
AcDbEntity
  8
0
  6
Continuous
 62
     7
100
AcDbCircle
 10
113.0334101382
 20
155.8496543779
 30
0.0
 40
5.000000000000074
100
AcDbArc
 50
-108.0025673719685
 51
-78.3945332511046
  0
ARC
  5
11B
330
1F
100
AcDbEntity
  8
0
  6
Continuous
 62
     7
100
AcDbCircle
 10
145.2834101382
 20
137.4625545311
 30
0.0
 40
2.000000000027834
100
AcDbArc
 50
-81.99999999780167
 51
0.0
  0
ARC
  5
11C
330
1F
100
AcDbEntity
  8
0
  6
Continuous
 62
     7
100
AcDbCircle
 10
145.2834101382
 20
157.7367542246
 30
0.0
 40
2.0
100
AcDbArc
 50
0.0
 51
81.99999999780155
  0
ARC
  5
11D
330
1F
100
AcDbEntity
  8
0
  6
Continuous
 62
     7
100
AcDbCircle
 10
145.2834101382
 20
157.7367542246
 30
0.0
 40
3.0
100
AcDbArc
 50
0.0
 51
81.9999999998258
  0
ARC
  5
11E
330
1F
100
AcDbEntity
  8
0
  6
Continuous
 62
     7
100
AcDbCircle
 10
145.2834101382
 20
137.4625545311
 30
0.0
 40
2.999999999978284
100
AcDbArc
 50
-81.99999999955996
 51
0.0
  0
ARC
  5
11F
330
1F
100
AcDbEntity
  8
0
  6
Continuous
 62
     7
100
AcDbCircle
 10
83.2834101382
 20
137.5113016954
 30
0.0
 40
2.0
100
AcDbArc
 50
180.0
 51
-98.43525116880156
  0
ARC
  5
120
330
1F
100
AcDbEntity
  8
0
  6
Continuous
 62
     7
100
AcDbCircle
 10
83.2834101382
 20
157.7367542246
 30
0.0
 40
2.000000000013888
100
AcDbArc
 50
97.99999999936149
 51
180.0
  0
ARC
  5
121
330
1F
100
AcDbEntity
  8
0
  6
Continuous
 62
     7
100
AcDbCircle
 10
83.2834101382
 20
157.6880945683
 30
0.0
 40
3.000000000063412
100
AcDbArc
 50
97.99999999828316
 51
180.0
  0
ARC
  5
122
330
1F
100
AcDbEntity
  8
0
  6
Continuous
 62
     7
100
AcDbCircle
 10
83.2834101382
 20
137.5112141874
 30
0.0
 40
3.0
100
AcDbArc
 50
180.0
 51
-97.99999999854907
  0
ARC
  5
123
330
1F
100
AcDbEntity
  8
0
  6
Continuous
 62
     7
100
AcDbCircle
 10
140.8971848788
 20
154.3478023833
 30
0.0
 40
0.9999999999806034
100
AcDbArc
 50
16.01337226974646
 51
106.0133722681661
  0
ARC
  5
124
330
1F
100
AcDbEntity
  8
0
  6
Continuous
 62
     7
100
AcDbCircle
 10
142.0144247527
 20
150.4549531614
 30
0.0
 40
0.9999999999530207
100
AcDbArc
 50
-73.98662773576012
 51
16.01337226974646
  0
ARC
  5
125
330
1F
100
AcDbEntity
  8
0
  6
Continuous
 62
     7
100
AcDbCircle
 10
125.7834101382
 20
139.8496543779
 30
0.0
 40
1.0
100
AcDbArc
 50
90.0
 51
180.0
  0
ARC
  5
126
330
1F
100
AcDbEntity
  8
0
  6
Continuous
 62
     7
100
AcDbCircle
 10
84.0523955238
 20
150.4549531614
 30
0.0
 40
0.9999999999806034
100
AcDbArc
 50
163.9866277302536
 51
-106.0133722642391
  0
ARC
  5
127
330
1F
100
AcDbEntity
  8
0
  6
Continuous
 62
     7
100
AcDbCircle
 10
85.1696353977
 20
154.3478023833
 30
0.0
 40
1.000000000076707
100
AcDbArc
 50
73.9866277318347
 51
163.9866277302536
  0
ARC
  5
128
330
1F
100
AcDbEntity
  8
0
  6
Continuous
 62
     7
100
AcDbCircle
 10
98.7834101382
 20
139.0996543779
 30
0.0
 40
1.0
100
AcDbArc
 50
0.0
 51
90.0
  0
ARC
  5
129
330
1F
100
AcDbEntity
  8
0
  6
Continuous
 62
     7
100
AcDbCircle
 10
113.0334101382
 20
155.8496543779
 30
0.0
 40
5.000000000000425
100
AcDbArc
 50
-145.6054645521021
 51
-108.0025673719685
  0
ARC
  5
12A
330
1F
100
AcDbEntity
  8
0
  6
Continuous
 62
     7
100
AcDbCircle
 10
110.1012611382
 20
159.8996543779
 30
0.0
 40
0.9999994860000063
100
AcDbArc
 50
-90.00028094169168
 51
-54.09593496920156
  0
ARC
  5
12B
330
1F
100
AcDbEntity
  8
0
  6
DASHED
 62
     2
100
AcDbCircle
 10
113.0334101382
 20
155.8496543779
 30
0.0
 40
4.000000289820568
100
AcDbArc
 50
126.5566956539212
 51
134.999943509701
  0
ARC
  5
12C
330
1F
100
AcDbEntity
  8
0
  6
Continuous
 62
     7
100
AcDbCircle
 10
107.0334101382
 20
148.435440566
 30
0.0
 40
4.999999999953697
100
AcDbArc
 50
135.0
 51
156.498908261462
  0
ARC
  5
12D
330
1F
100
AcDbEntity
  8
0
  6
Continuous
 62
     7
100
AcDbCircle
 10
113.0334101382
 20
155.8496543779
 30
0.0
 40
4.00000028982056
100
AcDbArc
 50
54.09592568303341
 51
126.5566956539212
  0
CIRCLE
  5
12E
330
1F
100
AcDbEntity
  8
1
  6
Continuous
 62
     7
100
AcDbCircle
 10
113.0334101382
 20
155.8496543779
 30
0.0
 40
2.0
  0
CIRCLE
  5
12F
330
1F
100
AcDbEntity
  8
0
  6
Continuous
 62
     7
100
AcDbCircle
 10
139.5334101382
 20
151.8496543779
 30
0.0
 40
2.025000000000006
  0
CIRCLE
  5
130
330
1F
100
AcDbEntity
  8
0
  6
Continuous
 62
     7
100
AcDbCircle
 10
86.5334101382
 20
151.8496543779
 30
0.0
 40
2.025000000000006
  0
CIRCLE
  5
131
330
1F
100
AcDbEntity
  8
0
  6
Continuous
 62
     7
100
AcDbCircle
 10
120.5334101382
 20
138.8496543779
 30
0.0
 40
2.0
  0
CIRCLE
  5
132
330
1F
100
AcDbEntity
  8
0
  6
Continuous
 62
     7
100
AcDbCircle
 10
105.5334101382
 20
138.8496543779
 30
0.0
 40
2.0
  0
XLINE
  5
133
330
1F
100
AcDbEntity
  8
1
  6
DOT_CENTER
 62
     3
 60
     1
100
AcDbXline
 10
113.0334101382
 20
152.8495543779
 30
0.0
 11
0.0
 21
1.0
 31
0.0
  0
XLINE
  5
134
330
1F
100
AcDbEntity
  8
1
  6
DOT_CENTER
 62
     3
 60
     1
100
AcDbXline
 10
113.0334101382
 20
155.011634029903
 30
0.0
 11
0.0
 21
1.0
 31
0.0
  0
XLINE
  5
135
330
1F
100
AcDbEntity
  8
1
  6
DOT_CENTER
 62
     3
 60
     1
100
AcDbXline
 10
113.0334101382
 20
160.8497543779
 30
0.0
 11
0.0
 21
1.0
 31
0.0
  0
ARC
  5
136
330
1F
100
AcDbEntity
  8
1
  6
DASHED
 62
     2
100
AcDbCircle
 10
120.6933955237725
 20
148.5493555943671
 30
0.0
 40
0.9999999999999865
100
AcDbArc
 50
106.0133722661427
 51
-163.9866277330397
  0
ARC
  5
137
330
1F
100
AcDbEntity
  8
1
  6
DASHED
 62
     2
100
AcDbCircle
 10
121.810635397708
 20
144.6565063723682
 30
0.0
 40
1.000000000000023
100
AcDbArc
 50
-163.9866277330413
 51
-73.98662773304599
  0
ARC
  5
138
330
1F
100
AcDbEntity
  8
1
  6
DASHED
 62
     2
100
AcDbCircle
 10
105.3734247526075
 20
148.5493555944015
 30
0.0
 40
1.0
100
AcDbArc
 50
-16.01337226614249
 51
73.98662773386276
  0
ARC
  5
139
330
1F
100
AcDbEntity
  8
1
  6
DASHED
 62
     2
100
AcDbCircle
 10
104.2561848787274
 20
144.6565063723869
 30
0.0
 40
0.9999999999999954
100
AcDbArc
 50
-106.0133722669532
 51
-16.01337226613779
  0
DIMENSION
  5
145
330
1F
100
AcDbEntity
  8
1
100
AcDbDimension
  2
*D1
 10
45.2262206653976
 20
161.5996543779
 30
0.0
 11
41.4762206653976
 21
147.875102568892
 31
0.0
 70
    32
  1
<>
 71
     5
 42
-1.0
 53
90.0
  3
ME10_DIM_10
100
AcDbAlignedDimension
 13
80.2834101382
 23
133.5996543779
 33
0.0
 14
80.2834101382
 24
161.5996543779
 34
0.0
 50
90.0
100
AcDbRotatedDimension
  0
DIMENSION
  5
152
330
1F
100
AcDbEntity
  8
1
100
AcDbDimension
  2
*D2
 10
111.2834101381999
 20
119.49922316715
 30
0.0
 11
105.082095865071
 21
123.24922316715
 31
0.0
 70
    32
  1
<>
 71
     5
 42
-1.0
 53
0.00013888888889
  3
ME10_DIM_11
100
AcDbAlignedDimension
 13
114.7834101382
 23
129.5996543779
 33
0.0
 14
111.2834101381999
 24
129.5996543779
 34
0.0
100
AcDbRotatedDimension
  0
DIMENSION
  5
15D
330
1F
100
AcDbEntity
  8
1
100
AcDbDimension
  2
*D3
 10
111.2834101381999
 20
109.75173284228
 30
0.0
 11
94.811343491022
 21
113.50173284228
 31
0.0
 70
    32
  1
<>
 71
     5
 42
-1.0
 53
0.00013888888889
  3
ME10_DIM_12
100
AcDbAlignedDimension
 13
80.2834101382
 23
133.5996543779
 33
0.0
 14
111.2834101381999
 24
129.5996543779
 34
0.0
100
AcDbRotatedDimension
  0
DIMENSION
  5
168
330
1F
100
AcDbEntity
  8
1
100
AcDbDimension
  2
*D4
 10
114.7834101382
 20
109.75173284228
 30
0.0
 11
130.816222682731
 21
113.50173284228
 31
0.0
 70
    32
  1
<>
 71
     5
 42
-1.0
 53
0.00013888888889
  3
ME10_DIM_13
100
AcDbAlignedDimension
 13
148.2834101382
 23
137.4625545311
 33
0.0
 14
114.7834101382
 24
129.5996543779
 34
0.0
100
AcDbRotatedDimension
  0
DIMENSION
  5
175
330
1F
100
AcDbEntity
  8
1
100
AcDbDimension
  2
*D5
 10
179.545245666253
 20
129.5996543779
 30
0.0
 11
175.795245666253
 21
124.985581066349
 31
0.0
 70
    32
  1
<>
 71
     5
 42
-1.0
 53
90.0
  3
ME10_DIM_14
100
AcDbAlignedDimension
 13
148.2834101382
 23
133.5996543779
 33
0.0
 14
169.7834101381999
 24
129.5996543779
 34
0.0
 50
90.0
100
AcDbRotatedDimension
  0
DIMENSION
  5
180
330
1F
100
AcDbEntity
  8
1
100
AcDbDimension
  2
*D6
 10
179.545245666253
 20
133.5996543779
 30
0.0
 11
175.795245666253
 21
147.341522068059
 31
0.0
 70
    32
  1
<>
 71
     5
 42
-1.0
 53
90.0
  3
ME10_DIM_15
100
AcDbAlignedDimension
 13
148.2834101382
 23
161.5996543779
 33
0.0
 14
148.2834101382
 24
133.5996543779
 34
0.0
 50
90.0
100
AcDbRotatedDimension
  0
ENDSEC
  0
SECTION
  2
OBJECTS
  0
DICTIONARY
  5
C
330
0
100
AcDbDictionary
281
     1
  3
ACAD_GROUP
350
D
  3
ACAD_LAYOUT
350
1A
  3
ACAD_MLINESTYLE
350
17
  3
ACAD_PLOTSETTINGS
350
19
  3
ACAD_PLOTSTYLENAME
350
E
  0
DICTIONARY
  5
D
102
{ACAD_REACTORS
330
C
102
}
330
C
100
AcDbDictionary
281
     1
  0
DICTIONARY
  5
1A
102
{ACAD_REACTORS
330
C
102
}
330
C
100
AcDbDictionary
281
     1
  3
Layout1
350
1E
  3
Layout2
350
26
  3
Model
350
22
  0
DICTIONARY
  5
17
102
{ACAD_REACTORS
330
C
102
}
330
C
100
AcDbDictionary
281
     1
  3
Standard
350
18
  0
DICTIONARY
  5
19
102
{ACAD_REACTORS
330
C
102
}
330
C
100
AcDbDictionary
281
     1
  0
ACDBDICTIONARYWDFLT
  5
E
102
{ACAD_REACTORS
330
C
102
}
330
C
100
AcDbDictionary
281
     1
  3
Normal
350
F
100
AcDbDictionaryWithDefault
340
F
  0
LAYOUT
  5
1E
102
{ACAD_REACTORS
330
1A
102
}
330
1A
100
AcDbPlotSettings
  1

  2

  4

  6

 40
0.0
 41
0.0
 42
0.0
 43
0.0
 44
0.0
 45
0.0
 46
0.0
 47
0.0
 48
0.0
 49
0.0
140
0.0
141
0.0
142
1.0
143
1.0
 70
   688
 72
     0
 73
     0
 74
     5
  7

 75
    16
 76
     0
 77
     2
 78
   300
147
1.0
148
0.0
149
0.0
100
AcDbLayout
  1
Layout1
 70
     1
 71
     1
 10
0.0
 20
0.0
 11
0.0
 21
0.0
 12
0.0
 22
0.0
 32
0.0
 14
0.0
 24
0.0
 34
0.0
 15
0.0
 25
0.0
 35
0.0
146
0.0
 13
0.0
 23
0.0
 33
0.0
 16
1.0
 26
0.0
 36
0.0
 17
0.0
 27
1.0
 37
0.0
 76
     0
330
1B
  0
LAYOUT
  5
26
102
{ACAD_REACTORS
330
1A
102
}
330
1A
100
AcDbPlotSettings
  1

  2

  4

  6

 40
0.0
 41
0.0
 42
0.0
 43
0.0
 44
0.0
 45
0.0
 46
0.0
 47
0.0
 48
0.0
 49
0.0
140
0.0
141
0.0
142
1.0
143
1.0
 70
   688
 72
     0
 73
     0
 74
     5
  7

 75
    16
 76
     0
 77
     2
 78
   300
147
1.0
148
0.0
149
0.0
100
AcDbLayout
  1
Layout2
 70
     1
 71
     2
 10
0.0
 20
0.0
 11
0.0
 21
0.0
 12
0.0
 22
0.0
 32
0.0
 14
0.0
 24
0.0
 34
0.0
 15
0.0
 25
0.0
 35
0.0
146
0.0
 13
0.0
 23
0.0
 33
0.0
 16
1.0
 26
0.0
 36
0.0
 17
0.0
 27
1.0
 37
0.0
 76
     0
330
23
  0
LAYOUT
  5
22
102
{ACAD_REACTORS
330
1A
102
}
330
1A
100
AcDbPlotSettings
  1

  2

  4

  6

 40
0.0
 41
0.0
 42
0.0
 43
0.0
 44
0.0
 45
0.0
 46
0.0
 47
0.0
 48
0.0
 49
0.0
140
0.0
141
0.0
142
1.0
143
1.0
 70
  1712
 72
     0
 73
     0
 74
     0
  7

 75
     0
 76
     0
 77
     2
 78
   300
147
1.0
148
0.0
149
0.0
100
AcDbLayout
  1
Model
 70
     1
 71
     0
 10
0.0
 20
0.0
 11
0.0
 21
0.0
 12
0.0
 22
0.0
 32
0.0
 14
39.7262206653976
 24
107.75173284228
 34
0.0
 15
181.545245666253
 25
226.6651711422228
 35
0.0
146
0.0
 13
0.0
 23
0.0
 33
0.0
 16
1.0
 26
0.0
 36
0.0
 17
0.0
 27
1.0
 37
0.0
 76
     0
330
1F
  0
MLINESTYLE
  5
18
102
{ACAD_REACTORS
330
17
102
}
330
17
100
AcDbMlineStyle
  2
Standard
 70
     0
  3

 62
   256
 51
90.0
 52
90.0
 71
     2
 49
0.5
 62
   256
  6
BYLAYER
 49
-0.5
 62
   256
  6
BYLAYER
  0
ACDBPLACEHOLDER
  5
F
102
{ACAD_REACTORS
330
E
102
}
330
E
  0
ENDSEC
  0
EOF
