  0
SECTION
  2
HEADER
  9
$ACADVER
  1
AC1018
  9
$ACADMAINTVER
 70
     0
  9
$DWGCODEPAGE
  3
ANSI_1252
  9
$INSBASE
 10
0.0
 20
0.0
 30
0.0
  9
$EXTMIN
 10
484.1754257432044
 20
-127.267697518273
 30
0.0
  9
$EXTMAX
 10
623.937248201244
 20
-6.26283953055159
 30
0.0
  9
$LIMMIN
 10
0.0
 20
0.0
  9
$LIMMAX
 10
12.0
 20
9.0
  9
$ORTHOMODE
 70
     0
  9
$REGENMODE
 70
     1
  9
$FILLMODE
 70
     1
  9
$QTEXTMODE
 70
     0
  9
$MIRRTEXT
 70
     1
  9
$LTSCALE
 40
1.0
  9
$ATTMODE
 70
     1
  9
$TEXTSIZE
 40
0.2
  9
$TRACEWID
 40
0.05
  9
$TEXTSTYLE
  7
Standard
  9
$CLAYER
  8
0
  9
$CELTYPE
  6
ByLayer
  9
$CECOLOR
 62
   256
  9
$CELTSCALE
 40
1.0
  9
$DISPSILH
 70
     0
  9
$DIMSCALE
 40
1.0
  9
$DIMASZ
 40
0.18
  9
$DIMEXO
 40
0.0625
  9
$DIMDLI
 40
0.38
  9
$DIMRND
 40
0.0
  9
$DIMDLE
 40
0.0
  9
$DIMEXE
 40
0.18
  9
$DIMTP
 40
0.0
  9
$DIMTM
 40
0.0
  9
$DIMTXT
 40
0.18
  9
$DIMCEN
 40
0.09
  9
$DIMTSZ
 40
0.0
  9
$DIMTOL
 70
     0
  9
$DIMLIM
 70
     0
  9
$DIMTIH
 70
     1
  9
$DIMTOH
 70
     1
  9
$DIMSE1
 70
     0
  9
$DIMSE2
 70
     0
  9
$DIMTAD
 70
     0
  9
$DIMZIN
 70
     0
  9
$DIMBLK
  1

  9
$DIMASO
 70
     1
  9
$DIMSHO
 70
     1
  9
$DIMPOST
  1

  9
$DIMAPOST
  1

  9
$DIMALT
 70
     0
  9
$DIMALTD
 70
     2
  9
$DIMALTF
 40
25.4
  9
$DIMLFAC
 40
1.0
  9
$DIMTOFL
 70
     0
  9
$DIMTVP
 40
0.0
  9
$DIMTIX
 70
     0
  9
$DIMSOXD
 70
     0
  9
$DIMSAH
 70
     0
  9
$DIMBLK1
  1

  9
$DIMBLK2
  1

  9
$DIMSTYLE
  2
Standard
  9
$DIMCLRD
 70
     0
  9
$DIMCLRE
 70
     0
  9
$DIMCLRT
 70
     0
  9
$DIMTFAC
 40
1.0
  9
$DIMGAP
 40
0.09
  9
$DIMJUST
 70
     0
  9
$DIMSD1
 70
     0
  9
$DIMSD2
 70
     0
  9
$DIMTOLJ
 70
     1
  9
$DIMTZIN
 70
     0
  9
$DIMALTZ
 70
     0
  9
$DIMALTTZ
 70
     0
  9
$DIMUPT
 70
     0
  9
$DIMDEC
 70
     4
  9
$DIMTDEC
 70
     4
  9
$DIMALTU
 70
     2
  9
$DIMALTTD
 70
     2
  9
$DIMTXSTY
  7
Standard
  9
$DIMAUNIT
 70
     0
  9
$DIMADEC
 70
     0
  9
$DIMALTRND
 40
0.0
  9
$DIMAZIN
 70
     0
  9
$DIMDSEP
 70
    46
  9
$DIMATFIT
 70
     3
  9
$DIMFRAC
 70
     0
  9
$DIMLDRBLK
  1

  9
$DIMLUNIT
 70
     2
  9
$DIMLWD
 70
    -2
  9
$DIMLWE
 70
    -2
  9
$DIMTMOVE
 70
     0
  9
$LUNITS
 70
     2
  9
$LUPREC
 70
     4
  9
$SKETCHINC
 40
0.1
  9
$FILLETRAD
 40
0.5
  9
$AUNITS
 70
     0
  9
$AUPREC
 70
     0
  9
$MENU
  1
.
  9
$ELEVATION
 40
0.0
  9
$PELEVATION
 40
0.0
  9
$THICKNESS
 40
0.0
  9
$LIMCHECK
 70
     0
  9
$CHAMFERA
 40
0.5
  9
$CHAMFERB
 40
0.5
  9
$CHAMFERC
 40
1.0
  9
$CHAMFERD
 40
0.0
  9
$SKPOLY
 70
     0
  9
$TDCREATE
 40
2454802.362830405
  9
$TDUCREATE
 40
2454802.321163739
  9
$TDUPDATE
 40
2454802.362830417
  9
$TDUUPDATE
 40
2454802.32116375
  9
$TDINDWG
 40
0.0000000116
  9
$TDUSRTIMER
 40
0.0000000116
  9
$USRTIMER
 70
     1
  9
$ANGBASE
 50
0.0
  9
$ANGDIR
 70
     0
  9
$PDMODE
 70
     0
  9
$PDSIZE
 40
0.0
  9
$PLINEWID
 40
0.0
  9
$SPLFRAME
 70
     0
  9
$SPLINETYPE
 70
     6
  9
$SPLINESEGS
 70
     8
  9
$HANDSEED
  5
182
  9
$SURFTAB1
 70
     6
  9
$SURFTAB2
 70
     6
  9
$SURFTYPE
 70
     6
  9
$SURFU
 70
     6
  9
$SURFV
 70
     6
  9
$UCSBASE
  2

  9
$UCSNAME
  2

  9
$UCSORG
 10
0.0
 20
0.0
 30
0.0
  9
$UCSXDIR
 10
1.0
 20
0.0
 30
0.0
  9
$UCSYDIR
 10
0.0
 20
1.0
 30
0.0
  9
$UCSORTHOREF
  2

  9
$UCSORTHOVIEW
 70
     0
  9
$UCSORGTOP
 10
0.0
 20
0.0
 30
0.0
  9
$UCSORGBOTTOM
 10
0.0
 20
0.0
 30
0.0
  9
$UCSORGLEFT
 10
0.0
 20
0.0
 30
0.0
  9
$UCSORGRIGHT
 10
0.0
 20
0.0
 30
0.0
  9
$UCSORGFRONT
 10
0.0
 20
0.0
 30
0.0
  9
$UCSORGBACK
 10
0.0
 20
0.0
 30
0.0
  9
$PUCSBASE
  2

  9
$PUCSNAME
  2

  9
$PUCSORG
 10
0.0
 20
0.0
 30
0.0
  9
$PUCSXDIR
 10
1.0
 20
0.0
 30
0.0
  9
$PUCSYDIR
 10
0.0
 20
1.0
 30
0.0
  9
$PUCSORTHOREF
  2

  9
$PUCSORTHOVIEW
 70
     0
  9
$PUCSORGTOP
 10
0.0
 20
0.0
 30
0.0
  9
$PUCSORGBOTTOM
 10
0.0
 20
0.0
 30
0.0
  9
$PUCSORGLEFT
 10
0.0
 20
0.0
 30
0.0
  9
$PUCSORGRIGHT
 10
0.0
 20
0.0
 30
0.0
  9
$PUCSORGFRONT
 10
0.0
 20
0.0
 30
0.0
  9
$PUCSORGBACK
 10
0.0
 20
0.0
 30
0.0
  9
$USERI1
 70
     0
  9
$USERI2
 70
     0
  9
$USERI3
 70
     0
  9
$USERI4
 70
     0
  9
$USERI5
 70
     0
  9
$USERR1
 40
14.5
  9
$USERR2
 40
0.0
  9
$USERR3
 40
0.0
  9
$USERR4
 40
0.0
  9
$USERR5
 40
0.0
  9
$WORLDVIEW
 70
     1
  9
$SHADEDGE
 70
     3
  9
$SHADEDIF
 70
    70
  9
$TILEMODE
 70
     1
  9
$MAXACTVP
 70
    64
  9
$PINSBASE
 10
0.0
 20
0.0
 30
0.0
  9
$PLIMCHECK
 70
     0
  9
$PEXTMIN
 10
1.00000000000000E+20
 20
1.00000000000000E+20
 30
1.00000000000000E+20
  9
$PEXTMAX
 10
-1.00000000000000E+20
 20
-1.00000000000000E+20
 30
-1.00000000000000E+20
  9
$PLIMMIN
 10
0.0
 20
0.0
  9
$PLIMMAX
 10
12.0
 20
9.0
  9
$UNITMODE
 70
     0
  9
$VISRETAIN
 70
     1
  9
$PLINEGEN
 70
     0
  9
$PSLTSCALE
 70
     1
  9
$TREEDEPTH
 70
  3020
  9
$CMLSTYLE
  2
Standard
  9
$CMLJUST
 70
     0
  9
$CMLSCALE
 40
1.0
  9
$PROXYGRAPHICS
 70
     1
  9
$MEASUREMENT
 70
     1
  9
$CELWEIGHT
370
    -1
  9
$ENDCAPS
280
     0
  9
$JOINSTYLE
280
     0
  9
$LWDISPLAY
290
     0
  9
$INSUNITS
 70
     1
  9
$HYPERLINKBASE
  1

  9
$STYLESHEET
  1

  9
$XEDIT
290
     1
  9
$CEPSNTYPE
380
     0
  9
$PSTYLEMODE
290
     1
  9
$FINGERPRINTGUID
  2
{6537AD69-0F2C-4C01-A95C-8A5BDC436622}
  9
$VERSIONGUID
  2
{FAEB1C32-E019-11D5-929B-00C0DF256EC4}
  9
$EXTNAMES
290
     1
  9
$PSVPSCALE
 40
0.0
  9
$OLESTARTUP
290
     0
  9
$SORTENTS
280
   127
  9
$INDEXCTL
280
     0
  9
$HIDETEXT
280
     1
  9
$XCLIPFRAME
290
     0
  9
$HALOGAP
280
     0
  9
$OBSCOLOR
 70
   257
  9
$OBSLTYPE
280
     0
  9
$INTERSECTIONDISPLAY
280
     0
  9
$INTERSECTIONCOLOR
 70
   257
  9
$DIMASSOC
280
     2
  9
$PROJECTNAME
  1

  0
ENDSEC
  0
SECTION
  2
CLASSES
  0
CLASS
  1
ACDBDICTIONARYWDFLT
  2
AcDbDictionaryWithDefault
  3
ObjectDBX Classes
 90
        0
 91
        3
280
     0
281
     0
  0
CLASS
  1

  2
exOdDbCircle
  3

 90
        0
 91
        3
280
     0
281
     1
  0
ENDSEC
  0
SECTION
  2
TABLES
  0
TABLE
  2
VPORT
  5
8
330
0
100
AcDbSymbolTable
 70
     1
  0
VPORT
  5
29
330
8
100
AcDbSymbolTableRecord
100
AcDbViewportTableRecord
  2
*Active
 70
     0
 10
0.0
 20
0.0
 11
1.0
 21
1.0
 12
554.0563369722242
 22
-66.76526852441229
 13
0.0
 23
0.0
 14
0.5
 24
0.5
 15
0.5
 25
0.5
 16
0.0
 26
0.0
 36
1.0
 17
0.0
 27
0.0
 37
0.0
 40
133.1053437864936
 41
1.60267857142857
 42
50.0
 43
0.0
 44
0.0
 50
0.0
 51
0.0
 71
     0
 72
   100
 73
     1
 74
     3
 75
     0
 76
     0
 77
     0
 78
     0
281
     0
 65
     1
110
0.0
120
0.0
130
0.0
111
1.0
121
0.0
131
0.0
112
0.0
122
1.0
132
0.0
 79
     0
146
0.0
  0
ENDTAB
  0
TABLE
  2
LTYPE
  5
5
330
0
100
AcDbSymbolTable
 70
     8
  0
LTYPE
  5
14
330
5
100
AcDbSymbolTableRecord
100
AcDbLinetypeTableRecord
  2
ByBlock
 70
     0
  3

 72
    65
 73
     0
 40
0.0
  0
LTYPE
  5
15
330
5
100
AcDbSymbolTableRecord
100
AcDbLinetypeTableRecord
  2
ByLayer
 70
     0
  3

 72
    65
 73
     0
 40
0.0
  0
LTYPE
  5
16
330
5
100
AcDbSymbolTableRecord
100
AcDbLinetypeTableRecord
  2
Continuous
 70
     0
  3
Solid line
 72
    65
 73
     0
 40
0.0
  0
LTYPE
  5
2A
330
5
100
AcDbSymbolTableRecord
100
AcDbLinetypeTableRecord
  2
DASHED
 70
     0
  3
Dashed
 72
    65
 73
     2
 40
15.0
 49
7.0
 74
     0
 49
-8.0
 74
     0
  0
LTYPE
  5
2B
330
5
100
AcDbSymbolTableRecord
100
AcDbLinetypeTableRecord
  2
DOTTED
 70
     0
  3
Dotted
 72
    65
 73
     2
 40
1.0
 49
0.0
 74
     0
 49
-1.0
 74
     0
  0
LTYPE
  5
2C
330
5
100
AcDbSymbolTableRecord
100
AcDbLinetypeTableRecord
  2
DOT_CENTER
 70
     0
  3
Dot_Center
 72
    65
 73
     4
 40
14.0
 49
12.0
 74
     0
 49
-1.0
 74
     0
 49
0.0
 74
     0
 49
-1.0
 74
     0
  0
LTYPE
  5
2D
330
5
100
AcDbSymbolTableRecord
100
AcDbLinetypeTableRecord
  2
LONG_DASHED
 70
     0
  3
Long_Dashed
 72
    65
 73
     2
 40
15.0
 49
10.0
 74
     0
 49
-5.0
 74
     0
  0
LTYPE
  5
2E
330
5
100
AcDbSymbolTableRecord
100
AcDbLinetypeTableRecord
  2
DASH_CENTER
 70
     0
  3
Dash_Center
 72
    65
 73
     4
 40
14.0
 49
11.0
 74
     0
 49
-1.0
 74
     0
 49
1.0
 74
     0
 49
-1.0
 74
     0
  0
LTYPE
  5
2F
330
5
100
AcDbSymbolTableRecord
100
AcDbLinetypeTableRecord
  2
PHANTOM
 70
     0
  3
Phantom
 72
    65
 73
     6
 40
13.0
 49
10.0
 74
     0
 49
-1.0
 74
     0
 49
0.0
 74
     0
 49
-1.0
 74
     0
 49
0.0
 74
     0
 49
-1.0
 74
     0
  0
LTYPE
  5
30
330
5
100
AcDbSymbolTableRecord
100
AcDbLinetypeTableRecord
  2
CENTER_DASH_DASH
 70
     0
  3
Center_Dash_Dash
 72
    65
 73
     6
 40
14.0
 49
9.0
 74
     0
 49
-1.0
 74
     0
 49
1.0
 74
     0
 49
-1.0
 74
     0
 49
1.0
 74
     0
 49
-1.0
 74
     0
  0
ENDTAB
  0
TABLE
  2
LAYER
  5
2
330
0
100
AcDbSymbolTable
 70
     2
  0
LAYER
  5
10
330
2
100
AcDbSymbolTableRecord
100
AcDbLayerTableRecord
  2
0
 70
     0
 62
     7
  6
Continuous
370
    -3
390
F
  0
LAYER
  5
31
330
2
100
AcDbSymbolTableRecord
100
AcDbLayerTableRecord
  2
1
 70
     0
 62
     7
  6
Continuous
370
    -3
390
F
  0
ENDTAB
  0
TABLE
  2
STYLE
  5
3
330
0
100
AcDbSymbolTable
 70
     2
  0
STYLE
  5
11
330
3
100
AcDbSymbolTableRecord
100
AcDbTextStyleTableRecord
  2
Standard
 70
     0
 40
0.0
 41
1.0
 50
0.0
 71
     0
 42
0.2
  3
txt
  4

  0
STYLE
  5
129
330
3
100
AcDbSymbolTableRecord
100
AcDbTextStyleTableRecord
  2
CONVERTER_11
 70
     0
 40
0.0
 41
0.9
 50
0.0
 71
     0
 42
0.2
  3
txt.shx
  4

  0
ENDTAB
  0
TABLE
  2
VIEW
  5
6
330
0
100
AcDbSymbolTable
 70
     0
  0
ENDTAB
  0
TABLE
  2
UCS
  5
7
330
0
100
AcDbSymbolTable
 70
     0
  0
ENDTAB
  0
TABLE
  2
APPID
  5
9
330
0
100
AcDbSymbolTable
 70
     1
  0
APPID
  5
12
330
9
100
AcDbSymbolTableRecord
100
AcDbRegAppTableRecord
  2
ACAD
 70
     0
  0
ENDTAB
  0
TABLE
  2
DIMSTYLE
  5
A
330
0
100
AcDbSymbolTable
 70
     9
100
AcDbDimStyleTable
  0
DIMSTYLE
105
27
330
A
100
AcDbSymbolTableRecord
100
AcDbDimStyleTableRecord
  2
Standard
 70
     0
340
11
  0
DIMSTYLE
105
12D
102
{ACAD_REACTORS
330
12E
102
}
330
A
100
AcDbSymbolTableRecord
100
AcDbDimStyleTableRecord
  2
ME10_DIM_10
 70
     0
 41
3.5
 42
0.0
 44
2.0
 73
     0
 74
     0
 77
     1
 78
     8
140
3.5
147
2.0
172
     1
173
     1
176
     2
177
     2
178
     2
271
     3
340
129
  0
DIMSTYLE
105
13A
102
{ACAD_REACTORS
330
13B
102
}
330
A
100
AcDbSymbolTableRecord
100
AcDbDimStyleTableRecord
  2
ME10_DIM_11
 70
     0
 41
3.5
 42
0.0
 44
2.0
 73
     0
 74
     0
 77
     1
 78
     8
140
3.5
147
2.0
172
     1
173
     1
176
     2
177
     2
178
     2
271
     3
340
129
  0
DIMSTYLE
105
145
102
{ACAD_REACTORS
330
146
102
}
330
A
100
AcDbSymbolTableRecord
100
AcDbDimStyleTableRecord
  2
ME10_DIM_12
 70
     0
 41
3.5
 42
0.0
 44
2.0
 73
     0
 74
     0
 77
     1
 78
     8
140
3.5
147
2.0
172
     1
173
     1
176
     2
177
     2
178
     2
271
     3
340
129
  0
DIMSTYLE
105
150
102
{ACAD_REACTORS
330
151
102
}
330
A
100
AcDbSymbolTableRecord
100
AcDbDimStyleTableRecord
  2
ME10_DIM_13
 70
     0
 41
3.5
 42
0.0
 44
2.0
 73
     0
 74
     0
 77
     1
 78
     8
140
3.5
147
2.0
172
     1
173
     1
176
     2
177
     2
178
     2
271
     3
340
129
  0
DIMSTYLE
105
15B
102
{ACAD_REACTORS
330
15C
102
}
330
A
100
AcDbSymbolTableRecord
100
AcDbDimStyleTableRecord
  2
ME10_DIM_14
 70
     0
 41
3.5
 42
0.0
 44
2.0
 73
     0
 74
     0
 77
     1
 78
     8
140
3.5
147
2.0
172
     1
173
     1
176
     2
177
     2
178
     2
271
     3
340
129
  0
DIMSTYLE
105
168
102
{ACAD_REACTORS
330
169
102
}
330
A
100
AcDbSymbolTableRecord
100
AcDbDimStyleTableRecord
  2
ME10_DIM_15
 70
     0
 41
3.5
 42
0.0
 44
2.0
 73
     0
 74
     0
 77
     1
 78
     8
140
3.5
147
2.0
172
     1
173
     1
176
     2
177
     2
178
     2
271
     3
340
129
  0
DIMSTYLE
105
175
102
{ACAD_REACTORS
330
176
102
}
330
A
100
AcDbSymbolTableRecord
100
AcDbDimStyleTableRecord
  2
ME10_DIM_16
 70
     0
 41
3.5
 42
0.0
 44
2.0
 73
     0
 74
     0
 77
     1
 78
     8
140
3.5
147
2.0
172
     1
173
     1
176
     2
177
     2
178
     2
271
     3
340
129
  0
DIMSTYLE
105
180
102
{ACAD_REACTORS
330
181
102
}
330
A
100
AcDbSymbolTableRecord
100
AcDbDimStyleTableRecord
  2
ME10_DIM_17
 70
     0
 41
3.5
 42
0.0
 44
2.0
 73
     0
 74
     0
 77
     1
 78
     8
140
3.5
147
2.0
172
     1
173
     1
176
     2
177
     2
178
     2
271
     3
340
129
  0
ENDTAB
  0
TABLE
  2
BLOCK_RECORD
  5
1
330
0
100
AcDbSymbolTable
 70
     9
  0
BLOCK_RECORD
  5
1F
330
1
100
AcDbSymbolTableRecord
100
AcDbBlockTableRecord
  2
*Model_Space
340
22
  0
BLOCK_RECORD
  5
1B
330
1
100
AcDbSymbolTableRecord
100
AcDbBlockTableRecord
  2
*Paper_Space
340
1E
  0
BLOCK_RECORD
  5
23
330
1
100
AcDbSymbolTableRecord
100
AcDbBlockTableRecord
  2
*Paper_Space0
340
26
  0
BLOCK_RECORD
  5
123
330
1
100
AcDbSymbolTableRecord
100
AcDbBlockTableRecord
  2
*D1
340
0
  0
BLOCK_RECORD
  5
12F
330
1
100
AcDbSymbolTableRecord
100
AcDbBlockTableRecord
  2
*D2
340
0
  0
BLOCK_RECORD
  5
13C
330
1
100
AcDbSymbolTableRecord
100
AcDbBlockTableRecord
  2
*D3
340
0
  0
BLOCK_RECORD
  5
147
330
1
100
AcDbSymbolTableRecord
100
AcDbBlockTableRecord
  2
*D4
340
0
  0
BLOCK_RECORD
  5
152
330
1
100
AcDbSymbolTableRecord
100
AcDbBlockTableRecord
  2
*D5
340
0
  0
BLOCK_RECORD
  5
15D
330
1
100
AcDbSymbolTableRecord
100
AcDbBlockTableRecord
  2
*D6
340
0
  0
BLOCK_RECORD
  5
16A
330
1
100
AcDbSymbolTableRecord
100
AcDbBlockTableRecord
  2
*D7
340
0
  0
BLOCK_RECORD
  5
177
330
1
100
AcDbSymbolTableRecord
100
AcDbBlockTableRecord
  2
*D8
340
0
  0
ENDTAB
  0
ENDSEC
  0
SECTION
  2
BLOCKS
  0
BLOCK
  5
20
330
1F
100
AcDbEntity
  8
0
100
AcDbBlockBegin
  2
*Model_Space
 70
     0
 71
     0
 10
0.0
 20
0.0
 30
0.0
  3
*Model_Space
  1

  0
ENDBLK
  5
21
330
1F
100
AcDbEntity
  8
0
100
AcDbBlockEnd
  0
BLOCK
  5
1C
330
1B
100
AcDbEntity
 67
     1
  8
0
100
AcDbBlockBegin
  2
*Paper_Space
 70
     0
 71
     0
 10
0.0
 20
0.0
 30
0.0
  3
*Paper_Space
  1

  0
ENDBLK
  5
1D
330
1B
100
AcDbEntity
 67
     1
  8
0
100
AcDbBlockEnd
  0
BLOCK
  5
24
330
23
100
AcDbEntity
  8
0
100
AcDbBlockBegin
  2
*Paper_Space0
 70
     0
 71
     0
 10
0.0
 20
0.0
 30
0.0
  3
*Paper_Space0
  1

  0
ENDBLK
  5
25
330
23
100
AcDbEntity
  8
0
100
AcDbBlockEnd
  0
BLOCK
  5
12B
330
123
100
AcDbEntity
  8
0
100
AcDbBlockBegin
  2
*D1
 70
     1
 71
     0
 10
0.0
 20
0.0
 30
0.0
  3
*D1
  1

  0
LINE
  5
124
330
123
100
AcDbEntity
  8
1
  6
Continuous
 62
     2
100
AcDbLine
 10
558.5563190210529
 20
-125.267697518273
 30
0.0
 11
595.0563190210523
 21
-125.267697518273
 31
0.0
  0
LINE
  5
125
330
123
100
AcDbEntity
  8
1
  6
Continuous
 62
     2
100
AcDbLine
 10
558.5563190210529
 20
-103.3283562948743
 30
0.0
 11
558.5563190210529
 21
-127.267697518273
 31
0.0
  0
LINE
  5
126
330
123
100
AcDbEntity
  8
1
  6
Continuous
 62
     2
100
AcDbLine
 10
595.0563190210523
 20
-99.32835629486274
 30
0.0
 11
595.0563190210523
 21
-127.267697518273
 31
0.0
  0
SOLID
  5
127
330
123
100
AcDbEntity
  8
1
 62
     2
100
AcDbTrace
 10
562.0563190210529
 20
-124.8069137767171
 30
0.0
 11
562.0563190210529
 21
-125.7284812598289
 31
0.0
 12
558.5563190210529
 22
-125.267697518273
 32
0.0
 13
558.5563190210529
 23
-125.267697518273
 33
0.0
  0
SOLID
  5
128
330
123
100
AcDbEntity
  8
1
 62
     2
100
AcDbTrace
 10
591.5563190210523
 20
-125.7284812598289
 30
0.0
 11
591.5563190210523
 21
-124.8069137767171
 31
0.0
 12
595.0563190210523
 22
-125.267697518273
 32
0.0
 13
595.0563190210523
 23
-125.267697518273
 33
0.0
  0
MTEXT
  5
12A
330
123
100
AcDbEntity
  8
1
 62
     2
100
AcDbMText
 10
573.269528134825
 20
-123.267697518273
 30
0.0
 40
3.5
 41
0.0
 71
     7
 72
     1
  1
36.5
  7
CONVERTER_11
 11
0.9999999999970621
 21
2.424068405545307E-6
 31
0.0
 73
     1
 44
0.60024009603842
  0
ENDBLK
  5
12C
330
123
100
AcDbEntity
  8
0
100
AcDbBlockEnd
  0
BLOCK
  5
138
330
12F
100
AcDbEntity
  8
0
100
AcDbBlockBegin
  2
*D2
 70
     1
 71
     0
 10
0.0
 20
0.0
 30
0.0
  3
*D2
  1

  0
LINE
  5
130
330
12F
100
AcDbEntity
  8
1
  6
Continuous
 62
     2
100
AcDbLine
 10
621.937248201244
 20
-110.3283562948743
 30
0.0
 11
621.937248201244
 21
-103.3283562948743
 31
0.0
  0
LINE
  5
131
330
12F
100
AcDbEntity
  8
1
  6
Continuous
 62
     2
100
AcDbLine
 10
621.937248201244
 20
-103.3283562948743
 30
0.0
 11
621.937248201244
 21
-99.32835629486274
 31
0.0
  0
LINE
  5
132
330
12F
100
AcDbEntity
  8
1
  6
Continuous
 62
     2
100
AcDbLine
 10
621.937248201244
 20
-99.32835629486274
 30
0.0
 11
621.937248201244
 21
-92.32835629486274
 31
0.0
  0
LINE
  5
133
330
12F
100
AcDbEntity
  8
1
  6
Continuous
 62
     2
100
AcDbLine
 10
595.0563190210523
 20
-99.32835629486274
 30
0.0
 11
623.937248201244
 21
-99.32835629486274
 31
0.0
  0
LINE
  5
134
330
12F
100
AcDbEntity
  8
1
  6
Continuous
 62
     2
100
AcDbLine
 10
613.5563190210523
 20
-103.3283562948743
 30
0.0
 11
623.937248201244
 21
-103.3283562948743
 31
0.0
  0
SOLID
  5
135
330
12F
100
AcDbEntity
  8
1
 62
     2
100
AcDbTrace
 10
622.3980319427999
 20
-106.8283562948743
 30
0.0
 11
621.476464459688
 21
-106.8283562948743
 31
0.0
 12
621.937248201244
 22
-103.3283562948743
 32
0.0
 13
621.937248201244
 23
-103.3283562948743
 33
0.0
  0
SOLID
  5
136
330
12F
100
AcDbEntity
  8
1
 62
     2
100
AcDbTrace
 10
621.476464459688
 20
-95.82835629486274
 30
0.0
 11
622.3980319427999
 21
-95.82835629486274
 31
0.0
 12
621.937248201244
 22
-99.32835629486274
 32
0.0
 13
621.937248201244
 23
-99.32835629486274
 33
0.0
  0
MTEXT
  5
137
330
12F
100
AcDbEntity
  8
1
 62
     2
100
AcDbMText
 10
619.937248201244
 20
-108.295472278715
 30
0.0
 40
3.5
 41
0.0
 71
     7
 72
     1
  1
4
  7
CONVERTER_11
 11
0.0
 21
1.0
 31
0.0
 73
     1
 44
0.60024009603842
  0
ENDBLK
  5
139
330
12F
100
AcDbEntity
  8
0
100
AcDbBlockEnd
  0
BLOCK
  5
143
330
13C
100
AcDbEntity
  8
0
100
AcDbBlockBegin
  2
*D3
 70
     1
 71
     0
 10
0.0
 20
0.0
 30
0.0
  3
*D3
  1

  0
LINE
  5
13D
330
13C
100
AcDbEntity
  8
1
  6
Continuous
 62
     2
100
AcDbLine
 10
621.937248201244
 20
-99.32835629486274
 30
0.0
 11
621.937248201244
 21
-67.32835629487424
 31
0.0
  0
LINE
  5
13E
330
13C
100
AcDbEntity
  8
1
  6
Continuous
 62
     2
100
AcDbLine
 10
595.0563190210523
 20
-67.32835629487424
 30
0.0
 11
623.937248201244
 21
-67.32835629487424
 31
0.0
  0
LINE
  5
13F
330
13C
100
AcDbEntity
  8
1
  6
Continuous
 62
     2
100
AcDbLine
 10
595.0563190210523
 20
-99.32835629486274
 30
0.0
 11
623.937248201244
 21
-99.32835629486274
 31
0.0
  0
SOLID
  5
140
330
13C
100
AcDbEntity
  8
1
 62
     2
100
AcDbTrace
 10
621.476464459688
 20
-95.82835629486274
 30
0.0
 11
622.3980319427999
 21
-95.82835629486274
 31
0.0
 12
621.937248201244
 22
-99.32835629486274
 32
0.0
 13
621.937248201244
 23
-99.32835629486274
 33
0.0
  0
SOLID
  5
141
330
13C
100
AcDbEntity
  8
1
 62
     2
100
AcDbTrace
 10
622.3980319427999
 20
-70.82835629487424
 30
0.0
 11
621.476464459688
 21
-70.82835629487424
 31
0.0
 12
621.937248201244
 22
-67.32835629487424
 32
0.0
 13
621.937248201244
 23
-67.32835629487424
 33
0.0
  0
MTEXT
  5
142
330
13C
100
AcDbEntity
  8
1
 62
     2
100
AcDbMText
 10
619.937248201244
 20
-85.95335629486848
 30
0.0
 40
3.5
 41
0.0
 71
     7
 72
     1
  1
32
  7
CONVERTER_11
 11
0.0
 21
1.0
 31
0.0
 73
     1
 44
0.60024009603842
  0
ENDBLK
  5
144
330
13C
100
AcDbEntity
  8
0
100
AcDbBlockEnd
  0
BLOCK
  5
14E
330
147
100
AcDbEntity
  8
0
100
AcDbBlockBegin
  2
*D4
 70
     1
 71
     0
 10
0.0
 20
0.0
 30
0.0
  3
*D4
  1

  0
LINE
  5
148
330
147
100
AcDbEntity
  8
1
  6
Continuous
 62
     2
100
AcDbLine
 10
519.5563190210523
 20
-114.330104344032
 30
0.0
 11
555.0563190210523
 21
-114.330104344032
 31
0.0
  0
LINE
  5
149
330
147
100
AcDbEntity
  8
1
  6
Continuous
 62
     2
100
AcDbLine
 10
555.0563190210523
 20
-103.3283562948743
 30
0.0
 11
555.0563190210523
 21
-116.330104344032
 31
0.0
  0
LINE
  5
14A
330
147
100
AcDbEntity
  8
1
  6
Continuous
 62
     2
100
AcDbLine
 10
519.5563190210523
 20
-99.32835629487428
 30
0.0
 11
519.5563190210523
 21
-116.330104344032
 31
0.0
  0
SOLID
  5
14B
330
147
100
AcDbEntity
  8
1
 62
     2
100
AcDbTrace
 10
523.0563190210523
 20
-113.8693206024761
 30
0.0
 11
523.0563190210523
 21
-114.7908880855879
 31
0.0
 12
519.5563190210523
 22
-114.330104344032
 32
0.0
 13
519.5563190210523
 23
-114.330104344032
 33
0.0
  0
SOLID
  5
14C
330
147
100
AcDbEntity
  8
1
 62
     2
100
AcDbTrace
 10
551.5563190210523
 20
-114.7908880855879
 30
0.0
 11
551.5563190210523
 21
-113.8693206024761
 31
0.0
 12
555.0563190210523
 22
-114.330104344032
 32
0.0
 13
555.0563190210523
 23
-114.330104344032
 33
0.0
  0
MTEXT
  5
14D
330
147
100
AcDbEntity
  8
1
 62
     2
100
AcDbMText
 10
531.2518256149958
 20
-112.330104344032
 30
0.0
 40
3.5
 41
0.0
 71
     7
 72
     1
  1
35.5
  7
CONVERTER_11
 11
0.9999999999970621
 21
2.424068405545307E-6
 31
0.0
 73
     1
 44
0.60024009603842
  0
ENDBLK
  5
14F
330
147
100
AcDbEntity
  8
0
100
AcDbBlockEnd
  0
BLOCK
  5
159
330
152
100
AcDbEntity
  8
0
100
AcDbBlockBegin
  2
*D5
 70
     1
 71
     0
 10
0.0
 20
0.0
 30
0.0
  3
*D5
  1

  0
LINE
  5
153
330
152
100
AcDbEntity
  8
1
  6
Continuous
 62
     2
100
AcDbLine
 10
558.5563190210529
 20
-114.330104344032
 30
0.0
 11
593.5563190210523
 21
-114.330104344032
 31
0.0
  0
LINE
  5
154
330
152
100
AcDbEntity
  8
1
  6
Continuous
 62
     2
100
AcDbLine
 10
593.5563190210523
 20
-96.7595586758166
 30
0.0
 11
593.5563190210523
 21
-116.330104344032
 31
0.0
  0
LINE
  5
155
330
152
100
AcDbEntity
  8
1
  6
Continuous
 62
     2
100
AcDbLine
 10
558.5563190210529
 20
-103.3283562948743
 30
0.0
 11
558.5563190210529
 21
-116.330104344032
 31
0.0
  0
SOLID
  5
156
330
152
100
AcDbEntity
  8
1
 62
     2
100
AcDbTrace
 10
562.0563190210529
 20
-113.8693206024761
 30
0.0
 11
562.0563190210529
 21
-114.7908880855879
 31
0.0
 12
558.5563190210529
 22
-114.330104344032
 32
0.0
 13
558.5563190210529
 23
-114.330104344032
 33
0.0
  0
SOLID
  5
157
330
152
100
AcDbEntity
  8
1
 62
     2
100
AcDbTrace
 10
590.0563190210523
 20
-114.7908880855879
 30
0.0
 11
590.0563190210523
 21
-113.8693206024761
 31
0.0
 12
593.5563190210523
 22
-114.330104344032
 32
0.0
 13
593.5563190210523
 23
-114.330104344032
 33
0.0
  0
MTEXT
  5
158
330
152
100
AcDbEntity
  8
1
 62
     2
100
AcDbMText
 10
573.4313190210526
 20
-112.330104344032
 30
0.0
 40
3.5
 41
0.0
 71
     7
 72
     1
  1
35
  7
CONVERTER_11
 11
0.9999999999970621
 21
2.424068405545307E-6
 31
0.0
 73
     1
 44
0.60024009603842
  0
ENDBLK
  5
15A
330
152
100
AcDbEntity
  8
0
100
AcDbBlockEnd
  0
BLOCK
  5
166
330
15D
100
AcDbEntity
  8
0
100
AcDbBlockBegin
  2
*D6
 70
     1
 71
     0
 10
0.0
 20
0.0
 30
0.0
  3
*D6
  1

  0
LINE
  5
15E
330
15D
100
AcDbEntity
  8
1
  6
Continuous
 62
     2
100
AcDbLine
 10
548.0563190210523
 20
-114.330104344032
 30
0.0
 11
555.0563190210523
 21
-114.330104344032
 31
0.0
  0
LINE
  5
15F
330
15D
100
AcDbEntity
  8
1
  6
Continuous
 62
     2
100
AcDbLine
 10
555.0563190210523
 20
-114.330104344032
 30
0.0
 11
558.5563190210529
 21
-114.330104344032
 31
0.0
  0
LINE
  5
160
330
15D
100
AcDbEntity
  8
1
  6
Continuous
 62
     2
100
AcDbLine
 10
558.5563190210529
 20
-114.330104344032
 30
0.0
 11
565.5563190210529
 21
-114.330104344032
 31
0.0
  0
LINE
  5
161
330
15D
100
AcDbEntity
  8
1
  6
Continuous
 62
     2
100
AcDbLine
 10
558.5563190210529
 20
-103.3283562948743
 30
0.0
 11
558.5563190210529
 21
-116.330104344032
 31
0.0
  0
LINE
  5
162
330
15D
100
AcDbEntity
  8
1
  6
Continuous
 62
     2
100
AcDbLine
 10
555.0563190210523
 20
-103.3283562948743
 30
0.0
 11
555.0563190210523
 21
-116.330104344032
 31
0.0
  0
SOLID
  5
163
330
15D
100
AcDbEntity
  8
1
 62
     2
100
AcDbTrace
 10
551.5563190210523
 20
-114.7908880855879
 30
0.0
 11
551.5563190210523
 21
-113.8693206024761
 31
0.0
 12
555.0563190210523
 22
-114.330104344032
 32
0.0
 13
555.0563190210523
 23
-114.330104344032
 33
0.0
  0
SOLID
  5
164
330
15D
100
AcDbEntity
  8
1
 62
     2
100
AcDbTrace
 10
562.0563190210529
 20
-113.8693206024761
 30
0.0
 11
562.0563190210529
 21
-114.7908880855879
 31
0.0
 12
558.5563190210529
 22
-114.330104344032
 32
0.0
 13
558.5563190210529
 23
-114.330104344032
 33
0.0
  0
MTEXT
  5
165
330
15D
100
AcDbEntity
  8
1
 62
     2
100
AcDbMText
 10
551.4820545922906
 20
-119.670744476847
 30
0.0
 40
3.5
 41
0.0
 71
     7
 72
     1
  1
3.5
  7
CONVERTER_11
 11
0.9999999999970621
 21
2.424068405545307E-6
 31
0.0
 73
     1
 44
0.60024009603842
  0
ENDBLK
  5
167
330
15D
100
AcDbEntity
  8
0
100
AcDbBlockEnd
  0
BLOCK
  5
173
330
16A
100
AcDbEntity
  8
0
100
AcDbBlockBegin
  2
*D7
 70
     1
 71
     0
 10
0.0
 20
0.0
 30
0.0
  3
*D7
  1

  0
LINE
  5
16B
330
16A
100
AcDbEntity
  8
1
  6
Continuous
 62
     2
100
AcDbLine
 10
489.6754257432044
 20
-110.3283562948743
 30
0.0
 11
489.6754257432044
 21
-103.3283562948743
 31
0.0
  0
LINE
  5
16C
330
16A
100
AcDbEntity
  8
1
  6
Continuous
 62
     2
100
AcDbLine
 10
489.6754257432044
 20
-103.3283562948743
 30
0.0
 11
489.6754257432044
 21
-99.32835629487434
 31
0.0
  0
LINE
  5
16D
330
16A
100
AcDbEntity
  8
1
  6
Continuous
 62
     2
100
AcDbLine
 10
489.6754257432044
 20
-99.32835629487434
 30
0.0
 11
489.6754257432044
 21
-92.32835629487434
 31
0.0
  0
LINE
  5
16E
330
16A
100
AcDbEntity
  8
1
  6
Continuous
 62
     2
100
AcDbLine
 10
519.5563190210526
 20
-99.32835629487434
 30
0.0
 11
487.6754257432044
 21
-99.32835629487434
 31
0.0
  0
LINE
  5
16F
330
16A
100
AcDbEntity
  8
1
  6
Continuous
 62
     2
100
AcDbLine
 10
499.0563190210527
 20
-103.3283562948743
 30
0.0
 11
487.6754257432044
 21
-103.3283562948743
 31
0.0
  0
SOLID
  5
170
330
16A
100
AcDbEntity
  8
1
 62
     2
100
AcDbTrace
 10
490.1362094847603
 20
-106.8283562948743
 30
0.0
 11
489.2146420016485
 21
-106.8283562948743
 31
0.0
 12
489.6754257432044
 22
-103.3283562948743
 32
0.0
 13
489.6754257432044
 23
-103.3283562948743
 33
0.0
  0
SOLID
  5
171
330
16A
100
AcDbEntity
  8
1
 62
     2
100
AcDbTrace
 10
489.2146420016485
 20
-95.82835629487434
 30
0.0
 11
490.1362094847603
 21
-95.82835629487434
 31
0.0
 12
489.6754257432044
 22
-99.32835629487434
 32
0.0
 13
489.6754257432044
 23
-99.32835629487434
 33
0.0
  0
MTEXT
  5
172
330
16A
100
AcDbEntity
  8
1
 62
     2
100
AcDbMText
 10
487.6754257432044
 20
-107.8027014832317
 30
0.0
 40
3.5
 41
0.0
 71
     7
 72
     1
  1
4
  7
CONVERTER_11
 11
0.0
 21
1.0
 31
0.0
 73
     1
 44
0.60024009603842
  0
ENDBLK
  5
174
330
16A
100
AcDbEntity
  8
0
100
AcDbBlockEnd
  0
BLOCK
  5
17E
330
177
100
AcDbEntity
  8
0
100
AcDbBlockBegin
  2
*D8
 70
     1
 71
     0
 10
0.0
 20
0.0
 30
0.0
  3
*D8
  1

  0
LINE
  5
178
330
177
100
AcDbEntity
  8
1
  6
Continuous
 62
     2
100
AcDbLine
 10
489.6754257432044
 20
-99.32835629487434
 30
0.0
 11
489.6754257432044
 21
-67.32835629487457
 31
0.0
  0
LINE
  5
179
330
177
100
AcDbEntity
  8
1
  6
Continuous
 62
     2
100
AcDbLine
 10
519.5563190210526
 20
-67.32835629487457
 30
0.0
 11
487.6754257432044
 21
-67.32835629487457
 31
0.0
  0
LINE
  5
17A
330
177
100
AcDbEntity
  8
1
  6
Continuous
 62
     2
100
AcDbLine
 10
519.5563190210526
 20
-99.32835629487434
 30
0.0
 11
487.6754257432044
 21
-99.32835629487434
 31
0.0
  0
SOLID
  5
17B
330
177
100
AcDbEntity
  8
1
 62
     2
100
AcDbTrace
 10
489.2146420016485
 20
-95.82835629487434
 30
0.0
 11
490.1362094847603
 21
-95.82835629487434
 31
0.0
 12
489.6754257432044
 22
-99.32835629487434
 32
0.0
 13
489.6754257432044
 23
-99.32835629487434
 33
0.0
  0
SOLID
  5
17C
330
177
100
AcDbEntity
  8
1
 62
     2
100
AcDbTrace
 10
490.1362094847603
 20
-70.82835629487457
 30
0.0
 11
489.2146420016485
 21
-70.82835629487457
 31
0.0
 12
489.6754257432044
 22
-67.32835629487457
 32
0.0
 13
489.6754257432044
 23
-67.32835629487457
 33
0.0
  0
MTEXT
  5
17D
330
177
100
AcDbEntity
  8
1
 62
     2
100
AcDbMText
 10
487.6754257432044
 20
-87.95335629487445
 30
0.0
 40
3.5
 41
0.0
 71
     7
 72
     1
  1
32
  7
CONVERTER_11
 11
0.0
 21
1.0
 31
0.0
 73
     1
 44
0.60024009603842
  0
ENDBLK
  5
17F
330
177
100
AcDbEntity
  8
0
100
AcDbBlockEnd
  0
ENDSEC
  0
SECTION
  2
ENTITIES
  0
LINE
  5
32
330
1F
100
AcDbEntity
  8
1
  6
Continuous
 62
     7
100
AcDbLine
 10
545.0563190210526
 20
-67.32835629487428
 30
0.0
 11
547.0563190210526
 21
-67.32835629487427
 31
0.0
  0
LINE
  5
33
330
1F
100
AcDbEntity
  8
1
  6
DOT_CENTER
 62
     2
100
AcDbLine
 10
545.0563190210526
 20
-6.2628395305516
 30
0.0
 11
542.149734164275
 21
-6.26283953055159
 31
0.0
  0
LINE
  5
34
330
1F
100
AcDbEntity
  8
1
  6
Continuous
 62
     7
100
AcDbLine
 10
545.0563190210526
 20
-67.32835629487428
 30
0.0
 11
545.0563190210526
 21
-6.2628395305516
 31
0.0
  0
LINE
  5
35
330
1F
100
AcDbEntity
  8
1
  6
Continuous
 62
     7
100
AcDbLine
 10
499.0563190210526
 20
-85.32835629487438
 30
0.0
 11
499.0563190210527
 21
-103.3283562948743
 31
0.0
  0
LINE
  5
36
330
1F
100
AcDbEntity
  8
1
  6
Continuous
 62
     7
100
AcDbLine
 10
519.5563190210526
 20
-85.32835629487438
 30
0.0
 11
519.5563190210526
 21
-96.75955867582846
 31
0.0
  0
LINE
  5
37
330
1F
100
AcDbEntity
  8
1
  6
Continuous
 62
     7
100
AcDbLine
 10
499.0563190210526
 20
-85.32835629487438
 30
0.0
 11
519.5563190210526
 21
-85.32835629487438
 31
0.0
  0
LINE
  5
38
330
1F
100
AcDbEntity
  8
1
  6
Continuous
 62
     7
100
AcDbLine
 10
555.0563190210526
 20
-99.32835629487433
 30
0.0
 11
555.0563190210526
 21
-80.05979334725019
 31
0.0
  0
LINE
  5
39
330
1F
100
AcDbEntity
  8
1
  6
Continuous
 62
     7
100
AcDbLine
 10
555.0563190210526
 20
-69.14460779607595
 30
0.0
 11
555.0563190210526
 21
-67.32835629487428
 31
0.0
  0
LINE
  5
3A
330
1F
100
AcDbEntity
  8
1
  6
Continuous
 62
     7
100
AcDbLine
 10
542.0563190210527
 20
-98.32911182034465
 30
0.0
 11
528.6475856601774
 21
-98.3313554119988
 31
0.0
  0
LINE
  5
3B
330
1F
100
AcDbEntity
  8
1
  6
Continuous
 62
     7
100
AcDbLine
 10
542.0563190210526
 20
-99.32835629487434
 30
0.0
 11
528.5563190210526
 21
-99.32835629487434
 31
0.0
  0
LINE
  5
3C
330
1F
100
AcDbEntity
  8
1
  6
Continuous
 62
     7
100
AcDbLine
 10
542.0563190210526
 20
-99.32835629487434
 30
0.0
 11
542.0563190210527
 21
-98.32911182034465
 31
0.0
  0
LINE
  5
3D
330
1F
100
AcDbEntity
  8
1
  6
Continuous
 62
     7
100
AcDbLine
 10
528.5563190210526
 20
-99.32835629487434
 30
0.0
 11
519.5563190210526
 21
-99.32835629487434
 31
0.0
  0
LINE
  5
3E
330
1F
100
AcDbEntity
  8
1
  6
Continuous
 62
     7
100
AcDbLine
 10
519.5563190210526
 20
-67.32835629487457
 30
0.0
 11
519.5563190210526
 21
-69.89715391392048
 31
0.0
  0
LINE
  5
3F
330
1F
100
AcDbEntity
  8
1
  6
Continuous
 62
     7
100
AcDbLine
 10
528.5563190210544
 20
-67.32835629487434
 30
0.0
 11
545.0563190210526
 21
-67.32835629487428
 31
0.0
  0
LINE
  5
40
330
1F
100
AcDbEntity
  8
1
  6
Continuous
 62
     7
100
AcDbLine
 10
553.0563190210526
 20
-67.32835629487428
 30
0.0
 11
553.0563190210526
 21
-68.32835629487428
 31
0.0
  0
LINE
  5
41
330
1F
100
AcDbEntity
  8
1
  6
Continuous
 62
     7
100
AcDbLine
 10
553.0563190210526
 20
-67.32835629487428
 30
0.0
 11
555.0563190210526
 21
-67.32835629487428
 31
0.0
  0
LINE
  5
42
330
1F
100
AcDbEntity
  8
1
  6
Continuous
 62
     7
100
AcDbLine
 10
528.626245832995
 20
-68.32835629487445
 30
0.0
 11
547.0563190210526
 21
-68.32835629487427
 31
0.0
  0
LINE
  5
43
330
1F
100
AcDbEntity
  8
1
  6
Continuous
 62
     7
100
AcDbLine
 10
520.9867324705725
 20
-69.40201987954937
 30
0.0
 11
528.626245832995
 21
-68.32835629487445
 31
0.0
  0
LINE
  5
44
330
1F
100
AcDbEntity
  8
1
  6
Continuous
 62
     7
100
AcDbLine
 10
555.0563190210526
 20
-99.32835629487433
 30
0.0
 11
542.0563190210526
 21
-99.32835629487434
 31
0.0
  0
LINE
  5
45
330
1F
100
AcDbEntity
  8
1
  6
Continuous
 62
     7
100
AcDbLine
 10
519.5563190210526
 20
-67.32835629487457
 30
0.0
 11
528.5563190210544
 21
-67.32835629487434
 31
0.0
  0
LINE
  5
46
330
1F
100
AcDbEntity
  8
1
  6
Continuous
 62
     7
100
AcDbLine
 10
555.0563190210526
 20
-58.32835629487428
 30
0.0
 11
555.0563190210526
 21
-67.32835629487428
 31
0.0
  0
LINE
  5
47
330
1F
100
AcDbEntity
  8
1
  6
DOT_CENTER
 62
     2
100
AcDbLine
 10
568.0563190210526
 20
-6.2628395305516
 30
0.0
 11
570.259605952242
 21
-6.26283953055159
 31
0.0
  0
LINE
  5
48
330
1F
100
AcDbEntity
  8
1
  6
DOT_CENTER
 62
     2
100
AcDbLine
 10
568.0563190210526
 20
-6.2628395305516
 30
0.0
 11
545.0563190210526
 21
-6.2628395305516
 31
0.0
  0
LINE
  5
49
330
1F
100
AcDbEntity
  8
1
  6
Continuous
 62
     7
100
AcDbLine
 10
568.0563190210526
 20
-58.32835629487428
 30
0.0
 11
568.0563190210526
 21
-6.2628395305516
 31
0.0
  0
LINE
  5
4A
330
1F
100
AcDbEntity
  8
1
  6
Continuous
 62
     7
100
AcDbLine
 10
555.0563190210526
 20
-60.32835629487428
 30
0.0
 11
556.7883698286214
 21
-63.32835629487428
 31
0.0
  0
LINE
  5
4B
330
1F
100
AcDbEntity
  8
1
  6
Continuous
 62
     7
100
AcDbLine
 10
556.7883698286214
 20
-63.32835629487428
 30
0.0
 11
566.324268213484
 21
-63.32835629487428
 31
0.0
  0
LINE
  5
4C
330
1F
100
AcDbEntity
  8
1
  6
Continuous
 62
     7
100
AcDbLine
 10
566.324268213484
 20
-63.32835629487428
 30
0.0
 11
568.0563190210526
 21
-60.32835629487428
 31
0.0
  0
LINE
  5
4D
330
1F
100
AcDbEntity
  8
1
  6
Continuous
 62
     7
100
AcDbLine
 10
568.0563190210526
 20
-60.32835629487428
 30
0.0
 11
568.0563190210526
 21
-58.32835629487428
 31
0.0
  0
LINE
  5
4E
330
1F
100
AcDbEntity
  8
1
  6
Continuous
 62
     7
100
AcDbLine
 10
556.0563190210526
 20
-59.32835629487428
 30
0.0
 11
567.0563190210526
 21
-59.32835629487428
 31
0.0
  0
LINE
  5
4F
330
1F
100
AcDbEntity
  8
1
  6
Continuous
 62
     7
100
AcDbLine
 10
567.0563190210526
 20
-59.32835629487428
 30
0.0
 11
567.0563190210526
 21
-60.06040710244318
 31
0.0
  0
LINE
  5
50
330
1F
100
AcDbEntity
  8
1
  6
Continuous
 62
     7
100
AcDbLine
 10
567.0563190210526
 20
-60.06040710244318
 30
0.0
 11
565.746917944294
 21
-62.32835629487428
 31
0.0
  0
LINE
  5
51
330
1F
100
AcDbEntity
  8
1
  6
Continuous
 62
     7
100
AcDbLine
 10
565.746917944294
 20
-62.32835629487428
 30
0.0
 11
557.3657200978109
 21
-62.32835629487431
 31
0.0
  0
LINE
  5
52
330
1F
100
AcDbEntity
  8
1
  6
Continuous
 62
     7
100
AcDbLine
 10
557.3657200978109
 20
-62.32835629487431
 30
0.0
 11
556.0563190210526
 21
-60.06040710244318
 31
0.0
  0
LINE
  5
53
330
1F
100
AcDbEntity
  8
1
  6
Continuous
 62
     7
100
AcDbLine
 10
556.0563190210526
 20
-60.06040710244318
 30
0.0
 11
556.0563190210526
 21
-59.32835629487428
 31
0.0
  0
LINE
  5
54
330
1F
100
AcDbEntity
  8
1
  6
Continuous
 62
     7
100
AcDbLine
 10
555.0563190210526
 20
-58.32835629487428
 30
0.0
 11
568.0563190210526
 21
-58.32835629487428
 31
0.0
  0
LINE
  5
55
330
1F
100
AcDbEntity
  8
1
  6
Continuous
 62
     7
100
AcDbLine
 10
542.0563190210526
 20
-103.3283562948743
 30
0.0
 11
555.0563190210526
 21
-103.3283562948743
 31
0.0
  0
LINE
  5
56
330
1F
100
AcDbEntity
  8
1
  6
Continuous
 62
     7
100
AcDbLine
 10
542.0563190210526
 20
-103.3283562948743
 30
0.0
 11
499.0563190210527
 21
-103.3283562948743
 31
0.0
  0
LINE
  5
57
330
1F
100
AcDbEntity
  8
1
  6
Continuous
 62
     7
100
AcDbLine
 10
555.0563190210526
 20
-103.3283562948743
 30
0.0
 11
555.0563190210526
 21
-99.32835629487433
 31
0.0
  0
LINE
  5
58
330
1F
100
AcDbEntity
  8
1
  6
Continuous
 62
     7
100
AcDbLine
 10
547.0563190210526
 20
-68.32835629487427
 30
0.0
 11
547.0563190210526
 21
-67.32835629487427
 31
0.0
  0
LINE
  5
59
330
1F
100
AcDbEntity
  8
1
  6
Continuous
 62
     7
100
AcDbLine
 10
547.0563190210526
 20
-67.32835629487427
 30
0.0
 11
553.0563190210526
 21
-67.32835629487428
 31
0.0
  0
LINE
  5
5A
330
1F
100
AcDbEntity
  8
1
  6
Continuous
 62
     7
100
AcDbLine
 10
547.0563190210526
 20
-68.32835629487427
 30
0.0
 11
553.0563190210526
 21
-68.32835629487428
 31
0.0
  0
LINE
  5
5B
330
1F
100
AcDbEntity
  8
1
  6
Continuous
 62
     7
100
AcDbLine
 10
528.6475856601774
 20
-98.3313554119988
 30
0.0
 11
520.9867324705725
 21
-97.25469271019925
 31
0.0
  0
LINE
  5
5C
330
1F
100
AcDbEntity
  8
1
  6
Continuous
 62
     7
100
AcDbLine
 10
520.5563190210526
 20
-96.75955867582847
 30
0.0
 11
520.5563190210526
 21
-69.89715391392014
 31
0.0
  0
LINE
  5
5D
330
1F
100
AcDbEntity
  8
1
  6
Continuous
 62
     7
100
AcDbLine
 10
520.8475593696124
 20
-68.41175181080813
 30
0.0
 11
528.5563190210544
 21
-67.32835629487434
 31
0.0
  0
LINE
  5
5E
330
1F
100
AcDbEntity
  8
1
  6
Continuous
 62
     7
100
AcDbLine
 10
519.5563190210526
 20
-69.89715391392048
 30
0.0
 11
519.5563190210526
 21
-85.32835629487438
 31
0.0
  0
LINE
  5
5F
330
1F
100
AcDbEntity
  8
1
  6
Continuous
 62
     7
100
AcDbLine
 10
519.5563190210526
 20
-96.75955867582846
 30
0.0
 11
519.5563190210526
 21
-99.32835629487434
 31
0.0
  0
LINE
  5
60
330
1F
100
AcDbEntity
  8
1
  6
Continuous
 62
     7
100
AcDbLine
 10
520.8475593696124
 20
-98.2449607789408
 30
0.0
 11
528.5563190210526
 21
-99.32835629487434
 31
0.0
  0
LINE
  5
61
330
1F
100
AcDbEntity
  8
1
  6
Continuous
 62
     7
100
AcDbLine
 10
533.3418529269865
 20
-74.82835629487428
 30
0.0
 11
545.5309796510338
 21
-74.82835629487428
 31
0.0
  0
LINE
  5
62
330
1F
100
AcDbEntity
  8
1
  6
Continuous
 62
     7
100
AcDbLine
 10
533.1347461457999
 20
-70.32835629487417
 30
0.0
 11
552.4761920021316
 21
-70.32835629487428
 31
0.0
  0
LINE
  5
63
330
1F
100
AcDbEntity
  8
1
  6
Continuous
 62
     7
100
AcDbLine
 10
536.4153257955903
 20
-74.82835629487421
 30
0.0
 11
539.8063190210529
 21
-70.32835629487421
 31
0.0
  0
LINE
  5
64
330
1F
100
AcDbEntity
  8
1
  6
Continuous
 62
     7
100
AcDbLine
 10
523.9778918963075
 20
-76.99992917012796
 30
0.0
 11
528.8921054586807
 21
-72.08571560775508
 31
0.0
  0
LINE
  5
65
330
1F
100
AcDbEntity
  8
1
  6
DASHED
 62
     2
100
AcDbLine
 10
560.3418529269865
 20
-70.29282238894129
 30
0.0
 11
565.471629080463
 21
-75.42259854241786
 31
0.0
  0
LINE
  5
66
330
1F
100
AcDbEntity
  8
1
  6
Continuous
 62
     7
100
AcDbLine
 10
531.0166845667824
 20
-76.32509753033193
 30
0.0
 11
531.9276393646136
 21
-75.41414273250095
 31
0.0
  0
LINE
  5
67
330
1F
100
AcDbEntity
  8
1
  6
Continuous
 62
     7
100
AcDbLine
 10
561.9113805793028
 20
-81.55356299395837
 30
0.0
 11
556.8063190210536
 21
-79.28064314795974
 31
0.0
  0
LINE
  5
68
330
1F
100
AcDbEntity
  8
1
  6
Continuous
 62
     7
100
AcDbLine
 10
569.8063190210524
 20
-89.63325109736762
 30
0.0
 11
569.8063190210524
 21
-92.82835629487417
 31
0.0
  0
LINE
  5
69
330
1F
100
AcDbEntity
  8
1
  6
Continuous
 62
     7
100
AcDbLine
 10
562.8355152579704
 20
-84.38037368922541
 30
0.0
 11
562.8954953857495
 21
-84.25739620282158
 31
0.0
  0
LINE
  5
6A
330
1F
100
AcDbEntity
  8
1
  6
Continuous
 62
     7
100
AcDbLine
 10
562.8355152579704
 20
-84.38037368922541
 30
0.0
 11
569.8063190210524
 21
-89.63325109736762
 31
0.0
  0
LINE
  5
6B
330
1F
100
AcDbEntity
  8
1
  6
Continuous
 62
     7
100
AcDbLine
 10
569.8063190210526
 20
-81.41414273249993
 30
0.0
 11
569.8063190210524
 21
-89.63325109736762
 31
0.0
  0
LINE
  5
6C
330
1F
100
AcDbEntity
  8
1
  6
Continuous
 62
     7
100
AcDbLine
 10
559.8376502779817
 20
-90.5269077742316
 30
0.0
 11
562.8355152579704
 21
-84.38037368922541
 31
0.0
  0
LINE
  5
6D
330
1F
100
AcDbEntity
  8
1
  6
Continuous
 62
     7
100
AcDbLine
 10
548.1410089616444
 20
-75.4225985424178
 30
0.0
 11
547.9713995094884
 21
-75.34708354901849
 31
0.0
  0
LINE
  5
6E
330
1F
100
AcDbEntity
  8
1
  6
DASHED
 62
     2
100
AcDbLine
 10
556.8063190210536
 20
-79.28064314795974
 30
0.0
 11
548.1410089616444
 21
-75.4225985424178
 31
0.0
  0
LINE
  5
6F
330
1F
100
AcDbEntity
  8
1
  6
Continuous
 62
     7
100
AcDbLine
 10
565.471629080463
 20
-75.42259854241786
 30
0.0
 11
568.6347461457987
 21
-78.5857156077536
 31
0.0
  0
LINE
  5
70
330
1F
100
AcDbEntity
  8
1
  6
DOT_CENTER
 62
     2
100
AcDbLine
 10
571.8313190210523
 20
-92.8283562948744
 30
0.0
 11
557.2813190210524
 21
-92.82835629487428
 31
0.0
  0
LINE
  5
71
330
1F
100
AcDbEntity
  8
1
  6
DOT_CENTER
 62
     2
100
AcDbLine
 10
564.5563190210526
 20
-100.1033562948745
 30
0.0
 11
564.5563190210527
 21
-85.5533562948743
 31
0.0
  0
LINE
  5
72
330
1F
100
AcDbEntity
  8
1
  6
DOT_CENTER
 62
     2
100
AcDbLine
 10
532.7063190210539
 20
-79.82835629487428
 30
0.0
 11
520.9063190210537
 21
-79.8283562948744
 31
0.0
  0
LINE
  5
73
330
1F
100
AcDbEntity
  8
1
  6
DOT_CENTER
 62
     2
100
AcDbLine
 10
526.8063190210538
 20
-85.72835629487392
 30
0.0
 11
526.8063190210538
 21
-73.9283562948743
 31
0.0
  0
LINE
  5
74
330
1F
100
AcDbEntity
  8
1
  6
DASHED
 62
     2
100
AcDbLine
 10
550.9768524796242
 20
-84.7898802511611
 30
0.0
 11
550.9676882166368
 21
-84.96474480586588
 31
0.0
  0
LINE
  5
75
330
1F
100
AcDbEntity
  8
1
  6
Continuous
 62
     7
100
AcDbLine
 10
551.1261417160669
 20
-81.9412719245917
 30
0.0
 11
550.9768524796242
 21
-84.7898802511611
 31
0.0
  0
LINE
  5
76
330
1F
100
AcDbEntity
  8
1
  6
Continuous
 62
     7
100
AcDbLine
 10
530.2300086361444
 20
-71.07835629487434
 30
0.0
 11
523.5563190210526
 21
-71.07835629487434
 31
0.0
  0
LINE
  5
77
330
1F
100
AcDbEntity
  8
1
  6
Continuous
 62
     7
100
AcDbLine
 10
540.0563190210528
 20
-92.07835629487434
 30
0.0
 11
523.5563190210526
 21
-92.07835629487434
 31
0.0
  0
LINE
  5
78
330
1F
100
AcDbEntity
  8
1
  6
DASHED
 62
     2
100
AcDbLine
 10
549.0563190210526
 20
-71.07835629487434
 30
0.0
 11
530.2300086361444
 21
-71.07835629487434
 31
0.0
  0
LINE
  5
79
330
1F
100
AcDbEntity
  8
1
  6
Continuous
 62
     7
100
AcDbLine
 10
551.0563190210526
 20
-68.57835629487434
 30
0.0
 11
551.0563190210526
 21
-69.07835629487434
 31
0.0
  0
LINE
  5
7A
330
1F
100
AcDbEntity
  8
1
  6
Continuous
 62
     7
100
AcDbLine
 10
555.0563190210526
 20
-68.57835629487434
 30
0.0
 11
551.0563190210526
 21
-68.57835629487434
 31
0.0
  0
LINE
  5
7B
330
1F
100
AcDbEntity
  8
1
  6
Continuous
 62
     7
100
AcDbLine
 10
555.0563190210526
 20
-98.07835629487434
 30
0.0
 11
544.0563190210526
 21
-98.07835629487434
 31
0.0
  0
LINE
  5
7C
330
1F
100
AcDbEntity
  8
1
  6
Continuous
 62
     7
100
AcDbLine
 10
544.0563190210526
 20
-98.07835629487434
 30
0.0
 11
544.0563190210526
 21
-96.07835629487394
 31
0.0
  0
LINE
  5
7D
330
1F
100
AcDbEntity
  8
1
  6
Continuous
 62
     7
100
AcDbLine
 10
521.5563190210526
 20
-73.07835629487434
 30
0.0
 11
521.5563190210526
 21
-74.04152816130053
 31
0.0
  0
LINE
  5
7E
330
1F
100
AcDbEntity
  8
1
  6
DASHED
 62
     2
100
AcDbLine
 10
551.2294334853617
 20
-79.97034755595904
 30
0.0
 11
551.1261417160669
 21
-81.9412719245917
 31
0.0
  0
LINE
  5
7F
330
1F
100
AcDbEntity
  8
1
  6
Continuous
 62
     7
100
AcDbLine
 10
521.5563190210526
 20
-74.04152816130053
 30
0.0
 11
521.5563190210526
 21
-83.29890992865523
 31
0.0
  0
LINE
  5
80
330
1F
100
AcDbEntity
  8
1
  6
Continuous
 62
     7
100
AcDbLine
 10
521.5563190210526
 20
-83.29890992865523
 30
0.0
 11
521.5563190210526
 21
-90.07835629487434
 31
0.0
  0
LINE
  5
81
330
1F
100
AcDbEntity
  8
1
  6
DOT_CENTER
 62
     2
100
AcDbLine
 10
613.5563190210526
 20
-103.3283562948743
 30
0.0
 11
613.5563190210526
 21
-106.3283562948743
 31
0.0
  0
LINE
  5
82
330
1F
100
AcDbEntity
  8
1
  6
Continuous
 62
     7
100
AcDbLine
 10
592.5563190210524
 20
-83.82835629486264
 30
0.0
 11
592.5563190210523
 21
-92.32835629486264
 31
0.0
  0
LINE
  5
83
330
1F
100
AcDbEntity
  8
1
  6
Continuous
 62
     7
100
AcDbLine
 10
593.5563190210523
 20
-83.82835629486264
 30
0.0
 11
593.5563190210524
 21
-75.82835629486264
 31
0.0
  0
LINE
  5
84
330
1F
100
AcDbEntity
  8
1
  6
Continuous
 62
     7
100
AcDbLine
 10
592.5563190210524
 20
-83.82835629486264
 30
0.0
 11
593.5563190210523
 21
-83.82835629486264
 31
0.0
  0
LINE
  5
85
330
1F
100
AcDbEntity
  8
1
  6
Continuous
 62
     7
100
AcDbLine
 10
592.5563190210526
 20
-75.82835629486264
 30
0.0
 11
592.5563190210524
 21
-83.82835629486264
 31
0.0
  0
LINE
  5
86
330
1F
100
AcDbEntity
  8
1
  6
Continuous
 62
     7
100
AcDbLine
 10
593.5563190210524
 20
-75.82835629486264
 30
0.0
 11
593.5563190210526
 21
-69.89715391392028
 31
0.0
  0
LINE
  5
87
330
1F
100
AcDbEntity
  8
1
  6
Continuous
 62
     7
100
AcDbLine
 10
592.5563190210526
 20
-75.82835629486264
 30
0.0
 11
593.5563190210524
 21
-75.82835629486264
 31
0.0
  0
LINE
  5
88
330
1F
100
AcDbEntity
  8
1
  6
Continuous
 62
     7
100
AcDbLine
 10
592.5518412191415
 20
-69.82835629486263
 30
0.0
 11
593.5547404863325
 21
-69.82835629486266
 31
0.0
  0
LINE
  5
89
330
1F
100
AcDbEntity
  8
1
  6
Continuous
 62
     7
100
AcDbLine
 10
562.5563190210528
 20
-68.32835629487468
 30
0.0
 11
566.5563190210528
 21
-68.32835629487468
 31
0.0
  0
LINE
  5
8A
330
1F
100
AcDbEntity
  8
1
  6
DASHED
 62
     2
100
AcDbLine
 10
560.5563190210528
 20
-67.82835629487434
 30
0.0
 11
560.5563190210529
 21
-68.32835629487468
 31
0.0
  0
LINE
  5
8B
330
1F
100
AcDbEntity
  8
1
  6
Continuous
 62
     7
100
AcDbLine
 10
558.5563190210528
 20
-80.05979334724937
 30
0.0
 11
558.5563190210527
 21
-99.32835629486269
 31
0.0
  0
LINE
  5
8C
330
1F
100
AcDbEntity
  8
1
  6
Continuous
 62
     7
100
AcDbLine
 10
558.5563190210527
 20
-99.32835629486269
 30
0.0
 11
558.5563190210527
 21
-103.3283562948743
 31
0.0
  0
LINE
  5
8D
330
1F
100
AcDbEntity
  8
1
  6
Continuous
 62
     7
100
AcDbLine
 10
573.0563190210528
 20
-99.32835629486267
 30
0.0
 11
558.5563190210527
 21
-99.32835629486269
 31
0.0
  0
LINE
  5
8E
330
1F
100
AcDbEntity
  8
1
  6
Continuous
 62
     7
100
AcDbLine
 10
566.5563190210528
 20
-67.328356294874
 30
0.0
 11
584.5563190210528
 21
-67.32835629487431
 31
0.0
  0
LINE
  5
8F
330
1F
100
AcDbEntity
  8
1
  6
Continuous
 62
     7
100
AcDbLine
 10
566.5563190210528
 20
-68.32835629487468
 30
0.0
 11
584.5179450794315
 21
-68.32835629487435
 31
0.0
  0
LINE
  5
90
330
1F
100
AcDbEntity
  8
1
  6
Continuous
 62
     7
100
AcDbLine
 10
566.5563190210528
 20
-68.32835629487468
 30
0.0
 11
566.5563190210528
 21
-67.328356294874
 31
0.0
  0
LINE
  5
91
330
1F
100
AcDbEntity
  8
1
  6
Continuous
 62
     7
100
AcDbLine
 10
558.5563190210528
 20
-67.32835629487468
 30
0.0
 11
558.5563190210528
 21
-69.14460779607519
 31
0.0
  0
LINE
  5
92
330
1F
100
AcDbEntity
  8
1
  6
Continuous
 62
     7
100
AcDbLine
 10
575.0563190210528
 20
-103.3283562948743
 30
0.0
 11
576.0563190210528
 21
-103.3283562948743
 31
0.0
  0
LINE
  5
93
330
1F
100
AcDbEntity
  8
1
  6
Continuous
 62
     7
100
AcDbLine
 10
558.5563190210527
 20
-103.3283562948743
 30
0.0
 11
575.0563190210528
 21
-103.3283562948743
 31
0.0
  0
LINE
  5
94
330
1F
100
AcDbEntity
  8
1
  6
Continuous
 62
     7
100
AcDbLine
 10
595.0563190210526
 20
-99.32835629486269
 30
0.0
 11
584.5563190210526
 21
-99.32835629486246
 31
0.0
  0
LINE
  5
95
330
1F
100
AcDbEntity
  8
1
  6
Continuous
 62
     7
100
AcDbLine
 10
595.0563190210526
 20
-67.32835629487427
 30
0.0
 11
595.0563190210526
 21
-99.32835629486269
 31
0.0
  0
LINE
  5
96
330
1F
100
AcDbEntity
  8
1
  6
Continuous
 62
     7
100
AcDbLine
 10
558.5563190210528
 20
-67.32835629487468
 30
0.0
 11
560.5563190210528
 21
-67.32835629487468
 31
0.0
  0
LINE
  5
97
330
1F
100
AcDbEntity
  8
1
  6
Continuous
 62
     7
100
AcDbLine
 10
558.5563190210528
 20
-63.32835629487428
 30
0.0
 11
558.5563190210528
 21
-67.32835629487468
 31
0.0
  0
LINE
  5
98
330
1F
100
AcDbEntity
  8
1
  6
DOT_CENTER
 62
     2
100
AcDbLine
 10
613.5563190210526
 20
-63.32835629487434
 30
0.0
 11
613.5563190210526
 21
-60.57670129373915
 31
0.0
  0
LINE
  5
99
330
1F
100
AcDbEntity
  8
1
  6
Continuous
 62
     7
100
AcDbLine
 10
558.5563190210528
 20
-63.32835629487428
 30
0.0
 11
613.5563190210526
 21
-63.32835629487434
 31
0.0
  0
LINE
  5
9A
330
1F
100
AcDbEntity
  8
1
  6
Continuous
 62
     7
100
AcDbLine
 10
576.0563190210528
 20
-103.3283562948743
 30
0.0
 11
613.5563190210526
 21
-103.3283562948743
 31
0.0
  0
LINE
  5
9B
330
1F
100
AcDbEntity
  8
1
  6
PHANTOM
 62
     2
100
AcDbLine
 10
613.5563190210526
 20
-103.3283562948743
 30
0.0
 11
613.5563190210526
 21
-63.32835629487434
 31
0.0
  0
LINE
  5
9C
330
1F
100
AcDbEntity
  8
1
  6
Continuous
 62
     7
100
AcDbLine
 10
560.5563190210528
 20
-67.32835629487468
 30
0.0
 11
560.5563190210528
 21
-67.82835629487434
 31
0.0
  0
LINE
  5
9D
330
1F
100
AcDbEntity
  8
1
  6
Continuous
 62
     7
100
AcDbLine
 10
560.5563190210528
 20
-67.32835629487468
 30
0.0
 11
566.5563190210528
 21
-67.328356294874
 31
0.0
  0
LINE
  5
9E
330
1F
100
AcDbEntity
  8
1
  6
DASHED
 62
     2
100
AcDbLine
 10
560.5563190210529
 20
-68.32835629487468
 30
0.0
 11
562.5563190210528
 21
-68.32835629487468
 31
0.0
  0
LINE
  5
9F
330
1F
100
AcDbEntity
  8
1
  6
Continuous
 62
     7
100
AcDbLine
 10
584.5179450794315
 20
-68.32835629487435
 30
0.0
 11
592.126058935927
 21
-69.40001023142388
 31
0.0
  0
LINE
  5
A0
330
1F
100
AcDbEntity
  8
1
  6
Continuous
 62
     7
100
AcDbLine
 10
592.1259055715324
 20
-97.25469271018768
 30
0.0
 11
584.4863922091095
 21
-98.32835629486269
 31
0.0
  0
LINE
  5
A1
330
1F
100
AcDbEntity
  8
1
  6
Continuous
 62
     7
100
AcDbLine
 10
584.4863922091095
 20
-98.32835629486269
 30
0.0
 11
573.0563190210528
 21
-98.32835629486269
 31
0.0
  0
LINE
  5
A2
330
1F
100
AcDbEntity
  8
1
  6
Continuous
 62
     7
100
AcDbLine
 10
573.0563190210528
 20
-99.32835629486267
 30
0.0
 11
573.0563190210528
 21
-98.32835629486269
 31
0.0
  0
LINE
  5
A3
330
1F
100
AcDbEntity
  8
1
  6
Continuous
 62
     7
100
AcDbLine
 10
584.5563190210526
 20
-99.32835629486246
 30
0.0
 11
592.2650786724927
 21
-98.24496077892904
 31
0.0
  0
LINE
  5
A4
330
1F
100
AcDbEntity
  8
1
  6
Continuous
 62
     7
100
AcDbLine
 10
584.5563190210526
 20
-99.32835629486246
 30
0.0
 11
573.0563190210528
 21
-99.32835629486267
 31
0.0
  0
LINE
  5
A5
330
1F
100
AcDbEntity
  8
1
  6
Continuous
 62
     7
100
AcDbLine
 10
593.5563190210526
 20
-96.7595586758166
 30
0.0
 11
593.5563190210522
 21
-92.32835629486266
 31
0.0
  0
LINE
  5
A6
330
1F
100
AcDbEntity
  8
1
  6
Continuous
 62
     7
100
AcDbLine
 10
592.2650786724927
 20
-68.41175181080786
 30
0.0
 11
584.5563190210528
 21
-67.32835629487431
 31
0.0
  0
LINE
  5
A7
330
1F
100
AcDbEntity
  8
1
  6
Continuous
 62
     7
100
AcDbLine
 10
584.5563190210528
 20
-67.32835629487431
 30
0.0
 11
595.0563190210526
 21
-67.32835629487427
 31
0.0
  0
LINE
  5
A8
330
1F
100
AcDbEntity
  8
1
  6
Continuous
 62
     7
100
AcDbLine
 10
592.5563190210523
 20
-92.32835629486264
 30
0.0
 11
593.5563190210522
 21
-92.32835629486266
 31
0.0
  0
LINE
  5
A9
330
1F
100
AcDbEntity
  8
1
  6
Continuous
 62
     7
100
AcDbLine
 10
592.5563190210523
 20
-92.32835629486264
 30
0.0
 11
592.5563190210523
 21
-96.7595586758169
 31
0.0
  0
LINE
  5
AA
330
1F
100
AcDbEntity
  8
1
  6
Continuous
 62
     7
100
AcDbLine
 10
592.5563190210522
 20
-69.89512268761254
 30
0.0
 11
592.5563190210526
 21
-75.82835629486264
 31
0.0
  0
LINE
  5
AB
330
1F
100
AcDbEntity
  8
1
  6
Continuous
 62
     7
100
AcDbLine
 10
593.5563190210522
 20
-92.32835629486266
 30
0.0
 11
593.5563190210523
 21
-83.82835629486264
 31
0.0
  0
LINE
  5
AC
330
1F
100
AcDbEntity
  8
1
  6
Continuous
 62
     7
100
AcDbLine
 10
587.958166219248
 20
-71.51574072080103
 30
0.0
 11
590.401555544534
 21
-72.655111875036
 31
0.0
  0
LINE
  5
AD
330
1F
100
AcDbEntity
  8
1
  6
DASHED
 62
     2
100
AcDbLine
 10
562.4864963260403
 20
-81.94127192459189
 30
0.0
 11
562.3832045567455
 21
-79.97034755595904
 31
0.0
  0
LINE
  5
AE
330
1F
100
AcDbEntity
  8
1
  6
Continuous
 62
     7
100
AcDbLine
 10
562.635785562483
 20
-84.78988025116081
 30
0.0
 11
562.4864963260403
 21
-81.94127192459189
 31
0.0
  0
LINE
  5
AF
330
1F
100
AcDbEntity
  8
1
  6
DASHED
 62
     2
100
AcDbLine
 10
562.6449498254703
 20
-84.96474480586588
 30
0.0
 11
562.635785562483
 21
-84.78988025116081
 31
0.0
  0
LINE
  5
B0
330
1F
100
AcDbEntity
  8
1
  6
Continuous
 62
     7
100
AcDbLine
 10
586.5563190210526
 20
-89.32835629487434
 30
0.0
 11
586.5563190210526
 21
-90.32835629487434
 31
0.0
  0
LINE
  5
B1
330
1F
100
AcDbEntity
  8
1
  6
Continuous
 62
     7
100
AcDbLine
 10
584.5563190210526
 20
-92.32835629487434
 30
0.0
 11
573.5563190210526
 21
-92.32835629487434
 31
0.0
  0
LINE
  5
B2
330
1F
100
AcDbEntity
  8
1
  6
Continuous
 62
     7
100
AcDbLine
 10
587.1129296957666
 20
-71.32835629487434
 30
0.0
 11
564.5563190210527
 21
-71.32835629487434
 31
0.0
  0
LINE
  5
B3
330
1F
100
AcDbEntity
  8
1
  6
Continuous
 62
     7
100
AcDbLine
 10
562.5563190210526
 20
-69.32835629487434
 30
0.0
 11
562.5563190210529
 21
-67.82835629487434
 31
0.0
  0
LINE
  5
B4
330
1F
100
AcDbEntity
  8
1
  6
Continuous
 62
     7
100
AcDbLine
 10
562.5563190210529
 20
-67.82835629487434
 30
0.0
 11
558.5563190210526
 21
-67.82835629487434
 31
0.0
  0
LINE
  5
B5
330
1F
100
AcDbEntity
  8
1
  6
Continuous
 62
     7
100
AcDbLine
 10
589.5563190210526
 20
-87.32835629487434
 30
0.0
 11
588.5563190210526
 21
-87.32835629487434
 31
0.0
  0
LINE
  5
B6
330
1F
100
AcDbEntity
  8
1
  6
Continuous
 62
     7
100
AcDbLine
 10
569.5563190210526
 20
-98.82835629487434
 30
0.0
 11
558.5563190210526
 21
-98.82835629487434
 31
0.0
  0
LINE
  5
B7
330
1F
100
AcDbEntity
  8
1
  6
Continuous
 62
     7
100
AcDbLine
 10
569.5563190210526
 20
-96.32835629487434
 30
0.0
 11
569.5563190210526
 21
-98.82835629487434
 31
0.0
  0
LINE
  5
B8
330
1F
100
AcDbEntity
  8
1
  6
Continuous
 62
     7
100
AcDbLine
 10
591.5563190210526
 20
-85.32835629487434
 30
0.0
 11
591.5563190210526
 21
-83.92997441207133
 31
0.0
  0
LINE
  5
B9
330
1F
100
AcDbEntity
  8
1
  6
Continuous
 62
     7
100
AcDbLine
 10
591.5563190210526
 20
-83.92997441207133
 30
0.0
 11
591.5563190210526
 21
-74.4677274491093
 31
0.0
  0
LINE
  5
BA
330
1F
100
AcDbEntity
  8
1
  6
Continuous
 62
     7
100
AcDbLine
 10
550.7171426563576
 20
-84.25739620282181
 30
0.0
 11
553.7749877641254
 21
-90.52690777423166
 31
0.0
  0
LINE
  5
BB
330
1F
100
AcDbEntity
  8
1
  6
Continuous
 62
     7
100
AcDbLine
 10
544.9778918963084
 20
-78.58571560775377
 30
0.0
 11
553.2707851151206
 21
-70.29282238894157
 31
0.0
  0
LINE
  5
BC
330
1F
100
AcDbEntity
  8
1
  6
Continuous
 62
     7
100
AcDbLine
 10
561.1364460399753
 20
-70.32835629487434
 30
0.0
 11
573.8063190210543
 21
-70.32835629487421
 31
0.0
  0
LINE
  5
BD
330
1F
100
AcDbEntity
  8
1
  6
Continuous
 62
     7
100
AcDbLine
 10
584.7205325834263
 20
-72.08571560775502
 30
0.0
 11
589.6347461457995
 21
-76.99992917012801
 31
0.0
  0
LINE
  5
BE
330
1F
100
AcDbEntity
  8
1
  6
Continuous
 62
     7
100
AcDbLine
 10
581.6849986774928
 20
-75.41414273250076
 30
0.0
 11
582.5959534753247
 21
-76.32509753033199
 31
0.0
  0
LINE
  5
BF
330
1F
100
AcDbEntity
  8
1
  6
Continuous
 62
     7
100
AcDbLine
 10
568.0816583910733
 20
-74.82835629487434
 30
0.0
 11
577.1973122465168
 21
-74.82835629487421
 31
0.0
  0
LINE
  5
C0
330
1F
100
AcDbEntity
  8
1
  6
Continuous
 62
     7
100
AcDbLine
 10
565.6412385326187
 20
-75.34708354901866
 30
0.0
 11
551.7012574628043
 21
-81.55356299395837
 31
0.0
  0
LINE
  5
C1
330
1F
100
AcDbEntity
  8
1
  6
Continuous
 62
     7
100
AcDbLine
 10
543.8063190210546
 20
-92.82835629487434
 30
0.0
 11
543.8063190210546
 21
-81.41414273249995
 31
0.0
  0
LINE
  5
C2
330
1F
100
AcDbEntity
  8
1
  6
DASHED
 62
     2
100
AcDbLine
 10
577.1973122465168
 20
-74.82835629487421
 30
0.0
 11
573.8063190210543
 21
-70.32835629487421
 31
0.0
  0
LINE
  5
C3
330
1F
100
AcDbEntity
  8
1
  6
Continuous
 62
     7
100
AcDbLine
 10
573.8063190210543
 20
-70.32835629487421
 30
0.0
 11
580.4778918963071
 21
-70.32835629487434
 31
0.0
  0
LINE
  5
C4
330
1F
100
AcDbEntity
  8
1
  6
Continuous
 62
     7
100
AcDbLine
 10
577.1973122465168
 20
-74.82835629487421
 30
0.0
 11
580.2707851151201
 21
-74.82835629487434
 31
0.0
  0
LINE
  5
C5
330
1F
100
AcDbEntity
  8
1
  6
DOT_CENTER
 62
     2
100
AcDbLine
 10
556.3313190210547
 20
-92.82835629487434
 30
0.0
 11
541.7813190210547
 21
-92.82835629487434
 31
0.0
  0
LINE
  5
C6
330
1F
100
AcDbEntity
  8
1
  6
DOT_CENTER
 62
     2
100
AcDbLine
 10
549.0563190210544
 20
-85.55335629487436
 30
0.0
 11
549.0563190210545
 21
-100.1033562948745
 31
0.0
  0
LINE
  5
C7
330
1F
100
AcDbEntity
  8
1
  6
DOT_CENTER
 62
     2
100
AcDbLine
 10
563.8063190210535
 20
-73.82835629487434
 30
0.0
 11
549.8063190210537
 21
-73.82835629487434
 31
0.0
  0
LINE
  5
C8
330
1F
100
AcDbEntity
  8
1
  6
DOT_CENTER
 62
     2
100
AcDbLine
 10
556.8063190210536
 20
-66.82835629487445
 30
0.0
 11
556.8063190210536
 21
-80.82835629487423
 31
0.0
  0
LINE
  5
C9
330
1F
100
AcDbEntity
  8
1
  6
DOT_CENTER
 62
     2
100
AcDbLine
 10
592.7063190210533
 20
-79.82835629487434
 30
0.0
 11
580.9063190210532
 21
-79.82835629487434
 31
0.0
  0
LINE
  5
CA
330
1F
100
AcDbEntity
  8
1
  6
DOT_CENTER
 62
     2
100
AcDbLine
 10
586.8063190210532
 20
-73.92835629487425
 30
0.0
 11
586.8063190210532
 21
-85.7283562948742
 31
0.0
  0
LINE
  5
CB
330
1F
100
AcDbEntity
  8
1
  6
Continuous
 62
     7
100
AcDbLine
 10
541.0563190210527
 20
-51.07835629487462
 30
0.0
 11
541.0563190210526
 21
-67.3283562948743
 31
0.0
  0
LINE
  5
CC
330
1F
100
AcDbEntity
  8
1
  6
DASHED
 62
     2
100
AcDbLine
 10
543.3063190210526
 20
-51.07835629487462
 30
0.0
 11
543.3063190210526
 21
-45.57835629487462
 31
0.0
  0
LINE
  5
CD
330
1F
100
AcDbEntity
  8
1
  6
DASHED
 62
     2
100
AcDbLine
 10
543.3063190210526
 20
-45.57835629487462
 30
0.0
 11
541.0563190210526
 21
-43.32835629487462
 31
0.0
  0
LINE
  5
CE
330
1F
100
AcDbEntity
  8
1
  6
Continuous
 62
     7
100
AcDbLine
 10
541.0563190210527
 20
-38.07835629487462
 30
0.0
 11
541.0563190210527
 21
-45.57835629487462
 31
0.0
  0
LINE
  5
CF
330
1F
100
AcDbEntity
  8
1
  6
DASHED
 62
     2
100
AcDbLine
 10
545.0563190210526
 20
-45.57835629487462
 30
0.0
 11
543.3063190210526
 21
-45.57835629487462
 31
0.0
  0
LINE
  5
D0
330
1F
100
AcDbEntity
  8
1
  6
DASHED
 62
     2
100
AcDbLine
 10
543.3063190210526
 20
-51.07835629487462
 30
0.0
 11
541.0563190210526
 21
-53.32835629487462
 31
0.0
  0
LINE
  5
D1
330
1F
100
AcDbEntity
  8
1
  6
Continuous
 62
     7
100
AcDbLine
 10
541.0563190210527
 20
-45.57835629487462
 30
0.0
 11
541.0563190210527
 21
-51.07835629487462
 31
0.0
  0
LINE
  5
D2
330
1F
100
AcDbEntity
  8
1
  6
DASHED
 62
     2
100
AcDbLine
 10
545.0563190210526
 20
-51.07835629487462
 30
0.0
 11
543.3063190210526
 21
-51.07835629487462
 31
0.0
  0
LINE
  5
D3
330
1F
100
AcDbEntity
  8
1
  6
DOT_CENTER
 62
     2
100
AcDbLine
 10
546.5563190210527
 20
-48.32835629487462
 30
0.0
 11
539.5563190210526
 21
-48.32835629487462
 31
0.0
  0
LINE
  5
D4
330
1F
100
AcDbEntity
  8
1
  6
DASHED
 62
     2
100
AcDbLine
 10
543.3063190210526
 20
-38.0783562948746
 30
0.0
 11
543.3063190210526
 21
-32.57835629487462
 31
0.0
  0
LINE
  5
D5
330
1F
100
AcDbEntity
  8
1
  6
DASHED
 62
     2
100
AcDbLine
 10
543.3063190210526
 20
-32.57835629487462
 30
0.0
 11
541.0563190210526
 21
-30.32835629487462
 31
0.0
  0
LINE
  5
D6
330
1F
100
AcDbEntity
  8
1
  6
Continuous
 62
     7
100
AcDbLine
 10
541.0563190210526
 20
-18.32835629487462
 30
0.0
 11
541.0563190210527
 21
-32.57835629487462
 31
0.0
  0
LINE
  5
D7
330
1F
100
AcDbEntity
  8
1
  6
DASHED
 62
     2
100
AcDbLine
 10
545.0563190210526
 20
-32.57835629487462
 30
0.0
 11
543.3063190210526
 21
-32.57835629487462
 31
0.0
  0
LINE
  5
D8
330
1F
100
AcDbEntity
  8
1
  6
DASHED
 62
     2
100
AcDbLine
 10
543.3063190210526
 20
-38.0783562948746
 30
0.0
 11
541.0563190210526
 21
-40.3283562948746
 31
0.0
  0
LINE
  5
D9
330
1F
100
AcDbEntity
  8
1
  6
Continuous
 62
     7
100
AcDbLine
 10
541.0563190210527
 20
-32.57835629487462
 30
0.0
 11
541.0563190210527
 21
-38.07835629487462
 31
0.0
  0
LINE
  5
DA
330
1F
100
AcDbEntity
  8
1
  6
DASHED
 62
     2
100
AcDbLine
 10
545.0563190210526
 20
-38.0783562948746
 30
0.0
 11
543.3063190210526
 21
-38.0783562948746
 31
0.0
  0
LINE
  5
DB
330
1F
100
AcDbEntity
  8
1
  6
DOT_CENTER
 62
     2
100
AcDbLine
 10
546.5563190210527
 20
-35.32835629487462
 30
0.0
 11
539.5563190210526
 21
-35.32835629487462
 31
0.0
  0
LINE
  5
DC
330
1F
100
AcDbEntity
  8
1
  6
Continuous
 62
     7
100
AcDbLine
 10
545.0563190210526
 20
-18.32835629487462
 30
0.0
 11
541.0563190210526
 21
-18.32835629487462
 31
0.0
  0
ARC
  5
DD
330
1F
100
AcDbEntity
  8
1
  6
Continuous
 62
     7
100
AcDbCircle
 10
521.0563190210526
 20
-69.89715391392014
 30
0.0
 40
1.499999999999659
100
AcDbArc
 50
98.00000000000261
 51
-179.999999999987
  0
ARC
  5
DE
330
1F
100
AcDbEntity
  8
1
  6
Continuous
 62
     7
100
AcDbCircle
 10
521.0563190210526
 20
-96.75955867582847
 30
0.0
 40
1.5
100
AcDbArc
 50
179.9999999999995
 51
-98.00000000000095
  0
ARC
  5
DF
330
1F
100
AcDbEntity
  8
1
  6
Continuous
 62
     7
100
AcDbCircle
 10
564.5563190210524
 20
-92.8283562948744
 30
0.0
 40
5.249999999999761
100
AcDbArc
 50
-45.0
 51
0.00000000000248
  0
ARC
  5
E0
330
1F
100
AcDbEntity
  8
1
  6
Continuous
 62
     7
100
AcDbCircle
 10
556.8063190210536
 20
-73.82835629487423
 30
0.0
 40
4.999999999999943
100
AcDbArc
 50
89.99999999999739
 51
128.2132107017391
  0
ARC
  5
E1
330
1F
100
AcDbEntity
  8
1
  6
Continuous
 62
     7
100
AcDbCircle
 10
564.5563190210524
 20
-92.8283562948744
 30
0.0
 40
5.25000000000021
100
AcDbArc
 50
153.9999999999995
 51
-45.0
  0
ARC
  5
E2
330
1F
100
AcDbEntity
  8
1
  6
DASHED
 62
     2
100
AcDbCircle
 10
556.8063190210536
 20
-73.82835629487423
 30
0.0
 40
5.000000000000242
100
AcDbArc
 50
45.00000000000046
 51
89.99999999999739
  0
ARC
  5
E3
330
1F
100
AcDbEntity
  8
1
  6
Continuous
 62
     7
100
AcDbCircle
 10
526.8063190210534
 20
-79.8283562948744
 30
0.0
 40
3.999999999999952
100
AcDbArc
 50
134.9999999999943
 51
20.37568164783945
  0
ARC
  5
E4
330
1F
100
AcDbEntity
  8
1
  6
DASHED
 62
     2
100
AcDbCircle
 10
553.1498604415482
 20
52.57639371594175
 30
0.0
 40
130.5
100
AcDbArc
 50
-102.0412395406185
 51
-99.65362553683211
  0
ARC
  5
E5
330
1F
100
AcDbEntity
  8
1
  6
Continuous
 62
     7
100
AcDbCircle
 10
553.1498604415482
 20
52.57639371594175
 30
0.0
 40
130.5
100
AcDbArc
 50
-104.0102871349166
 51
-102.0412395406185
  0
ARC
  5
E6
330
1F
100
AcDbEntity
  8
1
  6
DOT_CENTER
 62
     2
100
AcDbCircle
 10
553.1498604415482
 20
52.57639371594175
 30
0.0
 40
135.0
100
AcDbArc
 50
-105.9199792784021
 51
-89.42511591406618
  0
ARC
  5
E7
330
1F
100
AcDbEntity
  8
1
  6
DASHED
 62
     2
100
AcDbCircle
 10
553.1498604415482
 20
52.57639371594175
 30
0.0
 40
130.5
100
AcDbArc
 50
-93.2090249084504
 51
-91.69433655610698
  0
ARC
  5
E8
330
1F
100
AcDbEntity
  8
1
  6
DASHED
 62
     2
100
AcDbCircle
 10
553.1498604415482
 20
52.57639371594175
 30
0.0
 40
139.5
100
AcDbArc
 50
-93.84047722901197
 51
-91.7418230039667
  0
ARC
  5
E9
330
1F
100
AcDbEntity
  8
1
  6
Continuous
 62
     7
100
AcDbCircle
 10
553.1498604415482
 20
52.57639371594175
 30
0.0
 40
130.5
100
AcDbArc
 50
-99.65362553683211
 51
-93.2090249084504
  0
ARC
  5
EA
330
1F
100
AcDbEntity
  8
1
  6
Continuous
 62
     7
100
AcDbCircle
 10
553.1498604415482
 20
52.57639371594175
 30
0.0
 40
139.5
100
AcDbArc
 50
-103.089746250876
 51
-93.84047722901197
  0
ARC
  5
EB
330
1F
100
AcDbEntity
  8
1
  6
DASHED
 62
     2
100
AcDbCircle
 10
560.462777600559
 20
52.57639371594175
 30
0.0
 40
139.5
100
AcDbArc
 50
-88.25817699603331
 51
-86.15952277098809
  0
ARC
  5
EC
330
1F
100
AcDbEntity
  8
1
  6
DASHED
 62
     2
100
AcDbCircle
 10
560.462777600559
 20
52.57639371594175
 30
0.0
 40
130.5
100
AcDbArc
 50
-88.30566344389302
 51
-86.79097509154957
  0
ARC
  5
ED
330
1F
100
AcDbEntity
  8
1
  6
Continuous
 62
     7
100
AcDbCircle
 10
560.462777600559
 20
52.57639371594175
 30
0.0
 40
130.5
100
AcDbArc
 50
-80.34637446316799
 51
-77.95876045938151
  0
ARC
  5
EE
330
1F
100
AcDbEntity
  8
1
  6
Continuous
 62
     7
100
AcDbCircle
 10
560.462777600559
 20
52.57639371594175
 30
0.0
 40
130.5
100
AcDbArc
 50
-86.79097509154957
 51
-80.34637446316799
  0
ARC
  5
EF
330
1F
100
AcDbEntity
  8
1
  6
DOT_CENTER
 62
     2
100
AcDbCircle
 10
560.462777600559
 20
52.57639371594175
 30
0.0
 40
135.0
100
AcDbArc
 50
-90.57488408593383
 51
-74.08002072159793
  0
ARC
  5
F0
330
1F
100
AcDbEntity
  8
1
  6
Continuous
 62
     7
100
AcDbCircle
 10
560.462777600559
 20
52.57639371594175
 30
0.0
 40
130.5
100
AcDbArc
 50
-77.95876045938151
 51
-76.22588441544036
  0
ARC
  5
F1
330
1F
100
AcDbEntity
  8
1
  6
Continuous
 62
     7
100
AcDbCircle
 10
560.462777600559
 20
52.57639371594175
 30
0.0
 40
139.5
100
AcDbArc
 50
-86.15952277098809
 51
-77.12100366439547
  0
ARC
  5
F2
330
1F
100
AcDbEntity
  8
1
  6
Continuous
 62
     7
100
AcDbCircle
 10
549.0563190210545
 20
-92.82835629487445
 30
0.0
 40
5.249999999999886
100
AcDbArc
 50
179.9999999999988
 51
-134.9999999999991
  0
ARC
  5
F3
330
1F
100
AcDbEntity
  8
1
  6
Continuous
 62
     7
100
AcDbCircle
 10
556.8063190210536
 20
-73.82835629487423
 30
0.0
 40
4.999999999999701
100
AcDbArc
 50
51.78678929826436
 51
89.99999999999739
  0
ARC
  5
F4
330
1F
100
AcDbEntity
  8
1
  6
Continuous
 62
     7
100
AcDbCircle
 10
549.0563190210545
 20
-92.82835629487445
 30
0.0
 40
5.24999999999968
100
AcDbArc
 50
-134.9999999999991
 51
26.0
  0
ARC
  5
F5
330
1F
100
AcDbEntity
  8
1
  6
Continuous
 62
     7
100
AcDbCircle
 10
556.8063190210536
 20
-73.82835629487423
 30
0.0
 40
4.999999999999943
100
AcDbArc
 50
89.99999999999739
 51
135.0000000000028
  0
ARC
  5
F6
330
1F
100
AcDbEntity
  8
1
  6
Continuous
 62
     7
100
AcDbCircle
 10
586.8063190210535
 20
-79.82835629487434
 30
0.0
 40
4.000000000000188
100
AcDbArc
 50
159.6243183521609
 51
45.00000000000345
  0
CIRCLE
  5
F7
330
1F
100
AcDbEntity
  8
1
  6
Continuous
 62
     7
100
AcDbCircle
 10
526.8063190210534
 20
-79.8283562948744
 30
0.0
 40
2.499999999999773
  0
CIRCLE
  5
F8
330
1F
100
AcDbEntity
  8
1
  6
Continuous
 62
     7
100
AcDbCircle
 10
564.5563190210524
 20
-92.8283562948744
 30
0.0
 40
2.75
  0
CIRCLE
  5
F9
330
1F
100
AcDbEntity
  8
1
  6
Continuous
 62
     7
100
AcDbCircle
 10
586.8063190210535
 20
-79.82835629487434
 30
0.0
 40
2.5
  0
CIRCLE
  5
FA
330
1F
100
AcDbEntity
  8
1
  6
Continuous
 62
     7
100
AcDbCircle
 10
549.0563190210545
 20
-92.82835629487445
 30
0.0
 40
2.749999999999886
  0
CIRCLE
  5
FB
330
1F
100
AcDbEntity
  8
1
  6
Continuous
 62
     7
100
AcDbCircle
 10
556.8063190210536
 20
-73.82835629487423
 30
0.0
 40
2.5
  0
ARC
  5
FC
330
1F
100
AcDbEntity
  8
1
  6
Continuous
 62
     7
100
AcDbCircle
 10
521.0563190210526
 20
-69.89715391392014
 30
0.0
 40
0.4999999999999802
100
AcDbArc
 50
98.00000000000111
 51
180.0
  0
ARC
  5
FD
330
1F
100
AcDbEntity
  8
1
  6
Continuous
 62
     7
100
AcDbCircle
 10
521.0563190210526
 20
-96.75955867582847
 30
0.0
 40
0.5
100
AcDbArc
 50
180.0
 51
-98.00000000000088
  0
ARC
  5
FE
330
1F
100
AcDbEntity
  8
1
  6
Continuous
 62
     7
100
AcDbCircle
 10
565.8063190210524
 20
-81.41414273249993
 30
0.0
 40
4.000000000000114
100
AcDbArc
 50
0.0
 51
45.00000000000115
  0
ARC
  5
FF
330
1F
100
AcDbEntity
  8
1
  6
Continuous
 62
     7
100
AcDbCircle
 10
561.0979072931513
 20
-83.38065390924325
 30
0.0
 40
2.000000000000037
100
AcDbArc
 50
-26.00000000000511
 51
65.9999999999984
  0
ARC
  5
100
330
1F
100
AcDbEntity
  8
1
  6
Continuous
 62
     7
100
AcDbCircle
 10
533.1347461457998
 20
-76.3283562948744
 30
0.0
 40
6.000000000000227
100
AcDbArc
 50
89.99999999999892
 51
134.9999999999985
  0
ARC
  5
101
330
1F
100
AcDbEntity
  8
1
  6
Continuous
 62
     7
100
AcDbCircle
 10
533.3418529269866
 20
-76.82835629487428
 30
0.0
 40
2.0
100
AcDbArc
 50
90.00000000000325
 51
134.9999999999931
  0
ARC
  5
102
330
1F
100
AcDbEntity
  8
1
  6
Continuous
 62
     7
100
AcDbCircle
 10
552.4761920021316
 20
-68.32835629487428
 30
0.0
 40
2.0
100
AcDbArc
 50
-90.0
 51
-51.78678929826781
  0
ARC
  5
103
330
1F
100
AcDbEntity
  8
1
  6
Continuous
 62
     7
100
AcDbCircle
 10
532.4308981291555
 20
-77.73931109270538
 30
0.0
 40
2.000000000000257
100
AcDbArc
 50
134.9999999999931
 51
-159.6243183521747
  0
ARC
  5
104
330
1F
100
AcDbEntity
  8
1
  6
Continuous
 62
     7
100
AcDbCircle
 10
545.5309796510336
 20
-80.82835629487428
 30
0.0
 40
6.000000000000163
100
AcDbArc
 50
66.00000000000082
 51
89.99999999999784
  0
ARC
  5
105
330
1F
100
AcDbEntity
  8
1
  6
DASHED
 62
     2
100
AcDbCircle
 10
549.0563190210526
 20
-69.07835629487434
 30
0.0
 40
2.0
100
AcDbArc
 50
-90.0
 51
-38.68218745348897
  0
ARC
  5
106
330
1F
100
AcDbEntity
  8
1
  6
Continuous
 62
     7
100
AcDbCircle
 10
549.0563190210526
 20
-69.07835629487434
 30
0.0
 40
2.00000000000002
100
AcDbArc
 50
-38.68218745348897
 51
0.0
  0
ARC
  5
107
330
1F
100
AcDbEntity
  8
1
  6
Continuous
 62
     7
100
AcDbCircle
 10
523.5563190210526
 20
-73.07835629487434
 30
0.0
 40
2.0
100
AcDbArc
 50
90.0
 51
180.0
  0
ARC
  5
108
330
1F
100
AcDbEntity
  8
1
  6
Continuous
 62
     7
100
AcDbCircle
 10
523.5563190210526
 20
-90.07835629487434
 30
0.0
 40
2.0
100
AcDbArc
 50
180.0
 51
-90.0
  0
ARC
  5
109
330
1F
100
AcDbEntity
  8
1
  6
Continuous
 62
     7
100
AcDbCircle
 10
540.0563190210526
 20
-96.07835629487434
 30
0.0
 40
4.0
100
AcDbArc
 50
0.0000000000057
 51
89.99999999999675
  0
ARC
  5
10A
330
1F
100
AcDbEntity
  8
1
  6
DASHED
 62
     2
100
AcDbCircle
 10
549.2321744158526
 20
-79.86567564347314
 30
0.0
 40
1.999999999999994
100
AcDbArc
 50
-3.00000000000031
 51
88.30566344389297
  0
ARC
  5
10B
330
1F
100
AcDbEntity
  8
1
  6
DASHED
 62
     2
100
AcDbCircle
 10
548.9704291471277
 20
-84.86007289337999
 30
0.0
 40
2.000000000000029
100
AcDbArc
 50
-91.74182300396697
 51
-2.9999999999999
  0
ARC
  5
10C
330
1F
100
AcDbEntity
  8
1
  6
Continuous
 62
     7
100
AcDbCircle
 10
592.0563190210522
 20
-69.89512268761263
 30
0.0
 40
0.5
100
AcDbArc
 50
0.00000000000977
 51
7.67378653924756
  0
ARC
  5
10D
330
1F
100
AcDbEntity
  8
1
  6
Continuous
 62
     7
100
AcDbCircle
 10
592.0563190210526
 20
-69.89715391392019
 30
0.0
 40
1.5
100
AcDbArc
 50
-0.00000000000326
 51
2.62879768383398
  0
ARC
  5
10E
330
1F
100
AcDbEntity
  8
1
  6
Continuous
 62
     7
100
AcDbCircle
 10
592.0563190210522
 20
-69.89512268761263
 30
0.0
 40
0.5000000000000463
100
AcDbArc
 50
7.67378653924756
 51
81.9822526359702
  0
ARC
  5
10F
330
1F
100
AcDbEntity
  8
1
  6
Continuous
 62
     7
100
AcDbCircle
 10
592.0563190210523
 20
-96.7595586758169
 30
0.0
 40
0.4999999999999942
100
AcDbArc
 50
-81.99999999999912
 51
0.0
  0
ARC
  5
110
330
1F
100
AcDbEntity
  8
1
  6
Continuous
 62
     7
100
AcDbCircle
 10
592.0563190210523
 20
-96.7595586758169
 30
0.0
 40
1.499999999999817
100
AcDbArc
 50
-81.99999999998947
 51
0.0000000000114
  0
ARC
  5
111
330
1F
100
AcDbEntity
  8
1
  6
Continuous
 62
     7
100
AcDbCircle
 10
592.0563190210526
 20
-69.89715391392019
 30
0.0
 40
1.499999999999938
100
AcDbArc
 50
2.62879768383398
 51
81.99999999999912
  0
ARC
  5
112
330
1F
100
AcDbEntity
  8
1
  6
Continuous
 62
     7
100
AcDbCircle
 10
589.5563190210526
 20
-74.4677274491093
 30
0.0
 40
2.0
100
AcDbArc
 50
0.0
 51
8.54138971020341
  0
ARC
  5
113
330
1F
100
AcDbEntity
  8
1
  6
Continuous
 62
     7
100
AcDbCircle
 10
587.1129296957666
 20
-73.32835629487434
 30
0.0
 40
2.000000000000001
100
AcDbArc
 50
65.00000000000031
 51
90.0
  0
ARC
  5
114
330
1F
100
AcDbEntity
  8
1
  6
Continuous
 62
     7
100
AcDbCircle
 10
589.5563190210526
 20
-74.4677274491093
 30
0.0
 40
1.999999999999996
100
AcDbArc
 50
8.54138971020341
 51
65.00000000000031
  0
ARC
  5
115
330
1F
100
AcDbEntity
  8
1
  6
DASHED
 62
     2
100
AcDbCircle
 10
564.3804636262546
 20
-79.86567564347314
 30
0.0
 40
1.999999999999982
100
AcDbArc
 50
91.69433655610703
 51
-176.9999999999997
  0
ARC
  5
116
330
1F
100
AcDbEntity
  8
1
  6
DASHED
 62
     2
100
AcDbCircle
 10
564.6422088949795
 20
-84.86007289337999
 30
0.0
 40
1.999999999999993
100
AcDbArc
 50
-177.0000000000001
 51
-88.25817699603304
  0
ARC
  5
117
330
1F
100
AcDbEntity
  8
1
  6
Continuous
 62
     7
100
AcDbCircle
 10
564.5563190210526
 20
-69.32835629487434
 30
0.0
 40
2.0
100
AcDbArc
 50
180.0
 51
-89.99999999999675
  0
ARC
  5
118
330
1F
100
AcDbEntity
  8
1
  6
Continuous
 62
     7
100
AcDbCircle
 10
589.5563190210526
 20
-85.32835629487434
 30
0.0
 40
2.0
100
AcDbArc
 50
-90.0
 51
0.0
  0
ARC
  5
119
330
1F
100
AcDbEntity
  8
1
  6
Continuous
 62
     7
100
AcDbCircle
 10
573.5563190210526
 20
-96.32835629487434
 30
0.0
 40
4.0
100
AcDbArc
 50
90.0
 51
180.0
  0
ARC
  5
11A
330
1F
100
AcDbEntity
  8
1
  6
Continuous
 62
     7
100
AcDbCircle
 10
588.5563190210526
 20
-89.32835629487434
 30
0.0
 40
2.0
100
AcDbArc
 50
90.0
 51
180.0
  0
ARC
  5
11B
330
1F
100
AcDbEntity
  8
1
  6
Continuous
 62
     7
100
AcDbCircle
 10
584.5563190210526
 20
-90.32835629487434
 30
0.0
 40
2.0
100
AcDbArc
 50
-90.0
 51
0.0
  0
ARC
  5
11C
330
1F
100
AcDbEntity
  8
1
  6
Continuous
 62
     7
100
AcDbCircle
 10
561.1364460399756
 20
-68.32835629487434
 30
0.0
 40
2.000000000000081
100
AcDbArc
 50
-128.2132107017419
 51
-90.00000000000651
  0
ARC
  5
11D
330
1F
100
AcDbEntity
  8
1
  6
Continuous
 62
     7
100
AcDbCircle
 10
581.1817399129516
 20
-77.73931109270544
 30
0.0
 40
1.999999999999916
100
AcDbArc
 50
-20.37568164782532
 51
45.00000000000691
  0
ARC
  5
11E
330
1F
100
AcDbEntity
  8
1
  6
Continuous
 62
     7
100
AcDbCircle
 10
568.0816583910736
 20
-80.82835629487434
 30
0.0
 40
6.0
100
AcDbArc
 50
90.00000000000217
 51
114.0000000000006
  0
ARC
  5
11F
330
1F
100
AcDbEntity
  8
1
  6
Continuous
 62
     7
100
AcDbCircle
 10
552.5147307489559
 20
-83.38065390924355
 30
0.0
 40
1.999999999999996
100
AcDbArc
 50
114.0000000000011
 51
-153.9999999999967
  0
ARC
  5
120
330
1F
100
AcDbEntity
  8
1
  6
Continuous
 62
     7
100
AcDbCircle
 10
547.8063190210546
 20
-81.41414273249995
 30
0.0
 40
4.000000000000012
100
AcDbArc
 50
135.0000000000003
 51
180.0
  0
ARC
  5
121
330
1F
100
AcDbEntity
  8
1
  6
Continuous
 62
     7
100
AcDbCircle
 10
580.2707851151201
 20
-76.82835629487434
 30
0.0
 40
2.000000000000026
100
AcDbArc
 50
45.00000000001872
 51
90.0
  0
ARC
  5
122
330
1F
100
AcDbEntity
  8
1
  6
Continuous
 62
     7
100
AcDbCircle
 10
580.4778918963071
 20
-76.32835629487434
 30
0.0
 40
5.999999999999968
100
AcDbArc
 50
45.00000000000077
 51
90.0
  0
DIMENSION
  5
12E
330
1F
100
AcDbEntity
  8
1
100
AcDbDimension
  2
*D1
 10
558.5563190210529
 20
-125.267697518273
 30
0.0
 11
578.038278134825
 21
-121.517697518273
 31
0.0
 70
    32
  1
<>
 71
     5
 42
-1.0
 53
0.00013888888889
  3
ME10_DIM_10
100
AcDbAlignedDimension
 13
595.0563190210526
 23
-99.32835629486269
 33
0.0
 14
558.5563190210527
 24
-103.3283562948743
 34
0.0
100
AcDbRotatedDimension
  0
DIMENSION
  5
13B
330
1F
100
AcDbEntity
  8
1
100
AcDbDimension
  2
*D2
 10
621.937248201244
 20
-103.3283562948743
 30
0.0
 11
618.187248201244
 21
-107.245472278715
 31
0.0
 70
    32
  1
<>
 71
     5
 42
-1.0
 53
90.0
  3
ME10_DIM_11
100
AcDbAlignedDimension
 13
595.0563190210526
 23
-99.32835629486269
 33
0.0
 14
613.5563190210526
 24
-103.3283562948743
 34
0.0
 50
90.0
100
AcDbRotatedDimension
  0
DIMENSION
  5
146
330
1F
100
AcDbEntity
  8
1
100
AcDbDimension
  2
*D3
 10
621.937248201244
 20
-99.32835629486274
 30
0.0
 11
618.187248201244
 21
-83.32835629486848
 31
0.0
 70
    32
  1
<>
 71
     5
 42
-1.0
 53
90.0
  3
ME10_DIM_12
100
AcDbAlignedDimension
 13
595.0563190210526
 23
-67.32835629487427
 33
0.0
 14
595.0563190210526
 24
-99.32835629486269
 34
0.0
 50
90.0
100
AcDbRotatedDimension
  0
DIMENSION
  5
151
330
1F
100
AcDbEntity
  8
1
100
AcDbDimension
  2
*D4
 10
519.5563190210523
 20
-114.330104344032
 30
0.0
 11
536.0205756149958
 21
-110.580104344032
 31
0.0
 70
    32
  1
<>
 71
     5
 42
-1.0
 53
0.00013888888889
  3
ME10_DIM_13
100
AcDbAlignedDimension
 13
555.0563190210526
 23
-103.3283562948743
 33
0.0
 14
519.5563190210526
 24
-99.32835629487434
 34
0.0
100
AcDbRotatedDimension
  0
DIMENSION
  5
15C
330
1F
100
AcDbEntity
  8
1
100
AcDbDimension
  2
*D5
 10
558.5563190210529
 20
-114.330104344032
 30
0.0
 11
576.0563190210526
 21
-110.580104344032
 31
0.0
 70
    32
  1
<>
 71
     5
 42
-1.0
 53
0.00013888888889
  3
ME10_DIM_14
100
AcDbAlignedDimension
 13
593.5563190210526
 23
-96.7595586758166
 33
0.0
 14
558.5563190210527
 24
-103.3283562948743
 34
0.0
100
AcDbRotatedDimension
  0
DIMENSION
  5
169
330
1F
100
AcDbEntity
  8
1
100
AcDbDimension
  2
*D6
 10
555.0563190210523
 20
-114.330104344032
 30
0.0
 11
554.6758045922907
 21
-117.920744476847
 31
0.0
 70
    32
  1
<>
 71
     5
 42
-1.0
 53
0.00013888888889
  3
ME10_DIM_15
100
AcDbAlignedDimension
 13
558.5563190210527
 23
-103.3283562948743
 33
0.0
 14
555.0563190210526
 24
-103.3283562948743
 34
0.0
100
AcDbRotatedDimension
  0
DIMENSION
  5
176
330
1F
100
AcDbEntity
  8
1
100
AcDbDimension
  2
*D7
 10
489.6754257432044
 20
-103.3283562948743
 30
0.0
 11
485.9254257432044
 21
-106.7527014832317
 31
0.0
 70
    32
  1
<>
 71
     5
 42
-1.0
 53
90.0
  3
ME10_DIM_16
100
AcDbAlignedDimension
 13
519.5563190210526
 23
-99.32835629487434
 33
0.0
 14
499.0563190210527
 24
-103.3283562948743
 34
0.0
 50
90.0
100
AcDbRotatedDimension
  0
DIMENSION
  5
181
330
1F
100
AcDbEntity
  8
1
100
AcDbDimension
  2
*D8
 10
489.6754257432044
 20
-99.32835629487434
 30
0.0
 11
485.9254257432044
 21
-85.32835629487445
 31
0.0
 70
    32
  1
<>
 71
     5
 42
-1.0
 53
90.0
  3
ME10_DIM_17
100
AcDbAlignedDimension
 13
519.5563190210526
 23
-67.32835629487457
 33
0.0
 14
519.5563190210526
 24
-99.32835629487434
 34
0.0
 50
90.0
100
AcDbRotatedDimension
  0
ENDSEC
  0
SECTION
  2
OBJECTS
  0
DICTIONARY
  5
C
330
0
100
AcDbDictionary
281
     1
  3
ACAD_GROUP
350
D
  3
ACAD_LAYOUT
350
1A
  3
ACAD_MLINESTYLE
350
17
  3
ACAD_PLOTSETTINGS
350
19
  3
ACAD_PLOTSTYLENAME
350
E
  0
DICTIONARY
  5
D
102
{ACAD_REACTORS
330
C
102
}
330
C
100
AcDbDictionary
281
     1
  0
DICTIONARY
  5
1A
102
{ACAD_REACTORS
330
C
102
}
330
C
100
AcDbDictionary
281
     1
  3
Layout1
350
1E
  3
Layout2
350
26
  3
Model
350
22
  0
DICTIONARY
  5
17
102
{ACAD_REACTORS
330
C
102
}
330
C
100
AcDbDictionary
281
     1
  3
Standard
350
18
  0
DICTIONARY
  5
19
102
{ACAD_REACTORS
330
C
102
}
330
C
100
AcDbDictionary
281
     1
  0
ACDBDICTIONARYWDFLT
  5
E
102
{ACAD_REACTORS
330
C
102
}
330
C
100
AcDbDictionary
281
     1
  3
Normal
350
F
100
AcDbDictionaryWithDefault
340
F
  0
LAYOUT
  5
1E
102
{ACAD_REACTORS
330
1A
102
}
330
1A
100
AcDbPlotSettings
  1

  2

  4

  6

 40
0.0
 41
0.0
 42
0.0
 43
0.0
 44
0.0
 45
0.0
 46
0.0
 47
0.0
 48
0.0
 49
0.0
140
0.0
141
0.0
142
1.0
143
1.0
 70
   688
 72
     0
 73
     0
 74
     5
  7

 75
    16
 76
     0
 77
     2
 78
   300
147
1.0
148
0.0
149
0.0
100
AcDbLayout
  1
Layout1
 70
     1
 71
     1
 10
0.0
 20
0.0
 11
0.0
 21
0.0
 12
0.0
 22
0.0
 32
0.0
 14
0.0
 24
0.0
 34
0.0
 15
0.0
 25
0.0
 35
0.0
146
0.0
 13
0.0
 23
0.0
 33
0.0
 16
1.0
 26
0.0
 36
0.0
 17
0.0
 27
1.0
 37
0.0
 76
     0
330
1B
  0
LAYOUT
  5
26
102
{ACAD_REACTORS
330
1A
102
}
330
1A
100
AcDbPlotSettings
  1

  2

  4

  6

 40
0.0
 41
0.0
 42
0.0
 43
0.0
 44
0.0
 45
0.0
 46
0.0
 47
0.0
 48
0.0
 49
0.0
140
0.0
141
0.0
142
1.0
143
1.0
 70
   688
 72
     0
 73
     0
 74
     5
  7

 75
    16
 76
     0
 77
     2
 78
   300
147
1.0
148
0.0
149
0.0
100
AcDbLayout
  1
Layout2
 70
     1
 71
     2
 10
0.0
 20
0.0
 11
0.0
 21
0.0
 12
0.0
 22
0.0
 32
0.0
 14
0.0
 24
0.0
 34
0.0
 15
0.0
 25
0.0
 35
0.0
146
0.0
 13
0.0
 23
0.0
 33
0.0
 16
1.0
 26
0.0
 36
0.0
 17
0.0
 27
1.0
 37
0.0
 76
     0
330
23
  0
LAYOUT
  5
22
102
{ACAD_REACTORS
330
1A
102
}
330
1A
100
AcDbPlotSettings
  1

  2

  4

  6

 40
0.0
 41
0.0
 42
0.0
 43
0.0
 44
0.0
 45
0.0
 46
0.0
 47
0.0
 48
0.0
 49
0.0
140
0.0
141
0.0
142
1.0
143
1.0
 70
  1712
 72
     0
 73
     0
 74
     0
  7

 75
     0
 76
     0
 77
     2
 78
   300
147
1.0
148
0.0
149
0.0
100
AcDbLayout
  1
Model
 70
     1
 71
     0
 10
0.0
 20
0.0
 11
0.0
 21
0.0
 12
0.0
 22
0.0
 32
0.0
 14
484.1754257432044
 24
-127.267697518273
 34
0.0
 15
623.937248201244
 25
-6.26283953055159
 35
0.0
146
0.0
 13
0.0
 23
0.0
 33
0.0
 16
1.0
 26
0.0
 36
0.0
 17
0.0
 27
1.0
 37
0.0
 76
     0
330
1F
  0
MLINESTYLE
  5
18
102
{ACAD_REACTORS
330
17
102
}
330
17
100
AcDbMlineStyle
  2
Standard
 70
     0
  3

 62
   256
 51
90.0
 52
90.0
 71
     2
 49
0.5
 62
   256
  6
BYLAYER
 49
-0.5
 62
   256
  6
BYLAYER
  0
ACDBPLACEHOLDER
  5
F
102
{ACAD_REACTORS
330
E
102
}
330
E
  0
ENDSEC
  0
EOF
